osu file format v14

[General]
AudioFilename: 04. Towards the Horizon.mp3
AudioLeadIn: 0
PreviewTime: 79146
Countdown: 0
SampleSet: Soft
StackLeniency: 0.7
Mode: 2
LetterboxInBreaks: 0
WidescreenStoryboard: 0

[Editor]
Bookmarks: 64768
DistanceSpacing: 1.7
BeatDivisor: 4
GridSize: 4
TimelineZoom: 2

[Metadata]
Title:Towards The Horizon
TitleUnicode:Towards The Horizon
Artist:Camellia
ArtistUnicode:かめりあ
Creator:Sinnoh
Version:Platter
Source:REFLEC BEAT 悠久のリフレシア
Tags:The Reflesia of Eternity 6th KONAMI Arcade Championship kac BEMANI Illusiya イルシヤ
BeatmapID:1383647
BeatmapSetID:629384

[Difficulty]
HPDrainRate:5
CircleSize:3
OverallDifficulty:8
ApproachRate:8
SliderMultiplier:1.6
SliderTickRate:2

[Events]
//Background and Video events
0,0,"audio.jpg",0,0
//Break Periods
2,64968,70236
//Storyboard Layer 0 (Background)
//Storyboard Layer 1 (Fail)
//Storyboard Layer 2 (Pass)
//Storyboard Layer 3 (Foreground)
//Storyboard Sound Samples

[TimingPoints]
1038,388.60103626943,4,2,2,60,1,0
15027,-100,4,2,1,60,0,0
26879,-100,4,2,1,40,0,0
27462,-100,4,2,1,80,0,1
36789,-100,4,2,1,70,0,0
39898,-100,4,2,1,80,0,1
52333,-100,4,2,1,60,0,0
64768,-100,4,2,2,60,0,0
75649,-100,4,2,1,40,0,0
76426,-100,4,2,1,60,0,0
77203,-100,4,2,1,70,0,0
77300,-100,4,2,1,50,0,0
79924,-100,4,2,1,20,0,0
80021,-100,4,2,1,60,0,0
80312,-100,4,2,1,80,0,1
98965,-100,4,2,1,60,0,0
102074,-100,4,2,1,40,0,0
102851,-100,4,2,1,50,0,0
103628,-100,4,2,1,40,0,0
105183,-100,4,2,1,80,0,1
111400,-100,4,2,1,60,0,0
111789,-100,4,2,1,90,0,1
111983,-100,4,2,1,80,0,1
114120,-100,4,2,1,80,0,0
114509,-100,4,2,1,60,0,1
116646,-100,4,2,1,100,0,0
116743,-100,4,2,1,50,0,0
118201,-100,4,2,1,38,0,0
118784,-100,4,2,1,26,0,0
119172,-100,4,2,1,14,0,0
119561,-100,4,2,1,5,0,0

[Colours]
Combo1 : 192,192,192
Combo2 : 255,89,89
Combo3 : 87,87,255
Combo4 : 0,198,99

[HitObjects]
370,241,892,5,0,0:0:0:0:
368,217,940,1,0,0:0:0:0:
366,194,989,1,0,0:0:0:0:
364,171,1038,1,2,0:0:0:0:
128,176,2592,6,0,L|308:176,1,160,2|0,0:0|0:0,0:0:0:0:
380,156,3175,1,0,0:0:0:0:
256,296,3369,2,0,L|188:240,2,80,10|0|0,0:0|0:0|0:0,0:0:0:0:
360,296,3952,1,0,0:0:0:0:
148,328,4146,6,0,P|112:291|124:247,1,80,2|0,0:0|0:0,0:0:0:0:
158,256,4438,1,0,0:0:0:0:
203,249,4535,1,0,0:0:0:0:
327,269,4729,1,0,0:0:0:0:
332,231,4826,1,0,0:0:0:0:
339,189,4924,2,0,L|255:185,1,80,2|0,0:0|0:0,0:0:0:0:
299,145,5215,2,0,L|419:109,1,120
224,248,5701,5,2,0:0:0:0:
72,272,5992,1,0,0:0:0:0:
52,232,6089,2,0,P|68:160|160:124,1,160,0|2,0:0|0:0,0:0:0:0:
308,140,6769,1,0,0:0:0:0:
320,80,6867,6,0,L|140:40,2,160,0|2|0,0:0|0:0|0:0,0:0:0:0:
204,312,7838,2,0,L|184:264,2,40,0|0|2,0:0|0:0|0:0,0:0:0:0:
312,304,8227,1,0,0:0:0:0:
419,244,8421,2,0,L|411:155,1,80
213,225,8810,6,0,P|145:193|123:96,1,160,2|0,0:0|0:0,0:0:0:0:
222,100,9392,1,0,0:0:0:0:
338,102,9587,2,0,L|424:99,2,80,10|0|0,0:0|0:0|0:0,0:0:0:0:
410,194,10170,1,0,0:0:0:0:
230,327,10364,6,0,L|138:326,1,80,2|0,0:0|0:0,0:0:0:0:
240,225,10753,1,0,0:0:0:0:
257,165,10850,1,0,0:0:0:0:
232,105,10947,1,0,0:0:0:0:
186,80,11044,1,0,0:0:0:0:
97,134,11141,6,0,L|81:73,1,40,2|0,0:0|0:0,0:0:0:0:
121,72,11335,2,0,L|288:106,1,160,0|0,0:0|0:0,0:0:0:0:
487,94,11918,1,2,0:0:0:0:
321,297,12210,1,0,0:0:0:0:
312,237,12307,2,0,P|322:187|422:149,1,160,0|2,0:0|0:0,0:0:0:0:
267,152,12987,1,0,0:0:0:0:
213,150,13084,6,0,L|31:145,2,160,0|2|0,0:0|0:0|0:0,0:0:0:0:
328,200,14056,2,0,L|322:149,1,40,0|0,0:0|0:0,0:0:0:0:
256,156,14250,2,0,L|142:152,1,80,10|0,0:0|0:0,0:0:0:0:
60,102,14639,2,0,L|154:107,1,80,0|0,0:0|0:0,0:0:0:0:
415,275,15027,6,0,P|467:247|396:195,1,160,2|8,3:2|0:0,0:0:0:0:
296,183,15610,1,0,0:0:0:0:
254,184,15707,1,0,0:0:0:0:
203,185,15804,2,0,L|89:181,2,80,2|0|8,0:2|3:0|0:0,0:0:0:0:
493,146,16582,6,0,L|394:147,1,80,2|0,3:2|0:0,0:0:0:0:
319,192,16970,2,0,L|412:192,1,80,8|0,0:0|0:0,0:0:0:0:
503,232,17359,2,0,L|511:149,1,80,2|0,0:2|3:0,0:0:0:0:
466,137,17650,1,0,0:0:0:0:
407,115,17747,2,0,L|399:22,1,80,8|0,0:0|0:0,0:0:0:0:
126,236,18136,6,0,P|103:156|171:131,1,160,2|8,3:2|0:0,0:0:0:0:
274,134,18719,2,0,L|338:135,1,40,0|0,0:0|3:0,0:0:0:0:
361,134,18913,2,0,L|455:135,2,80,2|0|8,0:2|3:0|0:0,0:0:0:0:
26,260,19690,6,0,P|25:191|110:169,1,160,2|8,3:2|0:0,0:0:0:0:
260,183,20370,2,0,L|273:102,1,80,0|0,3:0|3:0,0:0:0:0:
83,84,20759,2,0,L|50:33,2,40,0|8|0,3:0|0:0|3:0,0:0:0:0:
146,124,21050,1,0,0:0:0:0:
416,261,21245,6,0,P|470:230|409:188,1,160,2|8,3:2|0:0,0:0:0:0:
286,194,21828,2,0,L|221:193,1,40,0|0,0:0|3:0,0:0:0:0:
201,192,22022,2,0,L|194:103,1,80,2|0,0:2|3:0,0:0:0:0:
327,118,22411,2,0,L|422:121,1,80,8|0,0:0|0:0,0:0:0:0:
119,316,22799,6,0,P|72:275|59:226,1,80,2|0,3:2|0:0,0:0:0:0:
115,220,23091,1,0,0:0:0:0:
179,222,23188,2,0,L|185:118,1,80,8|0,0:0|0:0,0:0:0:0:
68,84,23576,2,0,L|154:80,1,80,2|0,0:2|3:0,0:0:0:0:
439,254,23965,2,0,L|462:164,1,80,8|0,0:0|0:0,0:0:0:0:
170,342,24354,5,0,3:0:0:0:
126,343,24451,1,0,3:0:0:0:
91,319,24548,1,0,3:0:0:0:
75,278,24645,1,0,3:0:0:0:
87,238,24742,1,0,3:0:0:0:
121,211,24839,1,0,3:0:0:0:
169,190,24936,1,0,3:0:0:0:
231,187,25034,1,0,3:0:0:0:
342,342,25131,5,0,3:0:0:0:
386,343,25228,1,0,3:0:0:0:
421,319,25325,1,0,3:0:0:0:
437,278,25422,1,0,3:0:0:0:
418,238,25519,1,0,3:0:0:0:
381,217,25617,1,0,3:0:0:0:
339,206,25714,1,0,3:0:0:0:
505,150,25908,5,0,3:0:0:0:
171,155,26879,2,0,L|271:153,2,80,0|8|0,3:0|0:0|3:0,0:0:0:0:
452,258,27462,6,0,P|502:226|438:176,1,160,4|8,3:2|0:0,0:0:0:0:
341,301,28045,1,2,0:0:0:0:
231,254,28240,2,0,L|213:206,1,40,2|0,0:0|0:0,0:0:0:0:
323,143,28531,1,2,0:0:0:0:
365,108,28628,2,0,L|388:63,2,40,10|2|2,0:0|0:0|0:0,0:0:0:0:
102,297,29017,6,0,P|32:269|42:176,1,160,0|8,3:3|0:0,0:0:0:0:
148,187,29600,1,2,0:0:0:0:
250,159,29794,1,2,0:0:0:0:
210,157,29891,1,0,0:0:0:0:
170,156,29988,1,0,3:0:0:0:
293,195,30183,2,0,L|314:90,1,80,8|0,0:0|0:0,0:0:0:0:
31,250,30571,6,0,P|22:184|123:126,1,160,0|8,3:0|0:0,0:0:0:0:
195,126,31154,1,2,0:3:0:0:
305,129,31348,2,0,L|310:67,1,40,2|2,0:3|0:3,0:0:0:0:
186,112,31640,2,0,L|180:59,1,40,2|10,0:3|0:3,0:0:0:0:
66,64,31931,1,2,0:3:0:0:
341,278,32126,6,0,L|521:279,1,160,0|8,3:0|0:0,0:0:0:0:
394,202,32708,1,0,0:0:0:0:
287,131,32903,2,0,L|368:130,1,80,0|0,0:0|0:0,0:0:0:0:
255,60,33291,2,0,L|368:61,1,80,8|0,0:0|0:0,0:0:0:0:
70,291,33680,6,0,P|18:271|84:215,1,160,4|8,3:2|0:0,0:0:0:0:
168,206,34263,1,2,0:0:0:0:
265,207,34457,2,0,L|266:146,1,40,2|0,0:0|0:0,0:0:0:0:
158,135,34749,1,2,0:0:0:0:
118,97,34846,2,0,L|96:56,2,40,10|2|2,0:0|0:0|0:0,0:0:0:0:
393,264,35234,6,0,P|440:238|375:177,1,160,0|8,3:0|0:0,0:0:0:0:
281,174,35817,1,2,0:0:0:0:
178,178,36012,1,2,0:0:0:0:
218,178,36109,1,0,0:0:0:0:
258,178,36206,1,0,3:0:0:0:
130,257,36400,2,0,L|220:254,1,80,8|0,0:0|0:0,0:0:0:0:
476,212,36789,6,0,P|487:130|413:100,1,160,0|0,3:0|0:0,0:0:0:0:
259,141,37566,2,0,L|434:136,1,160,8|0,0:0|0:0,0:0:0:0:
269,297,38246,1,0,3:0:0:0:
242,258,38343,6,0,L|240:120,1,120,0|0,3:0|3:0,0:0:0:0:
375,131,38926,1,0,3:0:0:0:
104,177,39120,2,0,L|-7:181,1,80,10|0,0:0|0:0,0:0:0:0:
144,305,39509,1,2,0:0:0:0:
138,265,39606,1,2,3:2:0:0:
132,225,39703,1,0,0:0:0:0:
407,238,39898,6,0,P|455:215|396:157,1,160,4|8,3:2|0:0,0:0:0:0:
294,160,40481,1,0,0:0:0:0:
189,160,40675,2,0,L|106:158,2,80,2|0|10,0:3|3:0|0:3,0:0:0:0:
295,269,41258,1,2,0:3:0:0:
103,296,41452,6,0,L|95:209,1,80,0|0,3:0|0:0,0:0:0:0:
211,203,41841,2,0,L|200:113,1,80,8|0,0:0|0:0,0:0:0:0:
315,41,42229,2,0,L|235:43,2,80,0|0|8,0:0|3:0|0:0,0:0:0:0:
418,74,42812,1,0,0:0:0:0:
115,279,43006,6,0,P|64:239|90:199,1,120,0|0,3:0|0:0,0:0:0:0:
151,197,43395,2,0,L|254:199,1,80,8|2,0:0|0:3,0:0:0:0:
334,144,43784,2,0,L|187:138,1,120,2|2,0:3|0:3,0:0:0:0:
163,105,44172,2,0,B|126:68|126:68|162:67,1,80,10|2,0:3|0:3,0:0:0:0:
471,175,44561,6,0,P|489:240|456:268,1,80,0|0,3:0|0:0,0:0:0:0:
373,267,44949,1,8,0:0:0:0:
266,261,45144,2,0,L|257:206,1,40,0|0,0:0|3:0,0:0:0:0:
297,181,45338,2,0,L|388:178,1,80,0|0,0:0|0:0,0:0:0:0:
280,95,45727,1,8,0:0:0:0:
319,93,45824,1,0,0:0:0:0:
359,91,45921,1,0,0:0:0:0:
78,289,46115,6,0,P|25:253|88:198,1,160,4|8,3:2|0:0,0:0:0:0:
178,195,46698,1,0,0:0:0:0:
283,192,46892,2,0,L|291:100,1,80,2|0,0:3|3:0,0:0:0:0:
176,104,47281,2,0,L|171:7,1,80,10|2,0:3|0:3,0:0:0:0:
349,249,47670,5,0,3:0:0:0:
399,235,47767,1,0,0:0:0:0:
422,199,47864,1,0,0:0:0:0:
411,159,47961,1,0,0:0:0:0:
340,151,48058,1,8,0:0:0:0:
290,137,48155,1,0,0:0:0:0:
288,83,48253,1,0,0:0:0:0:
331,59,48350,1,0,0:0:0:0:
451,64,48447,6,0,L|480:21,2,40,0|0|0,0:0|0:0|3:0,0:0:0:0:
350,199,48835,2,0,L|441:198,1,80,8|0,0:0|0:0,0:0:0:0:
152,277,49224,6,0,P|116:226|161:170,1,120,0|0,3:0|0:0,0:0:0:0:
197,181,49613,2,0,L|280:183,1,80,8|2,0:0|0:3,0:0:0:0:
179,269,50001,2,0,L|49:265,1,120,2|2,0:3|0:3,0:0:0:0:
102,214,50390,2,0,L|185:216,1,80,10|2,0:3|0:3,0:0:0:0:
445,239,50778,6,0,P|492:217|432:151,1,160,8|8,0:0|0:0,0:0:0:0:
340,147,51361,1,8,0:0:0:0:
229,214,51556,2,0,L|216:111,1,80,0|0,3:0|0:0,0:0:0:0:
483,167,51944,2,0,L|479:76,1,80,8|8,0:0|0:0,0:0:0:0:
155,143,52333,5,4,3:2:0:0:
337,221,52916,2,0,L|285:220,1,40,2|0,0:0|0:0,0:0:0:0:
249,217,53110,2,0,L|111:213,2,120,10|0|0,0:0|0:0|0:0,0:0:0:0:
362,200,53887,5,2,0:0:0:0:
462,165,54082,2,0,P|460:117|405:69,1,120,0|0,3:0|3:0,0:0:0:0:
288,85,54567,2,0,L|282:20,1,40,0|10,3:0|0:0,0:0:0:0:
374,25,54859,1,0,3:0:0:0:
496,23,55053,2,0,L|388:21,1,80,2|0,0:0|0:0,0:0:0:0:
142,308,55442,6,0,P|78:293|64:193,1,160,2|0,3:2|0:0,0:0:0:0:
168,204,56025,2,0,L|217:204,1,40,0|0,3:0|3:0,0:0:0:0:
254,203,56219,2,0,L|384:204,2,120,8|0|0,0:0|0:0|0:0,0:0:0:0:
166,130,56996,6,0,L|301:131,2,120,0|0|0,3:0|3:0|3:0,0:0:0:0:
357,133,57773,2,0,L|389:81,2,40,8|0|0,0:0|3:0|3:0,0:0:0:0:
168,261,58162,1,8,0:0:0:0:
302,297,58550,6,0,L|124:297,1,160,0|0,0:0|3:0,0:0:0:0:
242,185,59133,2,0,L|299:183,1,40,2|0,0:0|0:0,0:0:0:0:
329,182,59328,2,0,L|454:182,2,120,10|0|0,0:0|0:0|0:0,0:0:0:0:
225,186,60105,5,2,0:0:0:0:
117,186,60299,2,0,P|117:116|186:85,1,120,0|0,3:0|3:0,0:0:0:0:
286,85,60785,1,0,3:0:0:0:
317,86,60882,2,0,L|410:88,1,80,10|0,0:0|0:0,0:0:0:0:
279,212,61271,2,0,L|184:213,1,80,2|2,0:0|0:0,0:0:0:0:
459,323,61659,6,0,P|504:295|426:248,1,160,2|0,3:2|0:0,0:0:0:0:
340,236,62242,2,0,L|280:236,1,40,0|0,3:0|3:0,0:0:0:0:
255,237,62436,2,0,L|123:237,2,120,8|0|2,0:0|0:0|0:0,0:0:0:0:
360,146,63214,6,0,L|492:146,2,120,2|0|0,3:2|3:0|3:0,0:0:0:0:
157,163,63991,1,8,0:0:0:0:
377,130,64282,1,8,0:0:0:0:
157,163,64574,1,10,0:0:0:0:
452,240,64768,1,10,0:0:0:0:
256,192,70986,12,2,73706,0:0:0:0:
294,279,74094,6,0,P|309:206|238:158,1,160,2|0,0:0|0:0,0:0:0:0:
128,152,74677,2,0,L|118:95,1,40,0|0,0:0|0:0,0:0:0:0:
172,69,74872,2,0,L|347:68,1,160,2|0,0:0|0:0,0:0:0:0:
466,288,75455,2,0,L|472:226,1,40,2|0,0:0|0:0,0:0:0:0:
412,186,75649,6,0,L|324:185,1,80,2|0,3:2|3:2,3:2:0:0:
237,160,76037,2,0,L|337:160,1,80,0|0,3:2|3:2,3:2:0:0:
216,112,76426,5,2,3:2:0:0:
165,119,76523,1,0,3:0:0:0:
130,157,76620,1,0,3:0:0:0:
115,209,76718,1,0,3:0:0:0:
134,262,76815,1,0,3:0:0:0:
173,296,76912,1,0,0:0:0:0:
223,300,77009,1,0,3:0:0:0:
486,284,77203,5,2,3:2:0:0:
256,192,77592,12,0,78758,3:0:0:0:
328,192,79146,6,0,L|163:190,1,160,2|2,0:2|0:2,0:0:0:0:
456,161,79924,2,0,L|487:121,2,40,6|0|2,0:2|0:2|0:2,0:0:0:0:
179,311,80312,6,0,L|86:308,1,80,4|0,3:2|0:2,0:0:0:0:
208,234,80701,1,10,0:2:0:0:
248,234,80798,1,0,0:2:0:0:
288,234,80895,1,2,0:2:0:0:
183,179,81089,2,0,L|168:81,1,80,0|0,0:2|3:2,0:0:0:0:
305,183,81478,1,10,0:2:0:0:
334,157,81575,1,0,0:2:0:0:
338,118,81672,1,2,0:2:0:0:
313,88,81769,1,0,0:2:0:0:
254,79,81867,6,0,L|165:79,1,80,0|0,3:2|0:2,0:0:0:0:
72,142,82255,1,8,0:2:0:0:
111,142,82352,1,2,0:2:0:0:
151,142,82449,1,0,0:2:0:0:
45,259,82644,1,2,0:2:0:0:
180,263,82838,1,2,3:2:0:0:
315,263,83032,1,10,0:2:0:0:
450,263,83227,1,2,0:2:0:0:
162,48,83421,6,0,P|113:92|191:147,1,160,0|10,3:2|0:2,0:0:0:0:
429,151,84004,2,0,L|460:96,1,40,2|0,0:2|3:2,0:0:0:0:
393,104,84198,2,0,L|303:105,1,80,0|0,0:2|3:2,0:0:0:0:
471,278,84587,1,10,0:2:0:0:
495,247,84684,1,0,0:2:0:0:
490,209,84781,1,2,0:2:0:0:
459,186,84878,1,0,0:2:0:0:
403,175,84975,6,0,L|513:168,2,80,2|2|10,3:2|0:2|0:2,0:0:0:0:
214,183,85558,1,2,0:2:0:0:
174,181,85655,1,2,3:2:0:0:
141,180,85753,2,0,L|248:180,1,80,2|2,0:2|0:2,0:0:0:0:
346,160,86141,2,0,L|329:69,1,80,10|2,0:2|0:2,0:0:0:0:
71,227,86530,6,0,P|41:186|35:143,1,80,4|0,3:2|0:2,0:0:0:0:
156,142,86918,2,0,L|161:84,2,40,10|0|2,0:2|0:2|0:2,0:0:0:0:
286,153,87307,2,0,L|380:156,1,80,0|0,0:2|3:2,0:0:0:0:
240,353,87696,1,8,0:2:0:0:
218,320,87793,1,0,0:2:0:0:
227,282,87890,1,2,0:2:0:0:
260,262,87987,1,0,0:2:0:0:
306,258,88084,6,0,L|404:259,1,80,0|0,3:2|0:2,0:0:0:0:
282,184,88473,2,0,L|262:132,2,40,10|0|2,0:2|0:2|0:2,0:0:0:0:
420,117,88861,1,2,0:2:0:0:
285,121,89056,1,2,3:2:0:0:
150,121,89250,1,10,0:2:0:0:
15,121,89444,1,0,0:2:0:0:
404,300,89639,6,0,P|453:258|373:210,1,160,0|8,3:2|0:2,0:0:0:0:
271,208,90221,2,0,L|204:209,1,40,0|0,0:2|3:2,0:0:0:0:
175,206,90416,1,2,0:2:0:0:
170,166,90513,1,0,0:2:0:0:
164,127,90610,1,0,3:2:0:0:
301,137,90804,1,10,0:2:0:0:
306,97,90901,1,0,0:2:0:0:
312,57,90999,1,0,0:2:0:0:
43,289,91193,6,0,L|27:228,1,40,2|8,3:2|0:2,0:0:0:0:
137,220,91484,2,0,L|149:167,1,40,0|10,0:2|0:2,0:0:0:0:
34,140,91776,1,0,3:2:0:0:
313,296,91970,1,10,0:2:0:0:
380,295,92067,1,0,3:2:0:0:
437,290,92164,1,0,3:2:0:0:
465,277,92262,2,0,L|490:222,2,40,10|0|0,0:2|3:2|3:2,0:0:0:0:
398,211,92553,1,8,0:2:0:0:
110,237,92747,6,0,L|24:233,1,80,4|0,3:2|0:2,0:0:0:0:
147,295,93136,1,10,0:2:0:0:
186,296,93233,1,0,0:2:0:0:
226,298,93330,1,2,0:2:0:0:
344,256,93525,2,0,L|322:148,1,80,0|0,0:2|3:2,0:0:0:0:
205,177,93913,1,10,0:2:0:0:
170,158,94010,1,0,0:2:0:0:
162,120,94107,1,2,0:2:0:0:
184,89,94205,1,0,0:2:0:0:
239,77,94302,6,0,L|338:80,1,80,0|0,3:2|0:2,0:0:0:0:
194,340,94690,2,0,L|177:286,2,40,8|0|2,0:2|0:2|0:2,0:0:0:0:
354,315,95079,1,2,0:2:0:0:
194,196,95273,1,2,3:2:0:0:
354,315,95468,1,10,0:2:0:0:
194,196,95662,1,2,0:2:0:0:
487,275,95856,6,0,P|504:203|428:186,1,160,2|10,3:2|0:2,0:0:0:0:
160,206,96439,2,0,L|92:205,1,40,2|0,0:2|3:2,0:0:0:0:
80,206,96633,2,0,L|188:205,1,80,0|0,0:2|3:2,0:0:0:0:
284,208,97022,1,10,0:2:0:0:
315,185,97119,1,0,0:2:0:0:
318,146,97216,1,2,0:2:0:0:
291,118,97313,1,0,0:2:0:0:
235,112,97411,6,0,L|139:109,2,80,2|2|10,3:2|0:2|0:2,0:0:0:0:
441,136,97993,2,0,L|442:89,1,40,0|0,0:2|3:2,0:0:0:0:
388,69,98188,2,0,L|297:68,1,80,2|2,0:2|0:2,0:0:0:0:
429,183,98576,2,0,L|466:224,2,40,10|0|2,0:2|0:2|0:2,0:0:0:0:
140,257,98965,6,0,P|94:238|146:164,1,160,2|8,3:2|0:2,0:0:0:0:
243,126,99548,1,0,0:2:0:0:
203,125,99645,1,0,3:2:0:0:
157,123,99742,2,0,L|147:35,1,80,0|0,0:2|3:2,0:0:0:0:
273,257,100131,2,0,L|276:172,1,80,8|0,0:2|0:2,0:0:0:0:
63,313,100519,6,0,P|17:285|73:219,1,160,2|8,3:2|0:2,0:0:0:0:
192,163,101102,2,0,L|213:109,2,40,0|0|0,0:0|3:0|0:0,0:0:0:0:
61,161,101491,2,0,L|40:107,2,40,0|0|8,3:0|0:0|0:0,0:0:0:0:
177,222,101879,1,0,0:0:0:0:
450,310,102074,5,0,3:0:0:0:
484,291,102171,1,0,3:0:0:0:
506,257,102268,1,0,3:0:0:0:
508,218,102365,1,0,3:0:0:0:
490,182,102462,1,0,3:0:0:0:
458,159,102560,1,0,3:0:0:0:
419,155,102657,1,0,3:0:0:0:
159,251,102851,5,0,3:0:0:0:
125,232,102948,1,0,3:0:0:0:
103,198,103045,1,0,3:0:0:0:
101,159,103142,1,0,3:0:0:0:
119,123,103240,1,0,3:0:0:0:
151,100,103337,1,0,0:0:0:0:
190,96,103434,1,0,3:0:0:0:
21,75,103628,5,0,3:0:0:0:
456,159,104600,2,0,L|357:156,2,80,0|8|0,3:0|0:0|3:0,0:0:0:0:
159,182,105183,6,0,L|61:182,1,80,4|0,3:2|0:0,0:0:0:0:
175,308,105571,2,0,L|208:228,1,80,2|0,0:2|0:2,0:0:0:0:
393,222,105960,1,8,3:2:0:0:
480,114,106154,2,0,L|395:110,2,80,2|0|0,0:2|0:2|0:2,0:0:0:0:
213,221,106737,6,0,P|161:175|194:137,1,120,0|0,3:2|0:2,0:0:0:0:
238,126,107126,2,0,L|328:127,1,80,2|0,0:2|3:2,0:0:0:0:
133,305,107514,2,0,L|243:308,2,80,8|2|2,0:2|0:3|0:3,0:0:0:0:
418,324,108097,6,0,P|463:309|402:250,1,160,4|0,3:2|3:2,0:0:0:0:
302,201,108680,2,0,L|399:198,1,80,0|2,0:2|0:3,0:0:0:0:
199,136,109069,2,0,L|372:136,1,160,8|2,0:2|0:3,0:0:0:0:
452,133,109651,1,2,0:3:0:0:
189,259,109846,6,0,L|102:257,1,80,0|0,3:2|0:2,0:0:0:0:
165,210,110137,2,0,L|295:210,1,120,0|0,3:2|3:2,0:0:0:0:
23,179,110623,2,0,L|14:60,1,120,8|8,0:2|0:2,0:0:0:0:
154,199,111109,2,0,L|146:61,1,120,0|2,3:2|3:3,0:0:0:0:
476,237,111789,6,0,L|465:141,1,80,4|0,3:2|0:2,0:0:0:0:
280,172,112177,1,8,0:2:0:0:
170,122,112372,2,0,L|269:117,2,80,2|0|0,0:2|0:2|0:2,0:0:0:0:
446,280,112955,6,0,P|489:244|445:184,1,120,0|0,3:2|3:2,0:0:0:0:
415,183,113343,2,0,L|316:180,1,80,2|0,0:2|3:2,0:0:0:0:
32,231,113732,2,0,L|30:123,1,80,8|8,0:2|0:2,0:0:0:0:
354,139,114120,1,0,3:2:0:0:
193,211,114509,6,0,L|345:214,1,120,4|12,3:2|3:2,0:0:0:0:
40,259,114995,2,0,L|34:185,1,40,8|8,0:2|0:2,0:0:0:0:
168,132,115286,2,0,L|42:134,1,120,4|4,3:2|3:2,0:0:0:0:
349,166,115772,2,0,L|354:96,1,40,8|8,0:2|0:2,0:0:0:0:
236,96,116063,5,4,3:2:0:0:
496,99,116355,2,0,L|489:48,1,40,8|8,0:2|0:2,0:0:0:0:
140,186,116646,1,4,0:2:0:0:
256,192,116841,12,0,119949,0:0:0:0:
