osu file format v14

[General]
AudioFilename: 04. Towards the Horizon.mp3
AudioLeadIn: 0
PreviewTime: 79146
Countdown: 0
SampleSet: Soft
StackLeniency: 0.7
Mode: 2
LetterboxInBreaks: 0
WidescreenStoryboard: 1

[Editor]
Bookmarks: 64768
DistanceSpacing: 1.1
BeatDivisor: 4
GridSize: 4
TimelineZoom: 1.8

[Metadata]
Title:Towards The Horizon
TitleUnicode:Towards The Horizon
Artist:Camellia
ArtistUnicode:かめりあ
Creator:Sinnoh
Version:Overdose
Source:REFLEC BEAT 悠久のリフレシア
Tags:The Reflesia of Eternity 6th KONAMI Arcade Championship kac BEMANI Illusiya イルシヤ
BeatmapID:1407264
BeatmapSetID:629384

[Difficulty]
HPDrainRate:6
CircleSize:4
OverallDifficulty:9.2
ApproachRate:9.2
SliderMultiplier:2.1
SliderTickRate:2

[Events]
//Background and Video events
0,0,"audio.jpg",0,0
//Break Periods
2,64968,70416
//Storyboard Layer 0 (Background)
//Storyboard Layer 1 (Fail)
//Storyboard Layer 2 (Pass)
//Storyboard Layer 3 (Foreground)
//Storyboard Sound Samples
Sample,15707,0,"drum-hitnormal.wav",60
Sample,21925,0,"drum-hitnormal.wav",60
Sample,105863,0,"drum-hitnormal.wav",80
Sample,105911,0,"drum-hitnormal.wav",80

[TimingPoints]
1038,388.60103626943,4,2,2,60,1,0
15027,-86.9565217391305,4,2,1,60,0,0
26879,-86.9565217391305,4,2,1,40,0,0
27462,-86.9565217391305,4,2,1,80,0,1
36789,-86.9565217391305,4,2,1,80,0,0
39898,-86.9565217391305,4,2,1,80,0,1
52333,-86.9565217391305,4,2,1,60,0,0
64768,-86.9565217391305,4,2,2,60,0,0
70986,-86.9565217391305,4,2,2,60,0,0
75649,-86.9565217391305,4,2,1,40,0,0
76426,-86.9565217391305,4,2,1,60,0,0
77203,-86.9565217391305,4,2,1,70,0,0
77300,-86.9565217391305,4,2,1,50,0,0
79924,-86.9565217391305,4,2,1,20,0,0
80021,-86.9565217391305,4,2,1,60,0,0
80312,-86.9565217391305,4,2,1,80,0,1
98965,-86.9565217391305,4,2,1,70,0,0
102074,-86.9565217391305,4,2,1,40,0,0
102851,-86.9565217391305,4,2,1,60,0,0
103628,-86.9565217391305,4,2,1,40,0,0
105183,-86.9565217391305,4,2,1,80,0,1
111400,-86.9565217391305,4,2,1,60,0,0
111789,-86.9565217391305,4,2,1,90,0,1
111983,-86.9565217391305,4,2,1,80,0,1
114120,-86.9565217391305,4,2,1,80,0,0
114509,-86.9565217391305,4,2,1,60,0,1
116646,-86.9565217391305,4,2,1,100,0,0
116743,-86.9565217391305,4,2,1,50,0,0
118201,-86.9565217391305,4,2,1,38,0,0
118784,-86.9565217391305,4,2,1,26,0,0
119172,-86.9565217391305,4,2,1,14,0,0
119561,-86.9565217391305,4,2,1,5,0,0

[Colours]
Combo1 : 192,192,192
Combo2 : 255,89,89
Combo3 : 87,87,255
Combo4 : 0,198,99

[HitObjects]
408,328,892,5,0,0:0:0:0:
422,272,940,1,0,0:0:0:0:
404,227,989,1,0,0:0:0:0:
293,297,1038,6,0,P|201:248|319:110,1,315,2|0,0:0|0:0,0:0:0:0:
356,99,1718,1,0,0:0:0:0:
171,257,1815,5,2,0:0:0:0:
144,214,1912,1,0,0:0:0:0:
159,166,2009,1,0,0:0:0:0:
206,147,2106,1,0,0:0:0:0:
270,138,2203,1,0,0:0:0:0:
317,119,2300,1,0,0:0:0:0:
332,71,2398,1,0,0:0:0:0:
305,28,2495,1,0,0:0:0:0:
55,260,2592,6,0,L|56:129,1,105,2|0,0:0|0:0,0:0:0:0:
112,133,2883,1,0,0:0:0:0:
269,227,2981,2,0,L|274:148,1,52.5,0|0,0:0|0:0,0:0:0:0:
189,157,3175,2,0,L|194:95,1,52.5,0|0,0:0|0:0,0:0:0:0:
407,76,3369,2,0,L|511:82,2,105,10|0|0,0:0|0:0|0:0,0:0:0:0:
286,74,3952,1,0,0:0:0:0:
30,198,4146,6,0,L|145:196,1,105,2|0,0:0|0:0,0:0:0:0:
182,196,4438,1,0,0:0:0:0:
22,295,4535,2,0,L|17:210,1,52.5
102,230,4729,2,0,L|98:160,1,52.5,0|0,0:0|0:0,0:0:0:0:
291,159,4924,2,0,L|414:149,1,105,2|0,0:0|0:0,0:0:0:0:
436,119,5215,2,0,L|245:119,1,157.5,0|0,0:0|0:0,0:0:0:0:
221,84,5604,1,0,0:0:0:0:
452,33,5701,5,2,0:0:0:0:
322,305,5992,1,0,0:0:0:0:
374,306,6089,2,0,L|389:201,1,105,0|0,0:0|0:0,0:0:0:0:
135,283,6478,2,0,L|125:166,1,105,2|0,0:0|0:0,0:0:0:0:
189,164,6769,1,0,0:0:0:0:
242,161,6867,2,0,L|357:161,1,105,0|0,0:0|0:0,0:0:0:0:
35,58,7255,6,0,L|153:55,2,105,2|0|0,0:0|0:0|0:0,0:0:0:0:
166,256,7838,2,0,L|173:182,1,52.5
412,172,8032,1,2,0:0:0:0:
303,168,8227,1,0,0:0:0:0:
184,184,8421,1,0,0:0:0:0:
158,161,8486,1,0,0:0:0:0:
158,161,8550,1,0,0:0:0:0:
184,184,8615,1,0,0:0:0:0:
462,209,8810,6,0,P|467:125|453:82,1,105,2|0,0:0|0:0,0:0:0:0:
393,78,9101,1,0,0:0:0:0:
234,211,9198,2,0,L|229:132,1,52.5,0|0,0:0|0:0,0:0:0:0:
314,141,9392,2,0,L|309:79,1,52.5,0|0,0:0|0:0,0:0:0:0:
148,61,9587,2,0,L|33:54,2,105,10|0|0,0:0|0:0|0:0,0:0:0:0:
286,105,10170,1,0,0:0:0:0:
23,276,10364,5,2,0:0:0:0:
14,225,10461,1,0,0:0:0:0:
42,182,10558,1,0,0:0:0:0:
92,169,10655,1,0,0:0:0:0:
257,172,10753,2,0,L|345:173,1,52.5,0|0,0:0|0:0,0:0:0:0:
257,172,10947,2,0,L|169:173,1,52.5,0|0,0:0|0:0,0:0:0:0:
426,179,11141,6,0,L|431:104,1,52.5,2|0,0:0|0:0,0:0:0:0:
252,332,11335,2,0,P|178:302|271:277,1,210,0|0,0:0|0:0,0:0:0:0:
310,277,11821,1,0,0:0:0:0:
64,252,11918,5,2,0:0:0:0:
189,164,12210,1,0,0:0:0:0:
135,138,12307,2,0,L|23:130,1,105,0|0,0:0|0:0,0:0:0:0:
343,228,12696,2,0,L|462:224,1,105,2|0,0:0|0:0,0:0:0:0:
385,157,12987,1,0,0:0:0:0:
313,152,13084,2,0,L|178:153,1,105,0|0,0:0|0:0,0:0:0:0:
490,80,13473,6,0,L|382:79,2,105,2|0|0,0:0|0:0|0:0,0:0:0:0:
350,262,14056,2,0,L|266:261,1,52.5,0|0,0:0|0:0,0:0:0:0:
94,269,14250,2,0,L|89:140,1,105,10|0,0:0|0:0,0:0:0:0:
218,148,14639,2,0,L|213:33,1,105,0|0,0:0|0:0,0:0:0:0:
470,313,15027,6,0,L|231:239,1,241.500004606247,0|8,3:0|0:0,0:0:0:0:
370,168,15610,2,0,L|395:114,2,40.2500007677078,0|0|0,0:0|0:0|0:0,0:0:0:0:
212,175,15804,2,0,L|60:171,1,120.750002303124,2|0,0:0|3:0,0:0:0:0:
220,95,16193,2,0,L|350:98,1,120.750002303124,8|0,0:0|0:0,0:0:0:0:
29,217,16582,5,2,3:2:0:0:
89,215,16679,1,0,0:0:0:0:
149,214,16776,1,0,0:0:0:0:
210,212,16873,1,0,0:0:0:0:
264,155,16970,2,0,L|132:153,1,120.750002303124,8|0,0:0|0:0,0:0:0:0:
413,64,17359,1,2,0:0:0:0:
279,191,17553,1,0,3:0:0:0:
255,158,17618,1,0,0:0:0:0:
252,119,17683,1,0,0:0:0:0:
277,83,17747,2,0,L|418:80,1,120.750002303124,8|0,0:0|0:0,0:0:0:0:
108,305,18136,6,0,P|42:279|123:169,1,241.500004606247,2|8,3:2|0:0,0:0:0:0:
209,100,18719,2,0,L|121:100,1,60.3750011515618,0|0,0:0|3:0,0:0:0:0:
365,98,18913,2,0,L|501:98,1,120.750002303124,2|0,0:2|3:0,0:0:0:0:
366,239,19302,2,0,L|372:97,1,120.750002303124,8|0,0:0|0:0,0:0:0:0:
120,265,19690,6,0,P|62:247|127:129,1,241.500004606247,2|8,3:2|0:2,0:0:0:0:
307,197,20370,2,0,L|325:40,1,120.750002303124,0|0,3:0|3:0,0:0:0:0:
167,87,20759,2,0,L|245:81,2,60.3750011515618,0|8|0,3:0|0:0|3:0,0:0:0:0:
73,229,21050,1,0,0:0:0:0:
58,191,21115,1,0,0:0:0:0:
59,151,21180,1,0,0:0:0:0:
246,153,21245,6,0,L|369:153,2,120.750002303124,2|0|8,3:2|0:0|0:0,0:0:0:0:
93,70,21828,1,0,0:0:0:0:
133,69,21892,1,0,0:0:0:0:
173,69,21957,1,0,0:0:0:0:
213,69,22022,2,0,L|350:69,1,120.750002303124,2|0,0:2|3:0,0:0:0:0:
172,297,22411,2,0,L|162:171,1,120.750002303124,8|0,0:0|0:0,0:0:0:0:
441,232,22799,5,2,3:2:0:0:
494,211,22896,1,0,0:0:0:0:
498,154,22993,1,0,0:0:0:0:
448,126,23091,1,0,0:0:0:0:
269,186,23188,2,0,P|236:146|287:85,1,120.750002303124,8|0,0:0|0:0,0:0:0:0:
422,231,23576,2,0,L|427:95,1,120.750002303124,2|0,0:2|3:0,0:0:0:0:
91,197,23965,2,0,L|224:198,1,120.750002303124,8|0,0:0|0:0,0:0:0:0:
250,198,24224,1,0,0:0:0:0:
290,197,24289,1,0,0:0:0:0:
82,311,24354,5,0,3:0:0:0:
27,293,24451,1,0,3:0:0:0:
24,237,24548,1,0,3:0:0:0:
76,214,24645,1,0,3:0:0:0:
262,256,24742,1,0,3:0:0:0:
316,238,24839,1,0,3:0:0:0:
319,182,24936,1,0,3:0:0:0:
267,159,25034,1,0,3:0:0:0:
107,135,25131,6,0,L|64:75,1,60.3750011515618,0|0,3:0|3:0,0:0:0:0:
267,159,25325,2,0,L|313:111,1,60.3750011515618,0|0,3:0|3:0,0:0:0:0:
107,135,25519,2,0,L|64:75,1,60.3750011515618,0|0,3:0|3:0,0:0:0:0:
284,164,25714,1,0,3:0:0:0:
287,137,25762,1,0,0:0:0:0:
290,111,25811,1,0,0:0:0:0:
475,101,25908,5,0,3:0:0:0:
242,244,26879,2,0,L|206:225,3,30.1875005757809,0|0|0|0,3:0|0:0|0:0|0:0,0:0:0:0:
249,157,27074,2,0,L|111:150,1,120.750002303124,8|0,0:0|3:0,0:0:0:0:
83,147,27365,1,8,0:0:0:0:
411,288,27462,6,0,P|489:216|399:146,1,241.500004606247,4|8,3:2|0:0,0:0:0:0:
248,164,28045,1,2,0:0:0:0:
124,130,28240,2,0,L|112:44,1,60.3750011515618,2|0,0:0|0:0,0:0:0:0:
252,69,28531,1,2,0:0:0:0:
83,167,28628,2,0,L|28:197,1,60.3750011515618,10|2,0:0|0:0,0:0:0:0:
248,216,28822,2,0,L|300:245,1,60.3750011515618,2|2,0:0|0:0,0:0:0:0:
80,346,29017,6,0,L|73:308,6,30.1875005757809,0|0|0|0|0|0|0,3:3|0:0|0:0|0:0|0:0|0:0|0:3,0:0:0:0:
337,365,29405,1,8,0:0:0:0:
445,268,29600,1,2,0:0:0:0:
327,186,29794,6,0,L|363:234,2,60.3750011515618,2|0|0,0:0|0:0|3:0,0:0:0:0:
68,278,30183,1,8,0:0:0:0:
40,267,30231,1,0,0:0:0:0:
20,244,30280,1,0,0:0:0:0:
14,215,30328,1,0,0:0:0:0:
21,186,30377,1,0,0:0:0:0:
41,164,30425,1,0,0:0:0:0:
70,154,30474,1,0,0:0:0:0:
99,158,30523,1,0,0:0:0:0:
293,244,30571,6,0,P|381:228|420:96,1,241.500004606247,0|8,3:0|0:0,0:0:0:0:
117,154,31154,1,2,0:3:0:0:
248,156,31348,1,2,0:3:0:0:
248,156,31446,1,2,0:3:0:0:
95,125,31640,1,2,0:3:0:0:
95,125,31737,1,10,0:3:0:0:
291,129,31931,1,2,0:3:0:0:
291,129,31996,1,2,0:3:0:0:
291,129,32061,1,2,0:3:0:0:
71,325,32126,6,0,L|64:280,3,30.1875005757809,0|0|0|0,3:0|0:0|0:0|0:0,0:0:0:0:
90,259,32320,2,0,L|150:211,1,60.3750011515618,0|0,3:0|3:0,0:0:0:0:
395,277,32514,2,0,L|397:151,1,120.750002303124,8|0,0:0|0:0,0:0:0:0:
338,134,32806,1,0,3:0:0:0:
124,118,32903,6,0,L|214:115,1,60.3750011515618,0|0,0:0|3:0,0:0:0:0:
260,111,33097,2,0,L|363:112,1,60.3750011515618,0|0,0:0|3:0,0:0:0:0:
96,324,33291,2,0,L|80:240,1,60.3750011515618,8|0,0:0|3:0,0:0:0:0:
268,248,33486,2,0,L|276:184,1,60.3750011515618,0|0,0:0|0:0,0:0:0:0:
36,128,33680,6,0,L|284:124,1,241.500004606247,4|8,3:2|0:0,0:0:0:0:
144,220,34263,1,2,0:0:0:0:
276,259,34457,2,0,L|288:171,1,60.3750011515618,2|0,0:0|0:0,0:0:0:0:
153,151,34749,1,2,0:0:0:0:
325,77,34846,2,0,L|387:55,1,60.3750011515618,10|2,0:0|0:0,0:0:0:0:
156,60,35040,2,0,L|94:38,1,60.3750011515618,2|2,0:0|0:0,0:0:0:0:
369,225,35234,6,0,L|376:187,6,30.1875005757809,0|0|0|0|0|0|0,3:0|0:0|0:0|0:0|0:0|0:0|0:0,0:0:0:0:
174,212,35623,1,8,0:0:0:0:
280,129,35817,1,2,0:0:0:0:
118,130,36012,6,0,L|73:64,2,60.3750011515618,2|0|0,0:0|0:0|3:0,0:0:0:0:
477,231,36400,1,8,0:0:0:0:
489,203,36449,1,0,0:0:0:0:
488,173,36497,1,0,0:0:0:0:
476,146,36546,1,0,0:0:0:0:
453,126,36594,1,0,0:0:0:0:
425,116,36643,1,0,0:0:0:0:
395,119,36692,1,0,0:0:0:0:
363,126,36740,1,0,0:0:0:0:
150,251,36789,6,0,P|80:223|157:121,1,241.500004606247,0|0,3:0|0:0,0:0:0:0:
330,127,37469,2,0,L|334:90,1,30.1875005757809,0|0,3:0|3:0,0:0:0:0:
172,114,37566,2,0,L|44:115,2,120.750002303124,8|0|0,0:0|0:0|0:0,0:0:0:0:
328,183,38149,2,0,L|331:99,1,60.3750011515618,0|0,0:0|3:0,0:0:0:0:
165,267,38343,6,0,L|167:142,1,120.750002303124,0|0,3:0|0:0,0:0:0:0:
252,151,38635,2,0,L|247:20,1,120.750002303124,0|0,3:0|0:0,0:0:0:0:
81,47,38926,2,0,L|-3:9,1,60.3750011515618,0|0,3:0|3:0,0:0:0:0:
300,271,39120,5,10,0:0:0:0:
360,247,39218,1,0,0:0:0:0:
360,247,39315,1,0,0:0:0:0:
300,271,39412,1,0,0:0:0:0:
237,281,39509,1,2,0:0:0:0:
421,206,39606,2,0,L|462:154,2,60.3750011515618,2|0|2,3:2|0:0|0:0,0:0:0:0:
187,216,39898,6,0,L|43:212,1,120.750002303124,4|0,3:2|0:0,0:0:0:0:
114,162,40189,1,0,0:0:0:0:
312,136,40286,2,0,L|385:137,1,60.3750011515618,8|0,0:0|0:0,0:0:0:0:
312,136,40481,2,0,L|240:136,1,60.3750011515618,0|0,0:0|3:0,0:0:0:0:
479,196,40675,2,0,L|498:123,2,60.3750011515618,2|0|0,0:3|0:0|3:0,0:0:0:0:
318,328,41063,2,0,L|319:243,1,60.3750011515618,10|2,0:3|0:3,0:0:0:0:
408,251,41258,2,0,L|410:182,1,60.3750011515618,2|2,0:3|0:3,0:0:0:0:
218,152,41452,6,0,L|83:153,1,120.750002303124,0|0,3:0|0:0,0:0:0:0:
144,151,41743,1,0,0:0:0:0:
331,162,41841,1,8,0:0:0:0:
398,146,41938,1,0,0:0:0:0:
397,145,42035,1,0,0:0:0:0:
331,162,42132,1,0,3:0:0:0:
154,282,42229,2,0,L|114:210,2,60.3750011515618,0|0|0,0:0|0:0|3:0,0:0:0:0:
457,250,42618,1,8,0:0:0:0:
352,194,42812,2,0,L|462:171,1,60.3750011515618,0|0,0:0|0:0,0:0:0:0:
159,291,43006,6,0,P|129:227|166:101,1,181.125003454685,0|0,3:0|0:0,0:0:0:0:
351,62,43395,2,0,L|485:56,1,120.750002303124,8|2,0:0|0:3,0:0:0:0:
318,263,43784,2,0,L|317:190,1,60.3750011515618,2|2,0:3|0:3,0:0:0:0:
460,135,44075,1,2,0:3:0:0:
391,135,44172,1,10,0:3:0:0:
260,104,44367,1,2,0:3:0:0:
300,103,44431,1,2,0:3:0:0:
340,103,44496,1,2,0:3:0:0:
141,133,44561,6,0,L|9:134,1,120.750002303124,0|0,3:0|0:0,0:0:0:0:
67,133,44852,1,0,3:0:0:0:
306,225,44949,2,0,L|160:184,1,120.750002303124,8|0,0:0|0:0,0:0:0:0:
130,230,45241,1,0,3:0:0:0:
384,213,45338,2,0,L|417:141,2,60.3750011515618,0|0|0,0:0|3:0|0:0,0:0:0:0:
277,167,45727,1,8,0:0:0:0:
315,143,45791,1,0,0:0:0:0:
315,143,45856,1,0,0:0:0:0:
277,167,45921,1,0,0:0:0:0:
16,165,46115,6,0,L|137:165,1,120.750002303124,4|0,3:2|0:0,0:0:0:0:
200,165,46407,1,0,0:0:0:0:
38,311,46504,2,0,L|27:205,1,60.3750011515618,8|0,0:0|0:0,0:0:0:0:
105,216,46698,2,0,L|44:218,1,60.3750011515618,0|0,0:0|3:0,0:0:0:0:
267,233,46892,2,0,L|314:147,2,60.3750011515618,2|2|0,0:3|0:3|3:0,0:0:0:0:
112,81,47281,2,0,L|194:84,1,60.3750011515618,10|2,0:3|0:3,0:0:0:0:
232,83,47475,2,0,L|136:83,1,60.3750011515618,2|2,0:3|0:3,0:0:0:0:
476,262,47670,6,0,L|479:186,1,60.3750011515618,0|0,3:0|0:0,0:0:0:0:
383,204,47864,2,0,L|387:129,1,60.3750011515618,0|0,0:0|0:0,0:0:0:0:
185,170,48058,2,0,L|178:99,1,60.3750011515618,8|0,0:0|0:0,0:0:0:0:
387,92,48253,2,0,L|380:12,1,60.3750011515618,0|0,0:0|3:0,0:0:0:0:
170,51,48447,6,0,L|72:44,1,60.3750011515618,0|0,0:0|0:0,0:0:0:0:
201,131,48641,1,0,3:0:0:0:
340,221,48835,2,0,L|349:180,3,30.1875005757809,8|0|0|0,0:0|0:0|0:0|0:0,0:0:0:0:
308,175,49030,2,0,L|225:149,1,60.3750011515618
481,244,49224,6,0,L|479:50,1,181.125003454685,0|0,3:0|0:0,0:0:0:0:
254,59,49613,2,0,L|128:55,1,120.750002303124,8|2,0:0|0:3,0:0:0:0:
262,193,50001,2,0,L|267:93,1,60.3750011515618,2|2,0:3|0:3,0:0:0:0:
144,108,50293,1,2,0:3:0:0:
357,269,50390,2,0,L|491:200,1,120.750002303124,10|2,0:3|0:3,0:0:0:0:
418,112,50649,1,2,0:3:0:0:
378,58,50714,1,2,0:3:0:0:
208,217,50778,6,0,L|65:218,1,120.750002303124,8|0,0:0|3:0,0:0:0:0:
138,185,51070,1,0,3:0:0:0:
325,150,51167,2,0,L|462:149,1,120.750002303124,8|8,0:0|0:0,0:0:0:0:
394,120,51458,1,0,0:0:0:0:
138,152,51556,2,0,L|128:79,1,60.3750011515618,0|0,3:0|3:0,0:0:0:0:
261,172,51847,2,0,L|264:124,1,30.1875005757809,0|0,3:0|3:0,0:0:0:0:
110,271,51944,2,0,B|66:231|66:231|99:159,1,120.750002303124,8|8,0:0|0:0,0:0:0:0:
468,88,52333,5,4,3:2:0:0:
200,228,52916,2,0,L|188:152,1,60.3750011515618,2|0,0:0|0:0,0:0:0:0:
401,153,53110,2,0,L|441:101,2,60.3750011515618,10|0|0,0:0|0:0|0:0,0:0:0:0:
265,97,53499,2,0,L|397:93,1,120.750002303124,2|0,0:0|0:0,0:0:0:0:
127,151,53887,5,2,0:0:0:0:
50,159,53984,1,0,3:0:0:0:
48,190,54033,1,0,3:0:0:0:
46,220,54082,1,0,3:0:0:0:
137,314,54179,1,0,3:0:0:0:
129,207,54373,1,0,3:0:0:0:
121,86,54567,1,0,3:0:0:0:
355,119,54664,2,0,L|484:118,1,120.750002303124,10|0,0:0|3:0,0:0:0:0:
334,198,55053,2,0,L|481:195,1,120.750002303124,2|0,0:0|0:0,0:0:0:0:
196,329,55442,6,0,L|182:52,1,241.500004606247,2|0,3:2|0:0,0:0:0:0:
51,193,56025,2,0,L|47:109,1,60.3750011515618,0|0,3:0|3:0,0:0:0:0:
387,245,56219,2,0,L|394:117,1,120.750002303124,8|0,0:0|0:0,0:0:0:0:
221,130,56510,2,0,L|226:1,1,120.750002303124,0|0,0:0|0:0,0:0:0:0:
280,8,56802,1,0,0:0:0:0:
20,121,56996,6,0,L|220:117,2,181.125003454685,0|0|0,3:0|3:0|3:0,0:0:0:0:
376,138,57773,2,0,L|465:138,1,60.3750011515618,8|0,0:0|3:0,0:0:0:0:
248,69,57968,2,0,L|156:68,1,60.3750011515618,0|0,3:0|3:0,0:0:0:0:
456,280,58162,2,0,L|457:133,1,120.750002303124,8|0,0:0|0:0,0:0:0:0:
406,150,58453,1,0,0:0:0:0:
303,229,58550,6,0,L|504:60,1,241.500004606247,0|0,0:0|3:0,0:0:0:0:
366,89,59133,2,0,L|367:4,1,60.3750011515618,2|0,0:0|0:0,0:0:0:0:
177,198,59328,2,0,L|134:121,2,60.3750011515618,10|0|0,0:0|0:0|0:0,0:0:0:0:
277,83,59716,2,0,L|140:81,1,120.750002303124,2|0,0:0|0:0,0:0:0:0:
496,176,60105,5,2,0:0:0:0:
425,186,60202,1,0,3:0:0:0:
423,217,60251,1,0,0:0:0:0:
418,250,60299,1,0,3:0:0:0:
488,323,60396,1,0,3:0:0:0:
493,261,60591,1,0,3:0:0:0:
497,206,60785,1,0,3:0:0:0:
272,184,60882,2,0,L|116:182,1,120.750002303124,10|0,0:0|0:0,0:0:0:0:
432,86,61271,2,0,L|303:84,1,120.750002303124,2|2,0:0|0:0,0:0:0:0:
37,181,61659,6,0,L|281:183,1,241.500004606247,2|0,3:2|0:0,0:0:0:0:
400,263,62242,2,0,L|392:203,1,60.3750011515618,0|0,3:0|3:0,0:0:0:0:
100,273,62436,2,0,L|93:145,1,120.750002303124,8|0,0:0|0:0,0:0:0:0:
266,158,62728,2,0,L|261:29,1,120.750002303124,0|0,0:0|0:0,0:0:0:0:
211,94,63019,2,0,L|128:74,1,60.3750011515618,2|0,0:0|0:0,0:0:0:0:
446,272,63214,6,0,L|448:133,1,120.750002303124,2|0,3:2|0:0,0:0:0:0:
386,138,63505,1,0,3:0:0:0:
273,211,63699,1,0,3:0:0:0:
303,211,63748,1,0,3:0:0:0:
333,211,63797,1,0,3:0:0:0:
395,211,63894,1,0,3:0:0:0:
121,77,63991,2,0,L|106:197,1,120.750002303124,8|0,0:0|3:0,0:0:0:0:
359,152,64282,2,0,L|378:14,1,120.750002303124,8|0,0:0|3:0,0:0:0:0:
122,55,64574,2,0,L|183:55,1,60.3750011515618,10|10,0:0|0:0,0:0:0:0:
479,78,64768,1,10,0:0:0:0:
422,325,70986,6,0,P|423:217|222:82,1,362.250006909371,10|0,0:0|0:0,0:0:0:0:
195,120,71633,1,0,0:0:0:0:
190,90,71698,1,0,0:0:0:0:
250,213,71763,2,0,L|493:65,2,241.500004606247,0|0|0,0:0|0:0|0:0,0:0:0:0:
360,257,72734,5,2,0:0:0:0:
241,303,72929,1,2,0:0:0:0:
281,297,72993,1,0,0:0:0:0:
280,296,73058,1,0,0:0:0:0:
241,303,73123,1,0,0:0:0:0:
140,332,73317,2,0,L|145:201,1,120.750002303124,2|0,0:0|0:0,0:0:0:0:
16,88,73706,2,0,L|9:212,1,120.750002303124,2|0,0:0|0:0,0:0:0:0:
286,269,74094,6,0,P|369:260|432:103,1,241.500004606247,2|0,0:0|0:0,0:0:0:0:
307,107,74677,2,0,L|383:77,1,60.3750011515618,0|0,0:0|0:0,0:0:0:0:
143,269,74872,2,0,P|45:218|86:116,1,241.500004606247,2|0,0:0|0:0,0:0:0:0:
198,90,75455,2,0,L|115:72,1,60.3750011515618,0|0,0:0|0:0,0:0:0:0:
397,245,75649,5,2,3:2:0:0:
422,191,75746,1,0,3:0:0:0:
402,136,75843,1,0,3:0:0:0:
348,112,75940,1,0,3:0:0:0:
130,235,76037,1,0,3:0:0:0:
96,185,76135,1,0,3:0:0:0:
108,128,76232,1,0,3:0:0:0:
157,95,76329,1,0,0:0:0:0:
348,112,76426,6,0,L|438:89,1,60.3750011515618,2|0,3:2|3:0,0:0:0:0:
173,84,76620,2,0,L|83:61,1,60.3750011515618,0|0,3:0|3:0,0:0:0:0:
384,71,76815,2,0,L|474:48,1,60.3750011515618,0|0,3:0|3:0,0:0:0:0:
157,49,77009,2,0,L|67:26,1,60.3750011515618,0|0,3:0|3:0,0:0:0:0:
475,161,77203,5,2,3:2:0:0:
256,192,77398,12,0,78758,3:0:0:0:
183,306,79146,6,0,L|309:147,1,181.125003454685,2|0,0:2|0:2,0:0:0:0:
124,224,79535,2,0,P|72:183|148:83,1,181.125003454685,2|0,0:2|0:2,0:0:0:0:
311,193,79924,1,6,0:2:0:0:
365,179,80021,1,0,0:2:0:0:
363,124,80118,1,2,0:2:0:0:
308,114,80215,1,0,0:2:0:0:
65,175,80312,6,0,L|-7:144,2,60.3750011515618,4|0|0,3:2|0:2|0:2,0:0:0:0:
146,202,80604,1,0,0:2:0:0:
336,275,80701,2,0,L|342:170,1,60.3750011515618,10|0,0:2|0:2,0:0:0:0:
251,203,80895,2,0,L|253:109,1,60.3750011515618,2|0,0:2|3:2,0:0:0:0:
479,191,81089,5,0,0:2:0:0:
489,133,81186,1,0,0:2:0:0:
455,84,81284,1,0,3:2:0:0:
397,74,81381,1,0,0:0:0:0:
225,109,81478,2,0,L|122:95,1,60.3750011515618,10|0,0:2|0:2,0:0:0:0:
338,89,81672,2,0,L|403:72,1,60.3750011515618,2|0,0:2|0:2,0:0:0:0:
174,261,81867,6,0,L|90:241,2,60.3750011515618,0|0|0,3:2|0:2|0:2,0:0:0:0:
237,262,82158,1,2,0:2:0:0:
34,224,82255,2,0,L|25:141,1,60.3750011515618,8|2,0:2|0:2,0:0:0:0:
114,146,82449,2,0,L|107:70,1,60.3750011515618,0|0,0:2|3:2,0:0:0:0:
319,141,82644,6,0,L|396:120,1,60.3750011515618,2|0,0:2|0:2,0:0:0:0:
187,149,82838,2,0,L|176:56,1,60.3750011515618,2|0,3:2|0:2,0:0:0:0:
365,69,83032,2,0,L|442:48,1,60.3750011515618,10|0,0:2|0:2,0:0:0:0:
262,149,83227,2,0,L|251:56,1,60.3750011515618,2|0,0:2|0:2,0:0:0:0:
75,344,83421,6,0,P|16:327|113:234,1,241.500004606247,0|10,3:2|0:2,0:0:0:0:
472,191,84004,2,0,L|466:104,1,60.3750011515618,2|0,0:2|3:2,0:0:0:0:
302,131,84198,2,0,L|169:129,1,120.750002303124,0|0,0:2|3:2,0:0:0:0:
356,288,84587,1,10,0:2:0:0:
410,270,84684,1,0,0:2:0:0:
423,214,84781,1,2,0:2:0:0:
380,175,84878,1,0,0:2:0:0:
104,196,84975,5,2,3:2:0:0:
222,261,85170,2,0,L|265:198,2,40.2500007677078,2|2|2,0:2|0:2|0:2,0:0:0:0:
184,272,85364,1,10,0:2:0:0:
56,195,85558,2,0,L|134:182,1,60.3750011515618,2|2,0:2|3:2,0:0:0:0:
336,189,85753,6,0,L|342:112,1,60.3750011515618,2|0,0:2|3:2,0:0:0:0:
185,115,85947,2,0,L|192:31,1,60.3750011515618,2|0,0:2|3:2,0:0:0:0:
352,57,86141,2,0,L|416:37,1,60.3750011515618,10|0,0:2|3:2,0:0:0:0:
238,78,86335,2,0,L|145:45,1,60.3750011515618,2|0,0:2|0:2,0:0:0:0:
448,172,86530,6,0,L|529:159,2,60.3750011515618,4|0|0,3:2|0:2|0:2,0:0:0:0:
372,175,86821,1,0,0:2:0:0:
176,275,86918,2,0,L|170:170,1,60.3750011515618,10|0,0:2|0:2,0:0:0:0:
261,203,87113,2,0,L|259:109,1,60.3750011515618,2|0,0:2|3:2,0:0:0:0:
79,142,87307,6,0,L|20:87,2,60.3750011515618,0|0|0,0:2|0:2|3:2,0:0:0:0:
155,152,87598,1,2,0:2:0:0:
315,115,87696,2,0,L|370:82,1,60.3750011515618,8|0,0:2|0:2,0:0:0:0:
213,167,87890,2,0,L|145:149,1,60.3750011515618,2|0,0:2|0:2,0:0:0:0:
413,290,88084,5,0,3:2:0:0:
466,271,88181,1,0,0:2:0:0:
464,215,88278,1,0,0:2:0:0:
409,201,88376,1,0,0:2:0:0:
225,203,88473,2,0,L|231:115,1,60.3750011515618,10|0,0:2|0:2,0:0:0:0:
322,134,88667,2,0,L|326:57,1,60.3750011515618,2|0,0:2|3:2,0:0:0:0:
123,134,88861,6,0,L|46:113,1,60.3750011515618,2|0,0:2|0:2,0:0:0:0:
255,142,89056,2,0,L|266:49,1,60.3750011515618,2|0,3:2|0:2,0:0:0:0:
77,62,89250,2,0,L|0:41,1,60.3750011515618,10|0,0:2|0:2,0:0:0:0:
180,142,89444,2,0,L|218:61,1,60.3750011515618,2|0,0:2|0:2,0:0:0:0:
451,165,89639,6,0,L|254:164,1,181.125003454685,2|0,3:2|0:2,0:0:0:0:
466,265,90027,2,0,P|473:196|434:152,1,120.750002303124,8|0,0:2|0:2,0:0:0:0:
380,153,90319,1,0,3:2:0:0:
185,103,90416,6,0,L|276:102,1,60.3750011515618,2|0,0:2|0:2,0:0:0:0:
402,81,90610,2,0,L|325:80,1,60.3750011515618,0|0,3:2|0:2,0:0:0:0:
156,52,90804,2,0,L|268:52,1,60.3750011515618,10|0,0:2|0:2,0:0:0:0:
424,28,90999,2,0,L|307:26,1,60.3750011515618,0|0,0:2|0:2,0:0:0:0:
131,261,91193,5,2,3:2:0:0:
197,254,91290,2,0,L|367:251,1,120.750002303124,8|0,0:2|0:2,0:0:0:0:
130,137,91582,2,0,L|257:136,1,120.750002303124,10|0,0:2|3:2,0:0:0:0:
304,133,91873,1,0,3:2:0:0:
89,278,91970,6,0,L|0:256,2,60.3750011515618,10|0|0,0:2|3:2|3:2,0:0:0:0:
251,279,92262,2,0,L|340:257,2,60.3750011515618,10|0|0,0:2|3:2|3:2,0:0:0:0:
90,203,92553,2,0,L|176:189,1,60.3750011515618,8|8,0:2|0:2,0:0:0:0:
403,223,92747,5,4,3:2:0:0:
456,205,92844,1,0,0:2:0:0:
456,149,92942,1,0,0:2:0:0:
402,133,93039,1,0,0:0:0:0:
239,138,93136,2,0,L|165:137,1,60.3750011515618,10|0,0:2|0:2,0:0:0:0:
262,66,93330,2,0,L|331:64,1,60.3750011515618,2|0,0:2|3:2,0:0:0:0:
124,216,93525,5,0,0:2:0:0:
123,157,93622,1,0,0:2:0:0:
166,116,93719,1,0,3:2:0:0:
225,119,93816,1,0,0:2:0:0:
47,224,93913,2,0,L|36:150,1,60.3750011515618,10|0,0:2|0:2,0:0:0:0:
213,180,94107,2,0,L|225:95,1,60.3750011515618,2|0,0:2|0:2,0:0:0:0:
423,116,94302,6,0,L|513:104,2,60.3750011515618,0|0|0,3:2|0:2|0:2,0:0:0:0:
343,126,94593,1,2,0:2:0:0:
187,339,94690,2,0,L|190:243,1,60.3750011515618,8|0,0:2|0:2,0:0:0:0:
110,265,94885,2,0,L|114:193,1,60.3750011515618,2|0,0:2|3:2,0:0:0:0:
309,188,95079,6,0,L|312:116,1,60.3750011515618,2|0,0:2|0:2,0:0:0:0:
148,120,95273,2,0,L|230:123,1,60.3750011515618,2|0,3:2|0:2,0:0:0:0:
374,68,95468,2,0,L|373:129,1,60.3750011515618,10|0,0:2|0:2,0:0:0:0:
217,33,95662,2,0,L|277:33,1,60.3750011515618,2|0,0:2|0:2,0:0:0:0:
90,283,95856,6,0,P|26:265|104:161,1,241.500004606247,2|10,3:2|0:2,0:0:0:0:
476,162,96439,2,0,L|372:162,1,60.3750011515618,2|0,0:2|3:2,0:0:0:0:
242,165,96633,2,0,L|121:165,1,120.750002303124,0|0,0:2|3:2,0:0:0:0:
273,314,97022,1,10,0:2:0:0:
292,252,97119,1,0,0:2:0:0:
238,212,97216,1,2,0:2:0:0:
175,211,97313,1,0,0:2:0:0:
399,150,97411,5,2,3:2:0:0:
282,150,97605,2,0,L|250:114,2,40.2500007677078,2|2|2,0:2|0:2|0:2,0:0:0:0:
348,150,97799,1,10,0:2:0:0:
201,350,97993,2,0,L|192:264,1,60.3750011515618,0|0,0:2|3:2,0:0:0:0:
399,276,98188,6,0,L|405:187,1,60.3750011515618,2|0,0:2|3:2,0:0:0:0:
210,200,98382,2,0,L|213:104,1,60.3750011515618,2|0,0:2|3:2,0:0:0:0:
421,80,98576,2,0,L|353:80,1,60.3750011515618,10|0,0:2|0:2,0:0:0:0:
200,79,98771,2,0,L|260:79,1,60.3750011515618,2|0,0:2|0:2,0:0:0:0:
468,289,98965,6,0,P|500:210|368:167,1,241.500004606247,2|8,3:2|0:2,0:0:0:0:
247,234,99548,2,0,L|321:185,2,60.3750011515618,0|0|0,0:2|3:2|0:2,0:0:0:0:
100,178,99936,2,0,L|238:166,2,120.750002303124,0|8|0,3:2|0:2|0:2,0:0:0:0:
360,270,100519,6,0,P|441:194|320:170,1,241.500004606247,2|8,3:2|0:2,0:0:0:0:
189,172,101102,2,0,L|151:114,2,60.3750011515618,0|0|0,0:0|3:0|0:0,0:0:0:0:
345,144,101491,2,0,L|383:86,2,60.3750011515618,0|0|8,3:0|0:0|0:0,0:0:0:0:
189,160,101879,1,0,0:0:0:0:
471,264,102074,5,0,3:0:0:0:
474,205,102171,1,0,3:0:0:0:
437,159,102268,1,0,3:0:0:0:
378,152,102365,1,0,3:0:0:0:
202,152,102462,5,0,3:0:0:0:
198,93,102560,1,0,3:0:0:0:
235,47,102657,1,0,3:0:0:0:
294,40,102754,1,0,0:0:0:0:
119,250,102851,6,0,L|38:223,1,60.3750011515618,0|0,3:0|3:0,0:0:0:0:
238,63,103045,2,0,L|305:35,1,60.3750011515618,0|0,3:0|3:0,0:0:0:0:
77,183,103240,2,0,L|12:163,1,60.3750011515618,0|0,3:0|3:0,0:0:0:0:
240,244,103434,2,0,L|249:192,2,30.1875005757809,0|0|0,3:0|3:0|3:0,0:0:0:0:
449,190,103628,5,0,3:0:0:0:
132,287,104600,2,0,L|123:241,3,30.1875005757809,0|0|0|0,3:0|0:0|0:0|0:0,0:0:0:0:
166,213,104794,2,0,L|293:204,1,120.750002303124,8|0,0:0|3:0,0:0:0:0:
222,170,105085,1,8,0:0:0:0:
446,213,105183,6,0,P|493:187|412:114,1,181.125003454685,4|0,3:2|0:2,0:0:0:0:
242,204,105571,2,0,L|217:162,2,40.2500007677078,2|0|0,0:2|0:2|0:2,0:0:0:0:
382,201,105765,2,0,L|407:159,2,40.2500007677078,2|0|0,0:2|0:2|0:2,0:0:0:0:
168,255,105960,5,8,3:2:0:0:
312,276,106154,1,2,0:2:0:0:
312,239,106219,1,0,0:2:0:0:
312,196,106284,1,0,0:2:0:0:
155,190,106348,1,2,0:2:0:0:
99,198,106446,2,0,L|87:43,1,120.750002303124,2|0,0:2|3:2,0:0:0:0:
303,95,106737,6,0,L|322:52,6,30.1875005757809,0|0|0|0|0|0|0,3:2|0:0|0:0|0:0|0:0|0:0|0:2,0:0:0:0:
122,95,107126,2,0,L|97:53,2,40.2500007677078,2|0|0,0:2|0:2|0:2,0:0:0:0:
311,212,107320,6,0,L|386:194,1,60.3750011515618,0|0,3:2|3:0,0:0:0:0:
124,252,107514,2,0,L|244:250,2,120.750002303124,10|2|2,0:2|0:3|0:3,0:0:0:0:
457,125,108097,6,0,L|186:126,1,241.500004606247,4|0,3:2|3:2,0:0:0:0:
350,188,108680,1,0,0:2:0:0:
215,125,108874,2,0,L|302:124,1,60.3750011515618,2|0,0:3|3:2,0:0:0:0:
47,194,109069,1,8,0:2:0:0:
154,244,109263,2,0,L|160:180,2,40.2500007677078,2|0|0,0:3|0:0|0:0,0:0:0:0:
304,246,109457,2,0,L|420:227,2,60.3750011515618,2|0|2,0:3|0:3|0:3,0:0:0:0:
231,255,109749,1,0,3:2:0:0:
479,241,109846,6,0,L|480:95,1,120.750002303124,0|0,3:2|0:2,0:0:0:0:
304,188,110137,2,0,L|305:44,1,120.750002303124,0|0,3:2|0:0,0:0:0:0:
129,100,110429,2,0,L|34:79,1,60.3750011515618,0|0,3:2|3:2,0:0:0:0:
243,162,110623,5,8,0:2:0:0:
309,160,110720,1,0,0:2:0:0:
375,160,110817,1,0,0:2:0:0:
141,77,110914,2,0,L|61:75,1,60.3750011515618,8|0,0:2|0:2,0:0:0:0:
236,263,111109,2,0,L|311:261,2,60.3750011515618,0|0|0,3:2|0:2|0:2,0:0:0:0:
458,252,111400,5,2,3:3:0:0:
464,240,111497,2,0,L|458:145,1,60.3750011515618,2|2,0:3|0:3,0:0:0:0:
494,149,111643,2,0,L|455:111,1,30.1875005757809,2|2,0:3|0:3,0:0:0:0:
166,276,111789,2,0,P|93:240|144:151,1,181.125003454685,4|0,3:2|3:2,0:0:0:0:
326,268,112177,1,8,0:2:0:0:
194,190,112372,2,0,L|151:148,2,40.2500007677078,2|0|0,0:2|0:2|0:2,0:0:0:0:
375,264,112566,1,2,0:2:0:0:
441,262,112663,2,0,L|429:135,1,120.750002303124,2|0,0:2|3:2,0:0:0:0:
184,102,112955,6,0,L|384:85,1,181.125003454685,0|0,3:2|3:2,0:0:0:0:
166,196,113343,2,0,L|123:154,2,40.2500007677078,2|0|0,0:2|0:2|0:2,0:0:0:0:
357,202,113537,2,0,L|362:134,1,60.3750011515618,0|0,3:2|3:2,0:0:0:0:
107,83,113732,5,8,0:2:0:0:
361,141,113926,1,8,0:2:0:0:
219,281,114120,2,0,P|177:224|222:123,1,181.125003454685,0|0,3:0|0:0,0:0:0:0:
456,110,114509,6,0,L|294:103,1,120.750002303124,4|0,3:2|0:2,0:0:0:0:
169,84,114800,2,0,L|273:81,1,60.3750011515618,12|0,3:2|0:2,0:0:0:0:
419,254,114995,2,0,L|436:176,1,60.3750011515618,8|8,0:2|0:2,0:0:0:0:
360,176,115189,1,0,0:2:0:0:
151,268,115286,6,0,L|302:261,1,120.750002303124,4|0,3:2|0:2,0:0:0:0:
472,208,115578,2,0,L|468:132,1,60.3750011515618,4|0,3:2|0:2,0:0:0:0:
248,189,115772,2,0,L|178:188,2,60.3750011515618,8|8|0,0:2|0:2|0:2,0:0:0:0:
54,308,116063,6,0,P|32:232|73:171,1,120.750002303124,4|0,3:2|0:2,0:0:0:0:
218,54,116355,2,0,L|133:33,1,60.3750011515618,8|8,0:2|0:2,0:0:0:0:
488,51,116646,1,4,0:2:0:0:
256,192,116841,12,0,119950,0:0:0:0:
