osu file format v14

[General]
AudioFilename: 04. Towards the Horizon.mp3
AudioLeadIn: 0
PreviewTime: 79146
Countdown: 0
SampleSet: Soft
StackLeniency: 0.7
Mode: 2
LetterboxInBreaks: 0
WidescreenStoryboard: 0

[Editor]
Bookmarks: 64768
DistanceSpacing: 1.3
BeatDivisor: 4
GridSize: 4
TimelineZoom: 2

[Metadata]
Title:Towards The Horizon
TitleUnicode:Towards The Horizon
Artist:Camellia
ArtistUnicode:かめりあ
Creator:Sinnoh
Version:Deluge
Source:REFLEC BEAT 悠久のリフレシア
Tags:The Reflesia of Eternity 6th KONAMI Arcade Championship kac BEMANI Illusiya イルシヤ
BeatmapID:1369004
BeatmapSetID:629384

[Difficulty]
HPDrainRate:6
CircleSize:4.2
OverallDifficulty:9.3
ApproachRate:9.3
SliderMultiplier:2.5
SliderTickRate:2

[Events]
//Background and Video events
0,0,"audio.jpg",0,0
//Break Periods
2,64968,70432
//Storyboard Layer 0 (Background)
//Storyboard Layer 1 (Fail)
//Storyboard Layer 2 (Pass)
//Storyboard Layer 3 (Foreground)
//Storyboard Sound Samples
Sample,15707,0,"drum-hitnormal.wav",60
Sample,21925,0,"drum-hitnormal.wav",60
Sample,50681,0,"drum-hitnormal.wav",80
Sample,50730,0,"drum-hitnormal.wav",80
Sample,105863,0,"drum-hitnormal.wav",70
Sample,105911,0,"drum-hitnormal.wav",70

[TimingPoints]
1038,388.60103626943,4,2,2,60,1,0
15027,-86.9565217391305,4,2,1,60,0,0
26879,-86.9565217391305,4,2,1,40,0,0
27462,-71.4285714285714,4,2,1,80,0,1
36789,-71.4285714285714,4,2,1,70,0,0
39898,-71.4285714285714,4,2,1,80,0,1
52333,-86.9565217391305,4,2,1,60,0,0
64768,-125,4,2,2,60,0,0
71763,-100,4,2,2,60,0,0
72929,-125,4,2,2,60,0,0
75649,-125,4,2,1,40,0,0
76426,-125,4,2,1,60,0,0
77203,-125,4,2,1,70,0,0
77300,-125,4,2,1,50,0,0
79924,-125,4,2,1,20,0,0
80021,-125,4,2,1,60,0,0
80312,-76.9230769230769,4,2,1,80,0,1
98965,-86.9565217391305,4,2,1,60,0,0
102074,-86.9565217391305,4,2,1,40,0,0
102851,-86.9565217391305,4,2,1,60,0,0
103628,-86.9565217391305,4,2,1,40,0,0
105183,-62.5,4,2,1,80,0,1
111400,-62.5,4,2,1,60,0,0
111789,-62.5,4,2,1,90,0,1
111983,-62.5,4,2,1,80,0,1
114120,-62.5,4,2,1,80,0,0
114509,-62.5,4,2,1,60,0,1
116646,-86.9565217391305,4,2,1,100,0,0
116743,-86.9565217391305,4,2,1,50,0,0
118201,-86.9565217391305,4,2,1,38,0,0
118784,-86.9565217391305,4,2,1,26,0,0
119172,-86.9565217391305,4,2,1,14,0,0
119561,-86.9565217391305,4,2,1,5,0,0

[Colours]
Combo1 : 192,192,192
Combo2 : 255,89,89
Combo3 : 87,87,255
Combo4 : 0,198,99

[HitObjects]
271,133,892,6,0,L|290:93,2,31.25,0|0|0,0:0|0:0|0:0,0:0:0:0:
179,133,1038,1,2,0:0:0:0:
462,168,1620,2,0,L|358:169,1,62.5,0|0,0:0|0:0,0:0:0:0:
224,292,1815,5,2,0:0:0:0:
168,273,1912,1,0,0:0:0:0:
168,215,2009,1,0,0:0:0:0:
224,197,2106,1,0,0:0:0:0:
305,142,2203,1,0,0:0:0:0:
242,141,2300,1,0,0:0:0:0:
180,140,2398,1,0,0:0:0:0:
117,140,2495,1,0,0:0:0:0:
371,97,2592,5,2,0:0:0:0:
265,275,2786,2,0,L|251:207,1,62.5,0|0,0:0|0:0,0:0:0:0:
469,182,2981,2,0,L|458:95,1,62.5,0|0,0:0|0:0,0:0:0:0:
367,134,3175,2,0,L|357:54,1,62.5,0|0,0:0|0:0,0:0:0:0:
185,136,3369,2,0,L|50:92,2,125,10|0|0,0:0|0:0|0:0,0:0:0:0:
315,244,3952,1,0,0:0:0:0:
31,261,4146,5,2,0:0:0:0:
151,187,4341,2,0,L|66:134,1,62.5
356,235,4535,1,0,0:0:0:0:
412,218,4632,1,0,0:0:0:0:
414,159,4729,1,0,0:0:0:0:
360,137,4826,1,0,0:0:0:0:
175,119,4924,2,0,L|338:116,1,125,2|0,0:0|0:0,0:0:0:0:
235,116,5215,2,0,L|15:122,1,187.5,0|0,0:0|0:0,0:0:0:0:
123,197,5604,1,0,0:0:0:0:
369,108,5701,5,2,0:0:0:0:
193,301,5992,1,0,0:0:0:0:
139,255,6089,2,0,L|407:243,1,250,0|2,0:0|0:0,0:0:0:0:
145,340,6769,1,0,0:0:0:0:
78,313,6867,6,0,P|9:264|110:154,1,250,0|2,0:0|0:0,0:0:0:0:
236,147,7449,2,0,L|363:147,1,125
190,252,7838,2,0,L|177:151,1,62.5
374,178,8032,1,2,0:0:0:0:
234,77,8227,1,0,0:0:0:0:
351,93,8421,1,0,0:0:0:0:
308,93,8486,1,0,0:0:0:0:
267,95,8550,1,0,0:0:0:0:
226,97,8615,1,0,0:0:0:0:
493,126,8810,5,2,0:0:0:0:
358,248,9004,2,0,L|455:216,1,62.5
192,326,9198,1,0,0:0:0:0:
135,304,9295,1,0,0:0:0:0:
110,248,9392,1,0,0:0:0:0:
133,192,9490,1,0,0:0:0:0:
304,46,9587,2,0,L|425:99,2,125,10|0|0,0:0|0:0|0:0,0:0:0:0:
149,154,10170,1,0,0:0:0:0:
414,175,10364,6,0,L|502:178,1,62.5,2|0,0:0|0:0,0:0:0:0:
381,245,10558,2,0,L|285:247,1,62.5,0|0,0:0|0:0,0:0:0:0:
418,67,10753,2,0,L|481:67,1,62.5
377,41,10947,2,0,L|439:41,1,62.5
171,201,11141,2,0,L|106:200,1,62.5,2|0,0:0|0:0,0:0:0:0:
206,305,11335,2,0,P|296:270|187:186,1,250
148,166,11821,1,0,0:0:0:0:
62,164,11918,5,2,0:0:0:0:
296,267,12210,1,0,0:0:0:0:
221,275,12307,2,0,P|136:208|225:146,1,250,0|2,0:0|0:0,0:0:0:0:
455,256,12987,1,0,0:0:0:0:
393,252,13084,2,0,L|133:247,1,250,0|2,0:0|0:0,0:0:0:0:
299,134,13667,6,0,L|452:134,1,125
284,114,14056,2,0,L|279:15,1,62.5,0|0,0:0|0:0,0:0:0:0:
382,41,14250,2,0,L|230:42,1,125,10|0,0:0|0:0,0:0:0:0:
100,102,14639,2,0,L|256:100,1,125,0|0,0:0|0:0,0:0:0:0:
493,117,15027,6,0,L|185:117,1,287.500005483627,0|8,3:0|0:0,0:0:0:0:
339,211,15610,2,0,L|361:148,2,47.9166675806046
186,198,15804,2,0,L|381:198,1,143.750002741814,2|0,0:0|3:0,0:0:0:0:
181,122,16193,2,0,L|36:85,1,143.750002741814,8|0,0:0|0:0,0:0:0:0:
320,300,16582,5,2,3:2:0:0:
382,268,16679,1,0,0:0:0:0:
400,200,16776,1,0,0:0:0:0:
363,141,16873,1,0,0:0:0:0:
288,116,16970,2,0,L|137:91,1,143.750002741814,8|0,0:0|0:0,0:0:0:0:
448,59,17359,1,2,0:0:0:0:
319,158,17553,2,0,L|290:86,2,47.9166675806046,0|0|0,3:0|0:0|0:0,0:0:0:0:
385,165,17747,2,0,L|568:168,1,143.750002741814,8|0,0:0|0:0,0:0:0:0:
227,321,18136,6,0,P|151:271|248:142,1,287.500005483627,2|8,3:2|0:0,0:0:0:0:
395,149,18719,2,0,L|407:63,1,71.8750013709069,0|0,0:0|3:0,0:0:0:0:
212,78,18913,2,0,L|41:119,2,143.750002741814,2|0|8,0:2|3:0|0:0,0:0:0:0:
86,275,19496,2,0,L|78:184,1,71.8750013709069,0|0,0:0|0:0,0:0:0:0:
314,214,19690,6,0,P|389:181|276:60,1,287.500005483627,2|8,3:2|0:2,3:2:0:0:
114,107,20370,1,0,3:0:0:0:
265,98,20565,1,0,3:0:0:0:
114,192,20759,1,0,3:0:0:0:
298,192,20856,2,0,L|287:116,1,71.8750013709069,8|0,0:0|3:0,0:0:0:0:
195,97,21050,2,0,L|115:96,1,47.9166675806046
110,96,21180,1,0,0:0:0:0:
405,331,21245,6,0,P|477:237|353:92,1,287.500005483627,2|8,3:2|0:0,0:0:0:0:
280,81,21828,2,0,L|314:15,2,47.9166675806046
105,222,22022,2,0,P|61:165|82:74,1,143.750002741814,2|0,0:2|3:0,0:0:0:0:
202,72,22411,2,0,L|36:63,1,143.750002741814,8|0,0:0|0:0,0:0:0:0:
361,291,22799,5,2,3:2:0:0:
387,226,22896,1,0,0:0:0:0:
344,160,22993,1,0,0:0:0:0:
268,147,23091,1,0,0:0:0:0:
43,69,23188,2,0,L|204:131,1,143.750002741814,8|0,0:0|0:0,0:0:0:0:
334,58,23576,2,0,L|177:59,1,143.750002741814,2|0,0:2|3:0,0:0:0:0:
489,254,23965,2,0,P|492:112|485:88,1,143.750002741814,8|0,0:0|0:0,0:0:0:0:
460,67,24224,1,0,0:0:0:0:
414,31,24289,1,0,0:0:0:0:
183,82,24354,6,0,L|96:85,1,71.8750013709069,0|0,3:0|3:0,0:0:0:0:
342,196,24548,2,0,L|270:198,1,71.8750013709069,0|0,3:0|3:0,0:0:0:0:
189,202,24742,2,0,L|102:205,1,71.8750013709069,0|0,3:0|3:0,0:0:0:0:
337,54,24936,2,0,L|408:51,1,71.8750013709069,0|0,3:0|3:0,0:0:0:0:
117,297,25131,6,0,L|223:297,1,71.8750013709069,0|0,3:0|3:0,0:0:0:0:
382,232,25325,2,0,L|464:232,1,71.8750013709069,0|0,3:0|3:0,0:0:0:0:
194,170,25519,2,0,L|78:171,1,71.8750013709069,0|0,3:0|3:0,0:0:0:0:
372,160,25714,2,0,L|380:100,3,35.9375006854534,0|0|0|0,3:0|3:0|3:0|3:0,0:0:0:0:
114,85,25908,6,0,B|58:182|58:182|206:292|206:292|279:193|279:193|163:184|163:184|300:183|300:183|304:175|304:175|304:169|304:169|277:120,1,718.750013709069,0|0,3:0|3:0,0:0:0:0:
148,79,27074,1,8,0:0:0:0:
275,99,27268,2,0,L|149:91,1,71.8750013709069,0|8,3:0|0:0,0:0:0:0:
469,220,27462,6,0,P|492:127|317:74,1,262.499991989136,4|0,3:2|0:0,0:0:0:0:
204,173,27851,1,8,0:0:0:0:
343,248,28045,1,2,0:0:0:0:
178,241,28240,2,0,L|191:335,1,87.499997329712,2|0,0:0|0:0,0:0:0:0:
348,126,28531,1,2,0:0:0:0:
110,72,28628,2,0,L|182:-6,1,87.499997329712,10|2,0:0|0:0,0:0:0:0:
369,67,28822,2,0,L|447:135,1,87.499997329712,2|2,0:0|0:0,0:0:0:0:
57,295,29017,6,0,P|29:212|170:120,1,262.499991989136,0|0,3:3|0:3,0:0:0:0:
386,135,29405,1,8,0:0:0:0:
232,266,29600,1,2,0:0:0:0:
415,273,29794,2,0,L|450:153,1,87.499997329712,2|0,0:0|0:0,0:0:0:0:
374,140,29988,1,0,3:0:0:0:
217,206,30183,1,8,0:0:0:0:
195,156,30231,1,0,0:0:0:0:
195,156,30280,1,0,0:0:0:0:
217,206,30328,1,0,0:0:0:0:
382,185,30377,1,0,0:0:0:0:
414,141,30425,1,0,0:0:0:0:
414,95,30474,1,0,0:0:0:0:
381,57,30523,1,0,0:0:0:0:
140,303,30571,6,0,P|43:231|49:84,1,262.499991989136,0|0,3:0|0:0,0:0:0:0:
201,85,30960,1,8,0:0:0:0:
344,184,31154,1,2,0:3:0:0:
183,205,31348,1,2,0:3:0:0:
183,205,31446,1,2,0:3:0:0:
359,127,31640,1,2,0:3:0:0:
359,127,31737,1,10,0:3:0:0:
58,245,31931,2,0,L|54:187,2,58.3333315531413,2|2|2,0:3|0:3|0:3,0:0:0:0:
357,241,32126,6,0,P|426:180|401:100,1,174.999994659424,0|0,3:0|3:0,0:0:0:0:
350,73,32417,1,0,3:0:0:0:
162,73,32514,1,8,0:0:0:0:
313,237,32708,2,0,L|328:76,1,87.499997329712,0|0,0:0|3:0,0:0:0:0:
37,158,32903,6,0,L|143:149,1,87.499997329712,0|0,0:0|3:0,0:0:0:0:
300,106,33097,2,0,L|192:101,1,87.499997329712,0|0,0:0|3:0,0:0:0:0:
111,92,33291,2,0,L|23:97,1,87.499997329712,8|0,0:0|3:0,0:0:0:0:
274,260,33486,2,0,L|282:102,1,87.499997329712,0|0,0:0|0:0,0:0:0:0:
32,284,33680,6,0,B|25:150|25:150|175:99,1,262.499991989136,4|0,3:2|0:0,0:0:0:0:
364,96,34069,1,8,0:0:0:0:
214,222,34263,1,2,0:0:0:0:
385,234,34457,2,0,L|366:135,1,87.499997329712,2|0,0:0|0:0,0:0:0:0:
209,102,34749,1,2,0:0:0:0:
430,84,34846,2,0,L|328:8,1,87.499997329712,10|2,0:0|0:0,0:0:0:0:
161,86,35040,2,0,L|36:160,1,87.499997329712,2|2,0:0|0:0,0:0:0:0:
346,320,35234,6,0,P|416:232|297:139,1,262.499991989136,0|0,3:0|0:0,0:0:0:0:
105,154,35623,1,8,0:0:0:0:
273,124,35817,1,2,0:0:0:0:
103,241,36012,2,0,L|178:195,2,87.499997329712,2|0|0,0:0|0:0|3:0,0:0:0:0:
393,289,36400,1,8,0:0:0:0:
394,245,36449,1,0,0:0:0:0:
396,201,36497,1,0,0:0:0:0:
397,157,36546,1,0,0:0:0:0:
167,212,36594,1,0,0:0:0:0:
125,172,36643,1,0,0:0:0:0:
128,124,36692,1,0,0:0:0:0:
162,80,36740,1,0,0:0:0:0:
424,268,36789,6,0,L|125:-8,1,349.999989318848,0|0,3:0|0:0,0:0:0:0:
377,205,37469,2,0,L|382:128,1,43.749998664856,0|0,3:0|3:0,0:0:0:0:
150,349,37566,2,0,P|53:209|166:87,1,349.999989318848,8|0,0:0|0:0,0:0:0:0:
345,168,38149,2,0,L|360:33,1,87.499997329712,0|0,0:0|3:0,0:0:0:0:
136,250,38343,6,0,L|121:56,1,174.999994659424,0|0,3:0|0:0,0:0:0:0:
243,180,38635,2,0,L|255:-1,1,174.999994659424,0|0,3:0|0:0,0:0:0:0:
149,61,38926,2,0,L|56:135,1,87.499997329712,0|0,3:0|3:0,0:0:0:0:
55,141,39072,1,0,0:0:0:0:
310,267,39120,5,10,0:0:0:0:
402,231,39218,1,0,0:0:0:0:
400,149,39315,1,0,0:0:0:0:
306,124,39412,1,0,0:0:0:0:
220,84,39509,1,2,0:0:0:0:
302,77,39606,1,2,3:2:0:0:
385,70,39703,1,0,0:0:0:0:
468,64,39800,1,2,0:0:0:0:
142,269,39898,6,0,P|65:210|142:124,1,174.999994659424,4|0,3:2|0:0,0:0:0:0:
167,114,40189,1,0,0:0:0:0:
365,225,40286,2,0,L|412:144,1,87.499997329712,8|0,0:0|0:0,0:0:0:0:
309,139,40481,2,0,L|200:73,1,87.499997329712,0|0,0:0|3:0,0:0:0:0:
454,101,40675,2,0,L|523:20,2,87.499997329712,2|0|0,0:3|0:0|3:0,0:0:0:0:
158,170,41063,2,0,L|157:56,1,87.499997329712,10|2,0:3|0:3,0:0:0:0:
371,203,41258,2,0,L|369:100,1,87.499997329712,2|2,0:3|0:3,0:0:0:0:
64,329,41452,6,0,P|29:233|92:131,1,174.999994659424,0|0,3:0|0:0,0:0:0:0:
137,144,41743,1,0,0:0:0:0:
298,189,41841,2,0,L|362:118,1,87.499997329712,8|0,0:0|0:0,0:0:0:0:
272,100,42035,2,0,L|160:51,1,87.499997329712,0|0,0:0|3:0,0:0:0:0:
438,168,42229,2,0,L|443:50,1,87.499997329712
355,41,42424,2,0,L|222:179,1,174.999994659424,0|8,3:0|0:0,0:0:0:0:
384,221,42812,2,0,L|402:359,1,87.499997329712
153,156,43006,6,0,L|383:18,1,262.499991989136,0|0,3:0|0:0,0:0:0:0:
93,215,43395,1,8,0:0:0:0:
220,205,43589,1,2,0:3:0:0:
56,139,43784,1,2,0:3:0:0:
56,139,43881,1,2,0:3:0:0:
218,121,44075,1,2,0:3:0:0:
138,52,44172,1,10,0:3:0:0:
432,146,44367,2,0,L|450:67,2,58.3333315531413,2|2|2,0:3|0:3|0:3,0:0:0:0:
208,277,44561,6,0,L|371:205,1,174.999994659424,0|0,3:0|0:0,0:0:0:0:
295,208,44852,1,0,3:0:0:0:
88,293,44949,2,0,P|36:208|116:151,1,174.999994659424,8|0,0:0|0:0,0:0:0:0:
283,168,45241,6,0,L|328:77,1,87.499997329712,0|0,3:0|0:0,0:0:0:0:
221,114,45435,2,0,L|186:9,1,87.499997329712,0|0,3:0|0:0,0:0:0:0:
302,18,45629,1,0,3:0:0:0:
132,238,45727,1,8,0:0:0:0:
78,197,45791,1,0,0:0:0:0:
78,197,45856,1,0,0:0:0:0:
133,229,45921,1,0,0:0:0:0:
386,175,46115,6,0,L|190:104,1,174.999994659424,4|0,3:2|0:0,0:0:0:0:
154,172,46407,1,0,0:0:0:0:
352,265,46504,2,0,L|445:223,1,87.499997329712,8|0,0:0|0:0,0:0:0:0:
509,173,46698,2,0,L|441:114,1,87.499997329712,0|0,0:0|3:0,0:0:0:0:
166,231,46892,2,0,L|134:126,2,87.499997329712,2|2|0,0:3|0:3|3:0,0:0:0:0:
481,112,47281,2,0,L|440:189,1,87.499997329712,10|2,0:3|0:3,0:0:0:0:
267,126,47475,2,0,L|295:30,1,87.499997329712,2|2,0:3|0:3,0:0:0:0:
131,258,47670,5,0,3:0:0:0:
67,206,47767,1,0,0:0:0:0:
93,128,47864,1,0,0:0:0:0:
175,124,47961,1,0,0:0:0:0:
418,230,48058,2,0,L|315:149,1,87.499997329712,8|0,0:0|0:0,0:0:0:0:
293,112,48253,2,0,L|382:180,1,87.499997329712,0|0,0:0|3:0,0:0:0:0:
92,223,48447,6,0,L|92:108,1,87.499997329712
180,104,48641,1,0,3:0:0:0:
328,272,48835,2,0,L|337:196,3,43.749998664856,8|0|0|0,0:0|0:0|0:0|0:0,0:0:0:0:
375,246,49030,2,0,L|458:186,1,87.499997329712,0|0,0:0|0:0,0:0:0:0:
166,257,49224,6,0,P|97:190|213:135,1,262.499991989136,0|0,3:0|0:0,0:0:0:0:
471,151,49613,1,8,0:0:0:0:
339,134,49807,1,2,0:3:0:0:
51,280,50001,2,0,L|51:175,1,87.499997329712,2|2,0:3|0:3,0:0:0:0:
199,83,50293,1,2,0:3:0:0:
437,240,50390,1,10,0:3:0:0:
328,195,50584,2,0,L|333:107,2,58.3333315531413,2|2|2,0:3|0:3|0:3,0:3:0:0:
84,84,50778,5,8,0:0:0:0:
202,286,50973,2,0,L|217:183,1,87.499997329712,0|0,3:0|3:0,0:0:0:0:
19,202,51167,1,8,0:0:0:0:
174,373,51361,2,0,L|189:270,1,87.499997329712,8|0,0:0|0:0,0:0:0:0:
362,237,51556,2,0,L|459:240,1,87.499997329712,0|0,3:0|3:0,0:0:0:0:
329,126,51847,2,0,L|318:67,1,43.749998664856,0|0,3:0|3:0,0:0:0:0:
191,80,51944,1,8,0:0:0:0:
309,45,52139,1,8,0:0:0:0:
40,68,52333,5,4,3:2:0:0:
334,297,52916,2,0,L|346:198,1,71.8750013709069,2|0,0:0|0:0,0:0:0:0:
153,262,53110,1,10,0:0:0:0:
104,213,53207,1,0,0:0:0:0:
122,148,53304,1,0,0:0:0:0:
348,160,53401,1,0,0:0:0:0:
425,157,53499,2,0,L|284:62,2,143.750002741814,2|0|2,0:0|0:0|0:0,0:0:0:0:
171,265,53984,5,0,3:0:0:0:
165,228,54033,1,0,3:0:0:0:
161,195,54082,1,0,3:0:0:0:
247,169,54179,1,0,3:0:0:0:
134,96,54373,1,0,3:0:0:0:
247,169,54567,1,0,3:0:0:0:
58,330,54664,2,0,P|24:273|97:193,1,143.750002741814,10|0,0:0|3:0,0:0:0:0:
140,206,54956,1,0,0:0:0:0:
230,205,55053,2,0,L|71:124,1,143.750002741814,2|0,0:0|0:0,0:0:0:0:
423,141,55442,5,2,3:2:0:0:
168,187,56025,2,0,L|283:190,1,71.8750013709069,0|0,3:0|3:0,0:0:0:0:
47,260,56219,2,0,L|54:95,1,143.750002741814,8|0,0:0|0:0,0:0:0:0:
240,324,56510,2,0,L|220:161,1,143.750002741814,0|0,0:0|0:0,0:0:0:0:
143,140,56802,1,0,0:0:0:0:
441,138,56996,5,0,3:0:0:0:
220,61,57287,1,0,3:0:0:0:
446,167,57579,1,0,3:0:0:0:
159,224,57773,2,0,L|270:220,1,71.8750013709069,8|0,0:0|3:0,0:0:0:0:
29,115,57968,2,0,L|39:7,1,71.8750013709069,0|0,3:0|0:0,0:0:0:0:
299,319,58162,2,0,P|345:271|276:245,1,143.750002741814,8|0,0:0|0:0,0:0:0:0:
217,229,58453,1,0,0:0:0:0:
108,222,58550,5,0,0:0:0:0:
417,155,58939,1,0,3:0:0:0:
260,257,59133,2,0,L|253:171,1,71.8750013709069,2|0,0:0|0:0,0:0:0:0:
458,278,59328,1,10,0:0:0:0:
475,211,59425,1,0,0:0:0:0:
426,163,59522,1,0,0:0:0:0:
254,185,59619,1,0,0:0:0:0:
183,106,59716,2,0,L|309:3,2,143.750002741814,2|0|2,0:0|0:0|0:0,0:0:0:0:
417,279,60202,5,0,3:0:0:0:
426,244,60251,1,0,3:0:0:0:
432,211,60299,1,0,3:0:0:0:
403,168,60396,1,0,3:0:0:0:
268,155,60591,1,0,3:0:0:0:
402,77,60785,1,0,3:0:0:0:
173,321,60882,2,0,P|128:245|175:209,1,143.750002741814,10|0,0:0|0:0,0:0:0:0:
216,171,61174,1,0,0:0:0:0:
306,182,61271,2,0,L|336:36,1,143.750002741814,2|2,0:0|0:0,0:0:0:0:
55,63,61659,5,2,3:2:0:0:
308,162,62242,2,0,L|236:91,1,71.8750013709069,0|0,3:0|3:0,0:0:0:0:
484,323,62436,2,0,P|498:227|462:175,1,143.750002741814,8|0,0:0|0:0,0:0:0:0:
303,206,62728,2,0,P|280:119|309:54,1,143.750002741814,0|0,0:0|0:0,0:0:0:0:
373,100,63019,2,0,L|389:-10,1,71.8750013709069,2|0,0:0|0:0,0:0:0:0:
129,55,63214,5,2,3:2:0:0:
283,179,63505,1,0,3:0:0:0:
129,55,63699,2,0,L|107:5,2,35.9375006854534,0|0|0,3:0|3:0|3:0,0:0:0:0:
200,68,63894,1,0,3:0:0:0:
477,187,63991,2,0,L|313:174,1,143.750002741814,8|0,0:0|3:0,0:0:0:0:
68,99,64282,2,0,L|224:91,1,143.750002741814,8|0,0:0|3:0,0:0:0:0:
465,74,64574,2,0,L|377:69,1,71.8750013709069,10|10,0:0|0:0,0:0:0:0:
77,247,64768,1,10,0:0:0:0:
373,361,70986,6,0,L|116:178,1,300,10|0,0:0|0:0,0:0:0:0:
177,167,71633,1,0,0:0:0:0:
220,146,71698,1,0,0:0:0:0:
273,347,71763,2,0,P|425:324|481:255,2,250
123,77,72734,5,2,0:0:0:0:
260,227,72929,2,0,L|287:152,2,50,2|0|0,0:0|0:0|0:0,0:0:0:0:
106,262,73317,2,0,L|96:137,1,100,2|0,0:0|0:0,0:0:0:0:
228,142,73706,2,0,L|216:26,1,100,2|0,0:0|0:0,0:0:0:0:
399,306,74094,6,0,P|454:286|369:214,1,200,2|0,0:0|0:0,0:0:0:0:
284,149,74677,2,0,L|360:149,1,50
107,325,74872,2,0,P|52:305|137:233,1,200,2|0,0:0|0:0,0:0:0:0:
222,168,75455,2,0,L|146:168,1,50
391,293,75649,5,2,3:2:0:0:
427,260,75746,1,0,3:0:0:0:
429,211,75843,1,0,3:0:0:0:
397,175,75940,1,0,3:0:0:0:
175,200,76037,1,0,3:0:0:0:
138,167,76135,1,0,3:0:0:0:
136,118,76232,1,0,3:0:0:0:
168,82,76329,1,0,0:0:0:0:
390,89,76426,6,0,L|307:90,1,50,2|0,3:2|3:0,0:0:0:0:
133,46,76620,2,0,L|191:45,1,50,0|0,3:0|3:0,0:0:0:0:
424,60,76815,2,0,L|356:59,1,50,0|0,3:0|3:0,0:0:0:0:
103,93,77009,2,0,L|166:92,1,50,0|0,3:0|3:0,0:0:0:0:
432,125,77203,5,2,3:2:0:0:
256,192,77398,12,0,78758,3:3:0:0:
152,304,79146,6,0,P|183:212|150:188,1,150,2|0,0:2|0:2,0:0:0:0:
417,218,79535,2,0,B|492:217|492:217|396:215,1,150,2|0,0:2|0:2,0:0:0:0:
234,207,79924,2,0,L|225:131,1,50,6|0,0:2|0:2,0:0:0:0:
330,123,80118,2,0,L|319:45,1,50,2|0,0:2|0:2,0:0:0:0:
57,264,80312,6,0,L|171:265,1,81.2499962806703,4|0,3:2|0:2,0:0:0:0:
230,261,80506,1,0,0:2:0:0:
302,257,80604,1,0,0:2:0:0:
100,190,80701,2,0,L|72:103,1,81.2499962806703,10|0,0:2|0:2,0:0:0:0:
325,178,80895,2,0,L|338:85,1,81.2499962806703,2|0,0:2|3:2,0:0:0:0:
154,269,81089,6,0,L|68:267,1,81.2499962806703,0|0,0:2|0:2,0:0:0:0:
72,267,81284,2,0,L|154:269,1,81.2499962806703,0|0,3:2|0:2,0:0:0:0:
352,205,81478,2,0,L|265:206,1,81.2499962806703,10|0,0:2|0:2,0:0:0:0:
92,150,81672,2,0,L|10:152,1,81.2499962806703,2|0,0:2|0:2,0:0:0:0:
267,74,81867,6,0,L|376:78,2,81.2499962806703,0|0|0,3:2|0:2|0:2,0:0:0:0:
195,69,82158,1,2,0:2:0:0:
394,240,82255,2,0,L|450:150,1,81.2499962806703,8|2,0:2|0:2,0:0:0:0:
189,200,82449,2,0,L|240:104,1,81.2499962806703,0|0,0:2|3:2,0:0:0:0:
443,114,82644,6,0,L|395:26,1,81.2499962806703,2|0,0:2|0:2,0:0:0:0:
227,306,82838,2,0,L|194:217,1,81.2499962806703,2|0,3:2|0:2,0:0:0:0:
16,224,83032,2,0,L|46:134,1,81.2499962806703,10|0,0:2|0:2,0:0:0:0:
270,164,83227,2,0,L|292:71,1,81.2499962806703,2|0,0:2|0:2,0:0:0:0:
74,288,83421,6,0,P|31:225|100:85,1,216.666656748454,0|2,3:2|0:2,0:0:0:0:
128,129,83745,1,2,0:2:0:0:
72,100,83810,1,10,0:2:0:0:
419,218,84004,2,0,P|405:115|384:110,1,81.2499962806703,2|0,0:2|3:2,0:0:0:0:
245,252,84198,6,0,P|187:184|168:114,1,162.499992561341,0|0,0:2|3:2,0:0:0:0:
355,118,84587,2,0,L|265:55,1,81.2499962806703,10|0,0:2|0:2,0:0:0:0:
90,116,84781,2,0,L|198:46,1,81.2499962806703,2|0,0:2|0:2,0:0:0:0:
406,249,84975,5,2,3:2:0:0:
275,265,85170,2,0,L|251:205,2,54.1666641871136,2|2|2,0:2|0:2|0:2,0:0:0:0:
346,276,85364,1,10,0:2:0:0:
180,324,85558,2,0,L|161:227,1,81.2499962806703,2|2,0:2|3:2,0:0:0:0:
482,228,85753,6,0,L|493:114,1,81.2499962806703,2|0,0:2|3:2,0:0:0:0:
312,165,85947,2,0,L|318:46,1,81.2499962806703,2|0,0:2|3:2,0:0:0:0:
144,194,86141,2,0,L|131:113,1,81.2499962806703,10|0,0:2|3:2,0:0:0:0:
312,130,86335,2,0,L|297:38,1,81.2499962806703,2|0,0:2|0:2,0:0:0:0:
33,112,86530,6,0,L|131:65,1,81.2499962806703,4|0,3:2|0:2,0:0:0:0:
114,109,86724,2,0,L|15:111,1,81.2499962806703,0|0,0:2|0:2,0:0:0:0:
272,269,86918,2,0,L|340:204,1,81.2499962806703,10|0,0:2|0:2,0:0:0:0:
136,122,87113,2,0,L|103:197,1,81.2499962806703,2|0,0:2|3:2,0:0:0:0:
344,111,87307,6,0,L|438:116,2,81.2499962806703,0|0|0,0:2|0:2|3:2,0:0:0:0:
264,106,87598,1,2,0:2:0:0:
496,237,87696,2,0,L|487:139,1,81.2499962806703,8|0,0:2|0:2,0:0:0:0:
308,147,87890,2,0,L|310:32,1,81.2499962806703,2|0,0:2|0:2,0:0:0:0:
136,117,88084,6,0,L|62:149,1,81.2499962806703,0|0,3:2|0:2,0:0:0:0:
137,79,88278,1,0,0:2:0:0:
218,74,88376,1,0,0:2:0:0:
22,276,88473,2,0,L|16:183,1,81.2499962806703,10|0,0:2|0:2,0:0:0:0:
211,213,88667,2,0,L|208:114,1,81.2499962806703,2|0,0:2|3:2,0:0:0:0:
424,132,88861,6,0,L|487:42,1,81.2499962806703,2|0,0:2|0:2,0:0:0:0:
283,69,89056,2,0,L|267:-23,1,81.2499962806703,2|0,3:2|0:2,0:0:0:0:
468,225,89250,2,0,L|468:132,1,81.2499962806703,10|0,0:2|0:2,0:0:0:0:
263,146,89444,2,0,L|355:235,1,81.2499962806703,2|0,0:2|0:2,0:0:0:0:
85,279,89639,6,0,P|60:195|135:146,1,162.499992561341,2|0,3:2|0:2,0:0:0:0:
171,141,89930,1,0,0:2:0:0:
348,160,90027,1,8,0:2:0:0:
202,295,90221,2,0,L|162:211,1,81.2499962806703,0|0,0:2|3:2,0:0:0:0:
358,118,90416,6,0,L|431:81,3,81.2499962806703,2|0|0|0,0:2|0:2|3:2|0:2,0:0:0:0:
200,103,90804,2,0,L|109:71,3,81.2499962806703,10|0|0|0,0:2|0:2|0:2|0:2,0:0:0:0:
449,138,91193,5,2,3:2:0:0:
378,141,91290,2,0,B|248:134|248:134|249:85,1,162.499992561341,8|0,0:2|0:2,0:0:0:0:
438,256,91582,2,0,B|302:254|302:254|304:216,1,162.499992561341,10|0,0:2|3:2,0:0:0:0:
356,202,91873,1,0,3:2:0:0:
154,261,91970,5,10,0:2:0:0:
80,217,92067,1,0,3:2:0:0:
154,261,92164,1,0,3:2:0:0:
354,233,92262,1,10,0:2:0:0:
409,170,92359,1,0,3:2:0:0:
325,137,92456,1,0,3:2:0:0:
121,53,92553,2,0,L|222:55,1,81.2499962806703,8|8,0:2|0:2,0:0:0:0:
481,84,92747,6,0,L|378:82,1,81.2499962806703,4|0,3:2|0:2,0:0:0:0:
317,92,92942,2,0,L|217:91,1,81.2499962806703,0|0,0:2|0:2,0:0:0:0:
453,280,93136,2,0,L|396:199,1,81.2499962806703,10|0,0:2|0:2,0:0:0:0:
228,216,93330,2,0,L|282:132,1,81.2499962806703,2|0,0:2|3:2,0:0:0:0:
69,181,93525,6,0,L|-2:102,2,81.2499962806703,0|0|0,0:2|0:2|3:2,0:0:0:0:
156,212,93816,1,0,0:2:0:0:
365,171,93913,2,0,L|276:129,1,81.2499962806703,10|0,0:2|0:2,0:0:0:0:
118,100,94107,2,0,L|36:64,1,81.2499962806703,2|0,0:2|0:2,0:0:0:0:
290,118,94302,6,0,L|382:115,1,81.2499962806703,0|0,3:2|0:2,0:0:0:0:
361,44,94496,2,0,L|271:43,1,81.2499962806703,0|2,0:2|0:2,0:0:0:0:
474,219,94690,2,0,L|482:106,1,81.2499962806703,8|0,0:2|0:2,0:0:0:0:
295,134,94885,2,0,L|306:21,1,81.2499962806703,2|0,0:2|3:2,0:0:0:0:
90,63,95079,6,0,L|194:60,1,81.2499962806703,2|0,0:2|0:2,0:0:0:0:
349,176,95273,2,0,L|438:182,1,81.2499962806703,2|0,3:2|0:2,0:0:0:0:
198,311,95468,2,0,L|201:193,1,81.2499962806703,10|0,0:2|0:2,0:0:0:0:
36,184,95662,2,0,L|40:96,1,81.2499962806703,2|0,0:2|0:2,0:0:0:0:
300,194,95856,6,0,P|438:129|445:59,1,216.666656748454,2|2,3:2|0:2,0:0:0:0:
406,81,96180,1,2,0:2:0:0:
447,80,96245,1,10,0:2:0:0:
77,69,96439,2,0,L|28:136,1,81.2499962806703,2|0,0:2|3:2,0:0:0:0:
222,329,96633,6,0,P|288:248|269:181,1,162.499992561341,0|0,0:2|3:2,0:0:0:0:
122,164,97022,2,0,L|239:157,1,81.2499962806703,10|0,0:2|0:2,0:0:0:0:
388,181,97216,2,0,L|460:142,1,81.2499962806703,2|0,0:2|0:2,0:0:0:0:
242,90,97411,5,2,3:2:0:0:
385,82,97605,2,0,L|419:15,2,54.1666641871136,2|2|2,0:2|0:2|0:2,0:0:0:0:
324,104,97799,1,10,0:2:0:0:
168,254,97993,2,0,L|142:152,1,81.2499962806703,0|0,0:2|3:2,0:0:0:0:
403,140,98188,6,0,L|289:115,1,81.2499962806703,2|0,0:2|3:2,0:0:0:0:
123,96,98382,2,0,L|236:87,1,81.2499962806703,2|0,0:2|3:2,0:0:0:0:
385,151,98576,1,10,0:2:0:0:
461,163,98674,1,0,0:2:0:0:
477,241,98771,1,2,0:2:0:0:
420,294,98868,1,0,0:2:0:0:
196,331,98965,6,0,P|117:284|230:153,1,287.500005483627,2|8,3:2|0:2,0:0:0:0:
355,167,99548,2,0,L|348:62,1,71.8750013709069,0|0,0:2|3:2,0:0:0:0:
253,97,99742,2,0,L|120:186,1,143.750002741814,0|0,0:2|3:2,0:0:0:0:
272,232,100131,2,0,L|373:375,1,143.750002741814,8|0,0:2|0:2,0:0:0:0:
182,328,100519,6,0,L|387:116,1,287.500005483627,2|8,3:2|0:2,0:0:0:0:
221,130,101102,2,0,L|132:35,2,71.8750013709069,0|0|0,0:0|3:0|0:0,0:0:0:0:
375,128,101491,2,0,L|372:4,1,71.8750013709069,0|0,3:0|0:0,0:0:0:0:
306,115,101685,2,0,L|191:10,1,143.750002741814,8|0,0:0|0:0,0:0:0:0:
480,276,102074,6,0,L|477:164,1,71.8750013709069,0|0,3:0|3:0,3:0:0:0:
380,211,102268,2,0,L|368:119,1,71.8750013709069,0|0,3:0|3:0,3:0:0:0:
270,143,102462,2,0,L|255:68,1,71.8750013709069,0|0,3:0|3:0,3:0:0:0:
151,134,102657,2,0,L|133:60,1,71.8750013709069,0|0,3:0|3:0,3:0:0:0:
364,219,102851,6,0,L|418:158,1,71.8750013709069,0|0,3:0|3:0,0:0:0:0:
174,222,103045,2,0,L|110:163,1,71.8750013709069,0|0,3:0|3:0,0:0:0:0:
390,218,103240,2,0,L|457:151,1,71.8750013709069,0|0,3:0|3:0,0:0:0:0:
174,222,103434,2,0,L|159:163,2,35.9375006854534,0|0|0,3:0|3:0|3:0,0:0:0:0:
441,298,103628,6,0,B|457:204|457:204|374:251|374:251|366:127|366:127|223:132|223:132|225:107|225:107|220:52|220:52|369:52|369:52|427:78,1,718.750013709069,0|0,3:0|3:0,0:0:0:0:
52,196,104794,1,8,0:0:0:0:
184,112,104988,2,0,L|88:108,1,71.8750013709069,0|8,3:0|0:0,0:0:0:0:
399,95,105183,6,0,L|170:340,1,300,4|0,3:2|0:2,0:0:0:0:
418,251,105571,2,0,L|442:187,2,66.6666666666667,2|0|0,0:2|0:2|0:2,0:0:0:0:
242,245,105765,2,0,L|217:181,2,66.6666666666667,2|0|0,0:2|0:2|0:2,0:0:0:0:
462,138,105960,5,8,3:2:0:0:
362,124,106154,1,2,0:2:0:0:
391,82,106219,1,0,0:2:0:0:
362,124,106284,1,0,0:2:0:0:
189,266,106348,1,2,0:2:0:0:
109,242,106446,2,0,P|73:146|164:71,1,200,2|0,0:2|3:2,0:0:0:0:
321,227,106737,6,0,L|68:32,1,300,0|0,3:2|0:2,0:0:0:0:
323,261,107126,1,2,0:2:0:0:
332,195,107190,1,0,0:2:0:0:
342,129,107255,1,0,0:2:0:0:
138,227,107320,2,0,L|121:108,1,100,0|0,3:2|3:0,0:0:0:0:
174,101,107466,1,0,3:0:0:0:
368,168,107514,5,10,0:2:0:0:
264,228,107708,2,0,L|435:228,1,150,2|0,0:3|0:0,0:0:0:0:
428,229,107903,2,0,L|439:152,3,50,2|0|0|0,0:3|0:3|0:3|0:3,0:0:0:0:
133,260,108097,6,0,B|56:286|56:286|39:162|39:162|252:163,1,400,4|0,3:2|3:2,0:0:0:0:
309,160,108583,1,0,0:2:0:0:
121,154,108680,2,0,L|108:16,1,100,0|0,0:2|3:2,0:0:0:0:
334,293,108874,1,2,0:3:0:0:
332,209,108971,2,0,L|289:169,1,50,0|0,3:2|3:2,0:0:0:0:
74,186,109069,5,8,0:2:0:0:
203,200,109263,2,0,L|225:142,2,50,2|2|2,0:3|0:3|0:3,0:0:0:0:
16,201,109457,2,0,L|8:80,1,100,2|2,0:3|0:3,0:0:0:0:
21,68,109603,1,2,0:3:0:0:
65,52,109651,1,2,0:3:0:0:
142,59,109749,1,0,3:2:0:0:
349,286,109846,6,0,B|454:242|454:242|482:154,1,200,0|0,3:2|0:2,0:0:0:0:
417,110,110137,1,0,3:2:0:0:
243,240,110234,2,0,P|267:143|363:70,1,200,0|0,0:2|3:2,0:0:0:0:
319,43,110526,2,0,L|260:31,1,50,0|0,3:2|3:2,0:0:0:0:
110,170,110623,5,8,0:2:0:0:
56,113,110720,1,0,0:2:0:0:
135,60,110817,1,0,0:2:0:0:
320,92,110914,2,0,L|251:192,1,100,8|0,0:2|0:2,0:0:0:0:
470,251,111109,1,0,3:2:0:0:
486,157,111206,1,0,0:2:0:0:
411,99,111303,1,0,0:2:0:0:
108,291,111400,6,0,L|131:180,1,100,2|2,3:3|0:3,0:0:0:0:
209,166,111594,2,0,L|184:95,2,66.6666666666667,2|2|2,0:3|0:3|0:3,0:0:0:0:
422,155,111789,6,0,L|237:39,1,200,4|0,3:2|0:2,0:0:0:0:
205,202,112080,2,0,L|186:129,1,50,0|0,3:2|3:2,0:0:0:0:
401,287,112177,2,0,L|467:199,1,100,8|0,0:2|0:0,0:0:0:0:
273,186,112372,6,0,L|270:107,2,66.6666666666667,2|0|0,0:2|0:2|0:2,0:0:0:0:
65,232,112566,1,2,0:2:0:0:
29,169,112663,2,0,P|29:65|129:22,1,200,2|0,0:2|3:2,0:0:0:0:
355,298,112955,6,0,L|130:46,1,300,0|0,3:2|3:2,0:0:0:0:
356,122,113343,2,0,L|396:52,2,66.6666666666667,2|0|0,0:2|0:2|0:2,0:0:0:0:
173,289,113537,2,0,L|146:178,1,100,0|0,3:2|3:2,0:0:0:0:
463,172,113732,5,8,0:2:0:0:
139,148,113926,1,8,0:2:0:0:
287,304,114120,2,0,P|319:216|298:5,1,300,0|0,3:0|0:0,0:0:0:0:
83,171,114509,6,0,L|237:19,1,200,4|0,3:2|0:2,0:0:0:0:
30,101,114800,2,0,L|105:5,1,100,12|0,3:2|0:2,0:0:0:0:
357,106,114995,1,8,0:2:0:0:
438,99,115092,2,0,L|396:-10,1,100,8|0,0:2|0:2,0:0:0:0:
210,177,115286,6,0,L|99:91,2,100,4|0|0,3:2|0:2|0:2,0:0:0:0:
465,178,115578,2,0,L|333:91,1,100,4|0,3:2|0:2,0:0:0:0:
180,184,115772,2,0,L|270:84,1,100,8|8,0:2|0:2,0:0:0:0:
319,39,115966,1,0,0:2:0:0:
88,63,116063,5,4,3:2:0:0:
185,224,116258,2,0,L|117:117,1,100,0|8,0:2|0:2,0:0:0:0:
401,144,116452,1,8,0:2:0:0:
35,113,116646,1,4,0:2:0:0:
256,192,116841,12,0,119949,0:0:0:0:
