osu file format v14

[General]
AudioFilename: 04. Towards the Horizon.mp3
AudioLeadIn: 0
PreviewTime: 79146
Countdown: 0
SampleSet: Soft
StackLeniency: 0.2
Mode: 2
LetterboxInBreaks: 0
WidescreenStoryboard: 0

[Editor]
Bookmarks: 64768
DistanceSpacing: 1.4
BeatDivisor: 4
GridSize: 32
TimelineZoom: 1.8

[Metadata]
Title:Towards The Horizon
TitleUnicode:Towards The Horizon
Artist:Camellia
ArtistUnicode:かめりあ
Creator:Sinnoh
Version:Vanishing Point
Source:REFLEC BEAT 悠久のリフレシア
Tags:The Reflesia of Eternity 6th KONAMI Arcade Championship kac BEMANI Illusiya イルシヤ
BeatmapID:1328778
BeatmapSetID:629384

[Difficulty]
HPDrainRate:6
CircleSize:4.5
OverallDifficulty:9.5
ApproachRate:9.5
SliderMultiplier:2.1
SliderTickRate:2

[Events]
//Background and Video events
0,0,"audio.jpg",0,0
//Break Periods
//Storyboard Layer 0 (Background)
//Storyboard Layer 1 (Fail)
//Storyboard Layer 2 (Pass)
//Storyboard Layer 3 (Foreground)
//Storyboard Sound Samples
Sample,15707,0,"drum-hitnormal.wav",60
Sample,21925,0,"drum-hitnormal.wav",60
Sample,50681,0,"drum-hitnormal.wav",80
Sample,50730,0,"drum-hitnormal.wav",80
Sample,105863,0,"drum-hitnormal.wav",80
Sample,105911,0,"drum-hitnormal.wav",80

[TimingPoints]
1038,388.60103626943,4,2,2,60,1,0
15027,-86.9565217391305,4,2,1,60,0,0
26879,-86.9565217391305,4,2,1,40,0,0
27462,-71.4285714285714,4,2,1,80,0,1
36789,-71.4285714285714,4,2,1,70,0,0
39898,-71.4285714285714,4,2,1,80,0,1
42424,-66.6666666666667,4,2,1,80,0,1
43006,-71.4285714285714,4,2,1,80,0,1
46115,-58.8235294117647,4,2,1,80,0,1
46407,-71.4285714285714,4,2,1,80,0,1
52333,-86.9565217391305,4,2,1,60,0,0
64768,-125,4,2,2,60,0,0
65545,-100,4,2,2,60,0,0
66517,-125,4,2,2,60,0,0
69431,-100,4,2,2,60,0,0
70986,-86.9565217391305,4,2,2,60,0,0
75649,-86.9565217391305,4,2,1,40,0,0
76426,-86.9565217391305,4,2,1,60,0,0
77203,-86.9565217391305,4,2,1,70,0,0
77300,-86.9565217391305,4,2,1,50,0,0
79924,-86.9565217391305,4,2,1,20,0,0
80021,-86.9565217391305,4,2,1,60,0,0
80312,-76.9230769230769,4,2,1,80,0,1
82644,-66.6666666666667,4,2,1,80,0,1
83421,-76.9230769230769,4,2,1,80,0,1
98965,-86.9565217391305,4,2,1,60,0,0
102074,-86.9565217391305,4,2,1,40,0,0
102851,-86.9565217391305,4,2,1,60,0,0
103628,-86.9565217391305,4,2,1,40,0,0
105183,-62.5,4,2,1,80,0,1
111400,-62.5,4,2,1,70,0,0
111789,-62.5,4,2,1,90,0,1
111983,-62.5,4,2,1,80,0,1
114120,-62.5,4,2,1,80,0,0
114509,-62.5,4,2,1,60,0,1
116646,-86.9565217391305,4,2,1,100,0,0
116743,-86.9565217391305,4,2,1,50,0,0
117618,-86.9565217391305,4,2,1,50,0,0
118201,-86.9565217391305,4,2,1,38,0,0
118784,-86.9565217391305,4,2,1,26,0,0
119172,-86.9565217391305,4,2,1,14,0,0
119561,-86.9565217391305,4,2,1,5,0,0

[Colours]
Combo1 : 192,192,192
Combo2 : 255,61,61
Combo3 : 121,121,255
Combo4 : 0,198,99

[HitObjects]
446,249,892,5,0,0:0:0:0:
455,228,940,1,0,0:0:0:0:
457,204,989,1,0,0:0:0:0:
285,292,1038,6,0,P|228:265|294:70,1,315,2|0,0:0|0:0,0:0:0:0:
341,64,1718,1,0,0:0:0:0:
143,273,1815,2,0,L|127:200,1,52.5,2|0,0:0|0:0,0:0:0:0:
206,207,2009,2,0,L|209:138,1,52.5,0|0,0:0|0:0,0:0:0:0:
136,150,2203,1,0,0:0:0:0:
63,136,2300,1,0,0:0:0:0:
63,75,2398,1,0,0:0:0:0:
129,42,2495,1,0,0:0:0:0:
369,55,2592,5,2,0:0:0:0:
244,178,2786,2,0,L|239:116,1,52.5,0|0,0:0|0:0,0:0:0:0:
482,187,2981,2,0,L|490:120,1,52.5
388,132,3175,2,0,L|392:60,1,52.5
220,218,3369,2,0,L|354:221,2,105,10|0|0,0:0|0:0|0:0,0:0:0:0:
367,282,3952,1,0,0:0:0:0:
80,223,4146,5,2,0:0:0:0:
233,219,4341,2,0,L|301:217,1,52.5
129,116,4535,2,0,L|65:112,2,52.5
57,178,4826,1,0,0:0:0:0:
331,180,4924,2,0,L|438:226,1,105,2|0,0:0|0:0,0:0:0:0:
374,174,5215,2,0,P|321:209|381:255,1,157.5
437,257,5604,1,0,0:0:0:0:
208,299,5701,6,0,P|164:289|222:230,1,157.5,2|0,0:0|0:0,0:0:0:0:
298,211,6089,2,0,L|419:210,1,105
91,196,6478,2,0,B|96:124|96:124|190:110,1,157.5
272,167,6867,2,0,L|282:48,1,105
19,161,7255,5,2,0:0:0:0:
171,182,7449,2,0,L|169:337,1,105
43,51,7838,2,0,L|54:121,1,52.5,0|0,0:0|0:0,0:0:0:0:
312,263,8032,1,2,0:0:0:0:
187,263,8227,1,0,0:0:0:0:
362,283,8421,1,0,0:0:0:0:
378,246,8486,1,0,0:0:0:0:
370,211,8550,1,0,0:0:0:0:
341,189,8615,2,0,L|258:146,1,52.5,0|0,0:0|0:0,0:0:0:0:
81,171,8810,6,0,P|66:111|106:63,1,105,2|0,0:0|0:0,0:0:0:0:
162,64,9101,1,0,0:0:0:0:
345,197,9198,2,0,L|407:197,3,52.5,0|0|0|0,0:0|0:0|0:0|0:0,0:0:0:0:
188,193,9587,2,0,L|83:193,2,105,10|0|0,0:2|0:0|0:0,0:0:0:0:
360,153,10170,1,0,0:0:0:0:
90,195,10364,6,0,L|84:126,1,52.5,2|0,0:0|0:0,0:0:0:0:
189,67,10558,2,0,L|193:119,1,52.5
15,98,10753,2,0,L|24:14,1,52.5,0|0,0:0|0:0,0:0:0:0:
236,224,10947,2,0,L|249:138,1,52.5
477,161,11141,2,0,L|469:93,1,52.5,2|0,0:0|0:0,0:0:0:0:
306,323,11335,2,0,P|243:298|310:216,1,210
374,182,11821,1,0,0:0:0:0:
147,189,11918,5,2,0:0:0:0:
266,121,12210,1,0,0:0:0:0:
187,105,12307,2,0,L|62:102,1,105
405,231,12696,2,0,P|456:193|390:178,1,157.5
333,101,13084,2,0,L|466:97,1,105
185,287,13473,5,2,0:0:0:0:
73,241,13667,2,0,L|70:110,1,105,0|0,0:0|0:0,0:0:0:0:
255,48,14056,2,0,L|181:46,1,52.5
376,46,14250,2,0,B|413:68|413:68|380:132,1,105,10|0,0:0|0:0,0:0:0:0:
243,213,14639,1,0,0:0:0:0:
375,236,14833,1,0,0:0:0:0:
57,295,15027,6,0,P|39:235|52:166,1,120.750002303124,0|0,3:0|0:0,0:0:0:0:
111,163,15319,1,0,0:0:0:0:
212,156,15416,2,0,P|230:91|206:36,1,120.750002303124,8|0,0:0|0:0,0:0:0:0:
171,58,15675,1,0,0:0:0:0:
138,22,15740,1,0,0:0:0:0:
400,230,15804,6,0,L|467:231,2,60.3750011515618,0|0|0,0:0|0:0|3:0,0:0:0:0:
265,74,16193,2,0,P|351:64|404:67,1,120.750002303124,8|0,0:0|0:0,0:0:0:0:
446,65,16484,1,0,0:0:0:0:
216,210,16582,5,2,3:2:0:0:
162,187,16679,1,0,0:0:0:0:
157,130,16776,1,0,0:0:0:0:
204,98,16873,1,0,0:0:0:0:
279,96,16970,2,0,P|192:79|117:83,1,120.750002303124,8|0,0:0|0:0,0:0:0:0:
108,83,17262,1,0,3:0:0:0:
295,294,17359,6,0,P|360:300|422:297,1,120.750002303124,2|0,0:0|3:0,0:0:0:0:
444,243,17618,1,0,0:0:0:0:
404,201,17683,1,0,0:0:0:0:
333,186,17747,2,0,P|299:143|328:88,1,120.750002303124,8|0,0:0|0:0,0:0:0:0:
394,84,18039,1,0,0:0:0:0:
170,265,18136,5,2,3:2:0:0:
117,220,18233,1,0,0:0:0:0:
148,158,18330,1,0,0:0:0:0:
225,151,18427,1,0,0:0:0:0:
309,156,18525,2,0,P|355:71|354:24,1,120.750002303124,8|0,0:0|0:0,0:0:0:0:
338,0,18816,1,0,3:0:0:0:
144,221,18913,6,0,L|92:164,2,60.3750011515618,2|0|0,0:0|0:0|3:0,0:0:0:0:
301,152,19302,2,0,L|470:147,1,120.750002303124,8|0,0:0|0:0,0:0:0:0:
355,125,19593,1,0,0:0:0:0:
107,251,19690,5,2,3:2:0:0:
54,230,19787,1,0,0:0:0:0:
49,173,19885,1,0,0:0:0:0:
215,178,19982,1,0,3:0:0:0:
222,132,20030,1,0,3:0:0:0:
214,87,20079,2,0,L|88:88,1,120.750002303124,8|0,0:0|0:0,0:0:0:0:
153,97,20370,1,0,3:0:0:0:
360,224,20468,6,0,L|368:144,1,60.3750011515618,2|0,0:2|3:0,0:0:0:0:
279,160,20662,1,0,0:0:0:0:
256,110,20759,1,0,3:0:0:0:
440,174,20856,2,0,L|517:172,1,60.3750011515618,8|0,0:0|3:0,0:0:0:0:
498,123,21050,1,0,0:0:0:0:
456,93,21115,1,0,0:0:0:0:
383,73,21180,1,0,0:0:0:0:
169,282,21245,6,0,L|80:282,2,60.3750011515618,2|0|0,3:2|0:0|0:0,0:0:0:0:
242,281,21536,1,0,0:0:0:0:
150,227,21633,2,0,P|98:194|78:112,1,120.750002303124,8|0,0:0|0:0,0:0:0:0:
113,109,21892,1,0,0:0:0:0:
144,102,21957,1,0,0:0:0:0:
302,82,22022,6,0,L|377:79,1,60.3750011515618,2|0,0:0|0:0,0:0:0:0:
286,42,22216,1,0,3:0:0:0:
438,249,22411,1,8,0:0:0:0:
508,232,22508,1,0,0:0:0:0:
437,174,22605,2,0,L|335:173,1,60.3750011515618,0|0,0:0|0:0,0:0:0:0:
188,243,22799,6,0,L|180:158,1,60.3750011515618,2|0,3:2|0:0,0:0:0:0:
271,182,22993,2,0,L|287:94,1,60.3750011515618,0|0,0:0|0:0,0:0:0:0:
99,252,23188,2,0,L|105:191,1,60.3750011515618,8|0,0:0|0:0,0:0:0:0:
14,159,23382,2,0,L|20:99,1,60.3750011515618,0|0,0:0|3:0,0:0:0:0:
265,86,23576,6,0,L|340:87,1,60.3750011515618
232,169,23771,2,0,L|164:148,1,60.3750011515618,0|0,3:0|0:0,0:0:0:0:
433,163,23965,2,0,L|362:128,1,60.3750011515618,8|0,0:0|0:0,0:0:0:0:
182,314,24159,1,0,0:0:0:0:
158,281,24224,1,0,0:0:0:0:
153,242,24289,1,0,0:0:0:0:
448,241,24354,6,0,L|341:239,1,60.3750011515618,0|0,3:0|3:0,3:0:0:0:
169,188,24548,2,0,L|92:186,1,60.3750011515618,0|0,3:0|3:0,3:0:0:0:
445,164,24742,2,0,L|373:163,1,60.3750011515618,0|0,3:0|3:0,3:0:0:0:
163,123,24936,2,0,L|87:121,1,60.3750011515618,0|0,3:0|3:0,3:0:0:0:
433,86,25131,6,0,L|493:86,1,60.3750011515618,0|0,3:0|3:0,3:0:0:0:
154,64,25325,2,0,L|233:65,1,60.3750011515618,0|0,3:0|3:0,3:0:0:0:
431,14,25519,2,0,L|510:15,1,60.3750011515618,0|0,3:0|3:0,3:0:0:0:
143,207,25714,1,0,3:0:0:0:
180,207,25762,1,0,3:0:0:0:
217,207,25811,1,0,3:0:0:0:
254,207,25859,1,0,3:0:0:0:
480,142,25908,6,0,B|559:228|448:380|448:380|353:374|316:294|316:294|343:246|343:246|264:272,1,543.375010364056,0|0,3:0|0:0,0:0:0:0:
220,252,26879,2,0,L|203:205,2,30.1875005757809,0|0|0,3:0|0:0|0:0,0:0:0:0:
402,223,27074,2,0,L|292:132,1,120.750002303124,8|0,0:0|3:0,0:0:0:0:
400,137,27365,1,8,0:0:0:0:
146,139,27462,6,0,L|413:135,1,220.499993270874,4|0,3:2|0:0,0:0:0:0:
109,291,27851,1,8,0:0:0:0:
378,303,28045,1,2,0:0:0:0:
253,180,28240,5,2,0:0:0:0:
311,122,28337,1,0,0:0:0:0:
173,110,28531,1,2,0:0:0:0:
369,130,28628,1,10,0:0:0:0:
286,153,28725,1,2,0:0:0:0:
60,229,28822,1,2,0:0:0:0:
151,214,28920,1,2,0:0:0:0:
472,260,29017,6,0,L|483:225,6,36.749998878479,0|0|0|0|0|0|0,3:3|0:3|0:3|0:3|0:3|0:3|0:3,0:0:0:0:
168,211,29405,1,8,0:0:0:0:
432,159,29600,1,2,0:0:0:0:
288,140,29794,5,2,0:0:0:0:
342,91,29891,1,0,0:0:0:0:
101,133,29988,1,0,3:0:0:0:
240,300,30183,1,8,0:0:0:0:
261,270,30231,1,0,0:0:0:0:
264,234,30280,1,0,0:0:0:0:
239,192,30328,1,0,0:0:0:0:
55,281,30377,1,0,0:0:0:0:
34,251,30425,1,0,0:0:0:0:
31,215,30474,1,0,0:0:0:0:
56,173,30523,1,0,0:0:0:0:
371,130,30571,6,0,L|128:119,1,220.499993270874,0|0,3:0|0:0,0:0:0:0:
319,252,30960,1,8,0:0:0:0:
176,306,31154,1,2,0:3:0:0:
312,152,31348,5,2,0:3:0:0:
312,152,31446,1,2,0:3:0:0:
122,96,31640,1,2,0:3:0:0:
122,96,31737,1,10,0:3:0:0:
382,120,31931,2,0,L|420:77,2,48.9999985046387,2|2|2,0:3|0:3|0:3,0:3:0:0:
36,286,32126,5,0,3:0:0:0:
34,249,32174,1,0,0:0:0:0:
32,212,32223,1,0,0:0:0:0:
30,175,32271,1,0,0:0:0:0:
70,146,32320,1,0,3:0:0:0:
247,123,32417,1,0,3:0:0:0:
425,107,32514,1,8,0:0:0:0:
265,302,32708,2,0,L|259:216,1,73.4999977569581,0|0,0:0|3:0,0:0:0:0:
463,196,32903,6,0,L|471:96,1,73.4999977569581,0|0,0:0|3:0,0:0:0:0:
267,89,33097,2,0,L|340:83,1,73.4999977569581,0|0,0:0|3:0,0:0:0:0:
138,186,33291,2,0,L|124:72,1,73.4999977569581,8|0,0:0|3:0,0:0:0:0:
330,36,33486,2,0,L|234:32,1,73.4999977569581
477,282,33680,6,0,P|488:214|431:48,1,220.499993270874,4|0,3:2|0:0,0:0:0:0:
250,244,34069,1,8,0:0:0:0:
429,121,34263,1,2,0:0:0:0:
294,73,34457,5,2,0:0:0:0:
352,64,34554,1,0,0:0:0:0:
235,184,34749,1,2,0:0:0:0:
450,280,34846,1,10,0:0:0:0:
384,281,34943,1,2,0:0:0:0:
165,280,35040,1,2,0:0:0:0:
80,282,35137,1,2,0:0:0:0:
327,273,35234,5,0,3:0:0:0:
361,261,35283,1,0,0:0:0:0:
386,235,35332,1,0,0:0:0:0:
395,199,35380,1,0,0:0:0:0:
386,164,35429,1,0,0:0:0:0:
361,138,35477,1,0,0:0:0:0:
326,127,35526,1,0,0:0:0:0:
146,123,35623,1,8,0:0:0:0:
430,98,35817,1,2,0:0:0:0:
302,71,36012,5,2,0:0:0:0:
359,52,36109,1,0,0:0:0:0:
134,49,36206,1,0,3:0:0:0:
278,307,36400,1,8,0:0:0:0:
323,283,36449,1,0,0:0:0:0:
328,239,36497,1,0,0:0:0:0:
301,200,36546,1,0,0:0:0:0:
160,215,36594,1,0,0:0:0:0:
115,191,36643,1,0,0:0:0:0:
110,147,36692,1,0,0:0:0:0:
137,108,36740,1,0,0:0:0:0:
352,129,36789,6,0,B|460:170|460:170|372:272,1,220.499993270874,0|0,3:0|0:0,0:0:0:0:
337,109,37177,2,0,L|182:105,1,146.999995513916,0|0,0:0|0:0,0:0:0:0:
466,174,37469,1,0,3:0:0:0:
471,138,37517,1,0,3:0:0:0:
267,183,37566,6,0,B|169:181|169:181|132:114,1,146.999995513916,8|0,0:0|0:0,0:0:0:0:
301,83,37955,2,0,B|191:88|191:88|169:35,1,146.999995513916,0|0,0:0|0:0,0:0:0:0:
230,83,38246,1,0,3:0:0:0:
31,290,38343,6,0,P|33:208|89:120,1,146.999995513916,0|0,3:0|0:0,0:0:0:0:
335,202,38635,1,0,3:0:0:0:
391,162,38732,2,0,L|252:78,1,146.999995513916,0|0,0:0|3:0,0:0:0:0:
204,65,39023,1,0,3:0:0:0:
468,214,39120,6,0,L|482:127,1,73.4999977569581,10|0,0:0|0:0,0:0:0:0:
314,102,39315,2,0,L|318:-3,1,73.4999977569581
146,242,39509,1,2,0:0:0:0:
226,242,39606,1,2,3:2:0:0:
308,240,39703,1,0,0:0:0:0:
392,240,39800,1,2,0:0:0:0:
84,337,39898,6,0,P|15:236|66:182,1,146.999995513916,4|0,3:2|0:0,0:0:0:0:
109,172,40189,1,0,0:0:0:0:
261,166,40286,2,0,L|347:165,1,73.4999977569581,8|0,0:0|0:0,0:0:0:0:
152,86,40481,2,0,L|245:85,1,73.4999977569581,0|0,0:0|3:0,0:0:0:0:
418,105,40675,6,0,L|449:15,2,73.4999977569581,2|2|0,0:3|0:3|3:0,0:0:0:0:
53,150,41063,2,0,L|150:153,1,73.4999977569581,10|2,0:3|0:3,0:3:0:0:
199,154,41258,2,0,L|100:151,1,73.4999977569581,2|2,0:3|0:3,0:3:0:0:
401,271,41452,6,0,P|462:210|439:129,1,146.999995513916,0|0,3:0|0:0,0:0:0:0:
394,106,41743,1,0,0:0:0:0:
205,89,41841,2,0,L|308:61,1,73.4999977569581,8|0,0:0|0:0,0:0:0:0:
478,53,42035,2,0,L|389:26,1,73.4999977569581,0|0,0:0|3:0,0:0:0:0:
235,189,42229,5,0,0:0:0:0:
315,229,42326,1,0,0:0:0:0:
220,190,42424,2,0,L|44:191,1,157.500006008148,0|8,3:0|0:0,0:0:0:0:
29,148,42666,1,0,0:0:0:0:
14,111,42715,1,0,0:0:0:0:
17,75,42764,1,0,0:0:0:0:
40,45,42812,1,0,0:0:0:0:
105,51,42909,1,0,0:0:0:0:
327,127,43006,6,0,P|410:199|297:252,1,220.499993270874,0|0,3:0|0:0,0:0:0:0:
87,317,43395,1,8,0:0:0:0:
250,273,43589,2,0,L|261:178,1,73.4999977569581,2|0,0:3|3:0,0:0:0:0:
70,65,43784,2,0,L|157:65,1,73.4999977569581,2|2,0:3|0:3,0:3:0:0:
350,123,43978,1,0,3:0:0:0:
366,56,44075,1,2,0:3:0:0:
123,223,44172,1,10,0:3:0:0:
255,207,44367,1,2,0:3:0:0:
219,179,44431,1,2,0:3:0:0:
185,154,44496,1,2,0:3:0:0:
416,138,44561,5,0,3:0:0:0:
345,127,44755,2,0,L|353:50,1,73.4999977569581,0|0,0:0|3:0,0:0:0:0:
326,39,44901,1,0,3:0:0:0:
157,287,44949,2,0,P|99:237|136:146,1,146.999995513916,8|0,0:0|0:0,0:0:0:0:
383,173,45241,6,0,L|386:70,1,73.4999977569581,0|0,3:0|0:0,0:0:0:0:
230,23,45435,2,0,L|229:101,1,73.4999977569581,0|0,3:0|0:0,0:0:0:0:
323,102,45629,1,0,3:0:0:0:
231,254,45727,1,8,0:0:0:0:
283,253,45791,1,0,0:0:0:0:
329,252,45856,1,0,0:0:0:0:
380,250,45921,1,0,0:0:0:0:
91,142,46115,6,0,L|312:146,1,178.500003404617,4|0,3:2|0:0,0:0:0:0:
328,139,46407,1,0,0:0:0:0:
116,224,46504,2,0,L|23:226,1,73.4999977569581,8|0,0:0|0:0,0:0:0:0:
247,115,46698,2,0,L|136:117,1,73.4999977569581,0|0,0:0|3:0,0:0:0:0:
414,96,46892,6,0,L|500:100,2,73.4999977569581,2|2|0,0:3|0:3|3:0,0:0:0:0:
230,250,47281,2,0,L|327:253,1,73.4999977569581,10|2,0:3|0:3,0:3:0:0:
382,255,47475,2,0,L|455:257,1,73.4999977569581,2|2,0:3|0:3,0:3:0:0:
152,174,47670,6,0,L|53:172,1,73.4999977569581,0|0,3:0|0:0,0:0:0:0:
270,127,47864,2,0,L|248:33,1,73.4999977569581,0|0,0:0|0:0,0:0:0:0:
50,147,48058,2,0,L|96:55,1,73.4999977569581,8|0,0:0|0:0,0:0:0:0:
319,232,48253,2,0,L|228:216,1,73.4999977569581,0|0,0:0|3:0,0:0:0:0:
488,180,48447,6,0,L|493:77,1,73.4999977569581
203,235,48641,1,0,3:0:0:0:
354,235,48835,2,0,L|364:181,3,36.749998878479,8|0|0|0,0:0|0:0|0:0|0:0,0:0:0:0:
338,180,49030,2,0,L|239:165,1,73.4999977569581,0|0,0:0|0:0,0:0:0:0:
28,278,49224,6,0,P|33:190|144:127,1,220.499993270874,0|0,3:0|0:0,0:0:0:0:
365,126,49613,1,8,0:0:0:0:
205,158,49807,2,0,L|309:159,1,73.4999977569581,2|0,0:3|3:0,0:0:0:0:
87,197,50001,6,0,L|70:80,1,73.4999977569581,2|2,0:3|0:3,0:0:0:0:
270,101,50196,1,0,3:0:0:0:
369,75,50293,1,2,0:3:0:0:
48,304,50390,2,0,P|32:239|112:171,1,146.999995513916,10|2,0:3|0:3,0:0:0:0:
137,164,50649,1,2,0:3:0:0:
209,145,50714,1,2,0:3:0:0:
443,146,50778,5,8,0:0:0:0:
344,301,50973,1,0,3:0:0:0:
428,299,51070,1,0,3:0:0:0:
175,254,51167,1,8,0:0:0:0:
300,147,51361,2,0,L|312:222,1,73.4999977569581,8|0,0:0|0:0,0:0:0:0:
49,131,51556,6,0,L|59:48,1,73.4999977569581,0|0,3:0|3:0,3:0:0:0:
145,46,51750,1,0,0:0:0:0:
412,169,51847,1,0,3:0:0:0:
399,138,51896,1,0,3:0:0:0:
197,219,51944,1,8,0:0:0:0:
302,261,52139,1,8,0:0:0:0:
35,317,52333,6,0,P|21:259|33:201,1,120.750002303124,4|0,3:2|0:0,0:0:0:0:
173,200,52721,1,0,0:0:0:0:
314,268,52916,2,0,L|324:178,1,60.3750011515618,2|0,0:0|0:0,0:0:0:0:
96,107,53110,2,0,L|5:107,2,60.3750011515618,10|0|0,0:0|0:0|0:0,0:0:0:0:
190,71,53401,1,0,0:0:0:0:
264,75,53499,2,0,L|399:75,1,120.750002303124,2|0,0:0|0:0,0:0:0:0:
241,177,53887,5,2,0:0:0:0:
439,227,53984,2,0,L|447:257,1,30.1875005757809,0|0,3:0|3:0,3:0:0:0:
412,297,54082,1,0,3:0:0:0:
324,309,54179,1,0,3:0:0:0:
180,309,54373,1,0,3:0:0:0:
321,227,54567,1,0,3:0:0:0:
48,300,54664,2,0,L|39:150,1,120.750002303124,10|0,0:0|3:0,0:0:0:0:
110,167,54956,1,0,0:0:0:0:
198,163,55053,2,0,L|371:161,1,120.750002303124,2|0,0:0|0:0,0:0:0:0:
114,94,55442,5,2,3:2:0:0:
268,251,55636,2,0,L|289:186,2,60.3750011515618
94,200,56025,1,0,3:0:0:0:
172,193,56122,1,0,3:0:0:0:
455,288,56219,2,0,L|455:150,1,120.750002303124,8|0,0:0|0:0,0:0:0:0:
282,172,56510,2,0,L|278:39,1,120.750002303124
355,45,56802,1,0,0:0:0:0:
42,228,56996,6,0,L|208:211,1,120.750002303124,0|0,3:0|0:0,0:0:0:0:
250,180,57287,2,0,L|41:167,1,181.125003454685,0|0,3:0|3:0,0:0:0:0:
382,155,57773,2,0,L|282:152,2,60.3750011515618,8|0|0,0:0|3:0|3:0,0:0:0:0:
451,181,58065,1,0,0:0:0:0:
215,203,58162,2,0,L|70:213,1,120.750002303124,8|0,0:0|0:0,0:0:0:0:
22,219,58453,1,0,0:0:0:0:
114,110,58550,6,0,L|133:169,2,60.3750011515618
301,191,58939,1,0,3:0:0:0:
150,222,59133,2,0,L|139:122,1,60.3750011515618,2|0,0:0|0:0,0:0:0:0:
379,189,59328,2,0,L|463:149,2,60.3750011515618,10|0|0,0:0|0:0|0:0,0:0:0:0:
293,182,59619,1,0,0:0:0:0:
209,169,59716,2,0,L|322:121,1,120.750002303124,2|0,0:0|0:0,0:0:0:0:
200,107,60105,5,2,0:0:0:0:
427,130,60202,2,0,L|432:78,1,30.1875005757809,0|0,3:0|3:0,3:0:0:0:
402,42,60299,2,0,L|318:19,1,60.3750011515618,0|0,3:0|3:0,3:0:0:0:
190,48,60591,1,0,3:0:0:0:
329,167,60785,1,0,3:0:0:0:
55,238,60882,2,0,B|5:191|5:191|64:120,1,120.750002303124,10|0,0:0|0:0,0:0:0:0:
115,143,61174,1,0,0:0:0:0:
283,113,61271,2,0,L|108:115,1,120.750002303124,2|2,0:0|0:0,0:0:0:0:
443,308,61659,6,0,L|430:180,1,120.750002303124,2|0,3:2|0:0,0:0:0:0:
370,174,61951,1,0,0:0:0:0:
309,173,62048,1,0,0:0:0:0:
185,126,62242,2,0,L|173:52,1,60.3750011515618,0|0,3:0|3:0,3:0:0:0:
369,126,62436,2,0,L|509:125,1,120.750002303124,8|0,0:0|0:0,0:0:0:0:
298,188,62728,2,0,L|164:189,1,120.750002303124,0|0,0:0|0:0,0:0:0:0:
247,183,63019,2,0,L|327:185,1,60.3750011515618,2|0,0:0|0:0,0:0:0:0:
85,209,63214,6,0,L|77:67,1,120.750002303124,0|0,3:0|0:0,0:0:0:0:
174,78,63505,2,0,L|301:76,1,120.750002303124,0|0,3:0|3:0,0:0:0:0:
293,132,63748,1,0,3:0:0:0:
265,130,63797,1,0,3:0:0:0:
196,111,63894,1,0,3:0:0:0:
447,97,63991,2,0,P|298:76|278:76,1,120.750002303124,8|0,0:0|3:0,0:0:0:0:
136,270,64282,1,8,0:0:0:0:
92,171,64379,2,0,L|162:174,1,60.3750011515618,0|0,0:0|3:0,0:0:0:0:
455,356,64574,1,10,0:0:0:0:
288,356,64671,1,10,0:0:0:0:
120,355,64768,6,0,P|39:300|120:197,1,252,10|0,0:0|0:0,0:0:0:0:
164,55,65416,1,0,0:0:0:0:
227,54,65481,1,0,0:0:0:0:
289,53,65545,2,0,L|428:58,1,105
334,92,65837,1,0,0:0:0:0:
280,153,65934,2,0,L|161:149,2,105
153,271,66517,5,2,0:0:0:0:
287,246,66711,1,2,0:0:0:0:
244,243,66776,1,0,0:0:0:0:
201,242,66841,1,0,0:0:0:0:
158,240,66905,1,0,0:0:0:0:
310,218,67100,2,0,L|318:104,1,84,2|0,0:0|0:0,0:0:0:0:
118,178,67488,2,0,L|107:79,1,84,2|0,0:0|0:0,0:0:0:0:
455,270,67877,5,2,0:0:0:0:
464,247,67925,1,2,0:0:0:0:
471,232,67974,2,0,P|471:175|463:89,1,126
321,63,68460,2,0,L|377:61,1,42,0|0,0:0|0:0,0:0:0:0:
169,297,68654,1,10,0:0:0:0:
152,278,68703,1,2,0:0:0:0:
144,251,68751,2,0,P|134:205|166:102,1,140
202,97,69140,1,0,0:0:0:0:
443,78,69237,2,0,L|485:79,1,42,2|0,0:0|0:0,0:0:0:0:
240,272,69431,6,0,L|106:270,2,105,0|0|0,0:0|0:0|0:0,0:0:0:0:
101,192,70014,2,0,L|228:191,2,105,2|0|0,0:0|0:0|0:0,0:0:0:0:
206,242,70597,2,0,L|223:165,1,52.5
100,227,70791,2,0,L|78:284,1,52.5
263,79,70986,6,0,P|362:123|338:363,1,362.250006909371,10|0,0:0|0:0,0:0:0:0:
305,349,71633,1,0,0:0:0:0:
236,349,71698,1,0,0:0:0:0:
178,273,71763,2,0,L|350:268,1,120.750002303124,2|0,0:0|0:0,0:0:0:0:
365,265,72054,1,0,0:0:0:0:
440,229,72151,6,0,L|307:218,2,120.750002303124
259,194,72734,1,2,0:0:0:0:
392,222,72929,1,2,0:0:0:0:
423,182,72993,1,2,0:0:0:0:
427,146,73058,1,0,0:0:0:0:
394,114,73123,1,0,0:0:0:0:
240,272,73317,2,0,L|226:142,1,120.750002303124,2|0,0:0|0:0,0:0:0:0:
432,145,73706,2,0,P|446:84|432:15,1,120.750002303124,2|0,0:0|0:0,0:0:0:0:
144,264,74094,5,2,0:0:0:0:
123,245,74143,1,2,0:0:0:0:
108,223,74192,2,0,P|99:160|98:136,1,60.3750011515618
260,93,74483,2,0,L|116:79,1,120.750002303124
222,162,74775,1,0,0:0:0:0:
415,215,74872,1,2,0:0:0:0:
436,196,74920,1,2,0:0:0:0:
451,174,74969,2,0,P|468:101|466:89,1,60.3750011515618
201,227,75260,2,0,P|174:140|172:96,1,120.750002303124,0|2,0:0|0:0,0:0:0:0:
270,92,75552,1,0,0:0:0:0:
75,210,75649,6,0,L|-3:212,1,60.3750011515618,2|0,3:2|3:0,3:0:0:0:
84,277,75843,2,0,L|162:276,1,60.3750011515618,0|0,3:0|3:0,3:0:0:0:
379,192,76037,2,0,L|471:193,1,60.3750011515618,0|0,3:0|3:0,3:0:0:0:
362,129,76232,2,0,L|269:128,1,60.3750011515618,0|0,3:0|3:0,3:0:0:0:
92,158,76426,6,0,L|164:157,1,60.3750011515618,2|0,3:2|3:0,3:0:0:0:
431,159,76620,2,0,L|359:158,1,60.3750011515618,0|0,3:0|3:0,3:0:0:0:
60,193,76815,2,0,L|132:192,1,60.3750011515618,0|0,3:0|3:0,3:0:0:0:
469,199,77009,2,0,L|397:198,1,60.3750011515618,0|0,3:0|3:0,3:0:0:0:
167,255,77203,5,2,3:2:0:0:
256,192,77300,12,0,78758,3:0:0:0:
212,185,79146,6,0,L|411:187,1,181.125003454685,2|0,0:2|0:2,0:2:0:0:
233,272,79535,1,2,0:2:0:0:
59,262,79632,2,0,P|56:188|68:105,1,120.750002303124,2|0,0:0|0:0,0:0:0:0:
280,68,79924,2,0,L|219:68,1,60.3750011515618,6|0,0:2|0:2,0:2:0:0:
416,92,80118,2,0,L|482:93,1,60.3750011515618,2|0,0:2|0:2,0:2:0:0:
112,218,80312,6,0,L|214:216,1,68.2499968757631,4|0,3:2|0:2,0:2:0:0:
257,152,80506,2,0,L|188:151,1,68.2499968757631,0|0,0:2|0:2,0:2:0:0:
409,88,80701,2,0,L|340:88,1,68.2499968757631,10|0,0:2|0:2,0:2:0:0:
123,79,80895,2,0,L|191:77,1,68.2499968757631,2|0,0:2|3:2,0:2:0:0:
401,145,81089,6,0,L|487:147,2,68.2499968757631,0|0|0,0:2|0:2|3:2,0:2:0:0:
219,208,81381,2,0,L|216:114,1,68.2499968757631,0|10,0:0|0:0,0:0:0:0:
292,98,81575,1,0,0:2:0:0:
130,190,81672,2,0,L|47:188,1,68.2499968757631,2|0,0:2|0:2,0:2:0:0:
341,172,81867,6,0,L|413:168,2,68.2499968757631,0|0|0,3:2|0:2|0:2,0:2:0:0:
163,185,82158,2,0,L|90:187,1,68.2499968757631,2|8,0:2|0:2,0:2:0:0:
462,125,82352,2,0,L|390:164,2,68.2499968757631,2|0|0,0:2|0:2|3:2,0:2:0:0:
287,259,82644,6,0,L|194:259,1,78.7500030040742,2|0,0:2|0:2,0:2:0:0:
16,249,82838,2,0,L|133:248,1,78.7500030040742,2|0,3:2|0:2,0:2:0:0:
254,204,83032,2,0,L|355:205,1,78.7500030040742,10|0,0:2|0:2,0:2:0:0:
496,136,83227,2,0,L|392:135,1,78.7500030040742,2|0,0:2|0:2,0:2:0:0:
132,312,83421,6,0,P|83:210|103:154,1,136.499993751526,0|0,3:2|0:2,0:2:0:0:
266,182,83680,1,2,0:2:0:0:
342,181,83745,1,2,0:2:0:0:
423,181,83810,1,10,0:2:0:0:
46,191,84004,1,2,0:2:0:0:
135,191,84101,1,0,3:2:0:0:
359,201,84198,6,0,P|408:141|390:57,1,136.499993751526,0|0,0:2|3:2,0:2:0:0:
341,64,84490,1,0,0:2:0:0:
230,84,84587,2,0,L|314:83,1,68.2499968757631,10|0,0:2|0:2,0:2:0:0:
195,182,84781,2,0,L|123:183,1,68.2499968757631,2|0,0:2|0:2,0:2:0:0:
408,180,84975,5,2,3:2:0:0:
301,67,85170,2,0,L|307:113,2,45.4999979171754,2|2|2,0:2|0:2|0:2,0:2:0:0:
57,139,85364,1,10,0:2:0:0:
173,191,85558,2,0,L|166:259,1,68.2499968757631,2|2,0:2|0:2,0:2:0:0:
447,173,85753,6,0,L|472:84,1,68.2499968757631,2|0,0:2|3:2,0:2:0:0:
277,114,85947,2,0,L|253:22,1,68.2499968757631,2|0,0:2|3:2,0:2:0:0:
46,162,86141,2,0,L|72:69,1,68.2499968757631,10|0,0:2|3:2,0:2:0:0:
248,187,86335,2,0,L|149:167,1,68.2499968757631,2|0,0:2|0:2,0:2:0:0:
487,153,86530,6,0,L|404:154,1,68.2499968757631,4|0,3:2|0:2,0:2:0:0:
350,154,86724,2,0,L|443:153,1,68.2499968757631
205,289,86918,2,0,L|134:238,1,68.2499968757631,10|0,0:2|0:2,0:2:0:0:
361,107,87113,2,0,L|269:107,1,68.2499968757631,2|0,0:2|3:2,0:2:0:0:
76,121,87307,6,0,L|13:78,2,68.2499968757631,0|0|0,0:2|0:2|3:2,0:2:0:0:
264,98,87598,2,0,L|153:100,2,68.2499968757631,2|8|0,0:2|0:2|0:2,0:2:0:0:
440,212,87890,2,0,L|495:146,1,68.2499968757631,2|0,0:2|0:2,0:2:0:0:
230,171,88084,6,0,L|135:172,1,68.2499968757631,0|0,3:2|0:2,0:2:0:0:
264,98,88278,2,0,L|359:99,1,68.2499968757631,0|0,0:2|0:2,0:2:0:0:
162,62,88473,2,0,L|93:62,1,68.2499968757631,10|0,0:2|0:2,0:2:0:0:
314,193,88667,2,0,L|205:194,1,68.2499968757631,2|0,0:2|3:2,0:2:0:0:
486,226,88861,6,0,L|487:145,1,68.2499968757631,2|0,0:2|0:2,0:2:0:0:
252,125,89056,2,0,L|339:121,1,68.2499968757631,2|0,3:2|0:2,0:2:0:0:
126,296,89250,2,0,L|228:262,1,68.2499968757631,10|0,0:2|0:2,0:2:0:0:
403,333,89444,1,0,0:2:0:0:
221,332,89541,1,2,0:2:0:0:
31,231,89639,6,0,P|14:155|77:92,1,136.499993751526,0|0,3:2|0:2,0:2:0:0:
96,84,89930,1,0,0:2:0:0:
333,233,90027,1,8,0:2:0:0:
197,219,90221,2,0,L|179:122,1,68.2499968757631,0|0,0:2|3:2,0:2:0:0:
406,122,90416,6,0,L|306:109,2,68.2499968757631,2|0|0,0:2|0:2|3:2,0:2:0:0:
483,131,90707,1,0,0:2:0:0:
142,139,90804,2,0,L|229:125,2,68.2499968757631,10|0|0,0:2|0:2|0:2,0:2:0:0:
68,146,91096,1,0,0:2:0:0:
455,232,91193,5,2,3:2:0:0:
371,231,91290,2,0,L|232:231,1,136.499993751526,8|0,0:2|0:2,0:2:0:0:
466,95,91582,1,10,0:2:0:0:
366,102,91776,2,0,L|498:104,1,68.2499968757631,0|0,3:2|3:2,3:2:0:0:
180,294,91970,5,10,0:2:0:0:
121,262,92067,1,0,3:2:0:0:
104,198,92164,1,0,3:2:0:0:
297,150,92262,1,10,0:2:0:0:
109,138,92359,2,0,L|29:80,1,68.2499968757631,0|0,3:2|3:2,3:2:0:0:
300,49,92553,2,0,L|399:46,1,68.2499968757631,8|8,0:2|0:2,0:2:0:0:
95,252,92747,6,0,L|-18:254,1,68.2499968757631,4|0,3:2|0:2,0:2:0:0:
126,192,92942,2,0,L|218:193,1,68.2499968757631,0|0,0:2|0:2,0:2:0:0:
378,128,93136,2,0,L|282:128,1,68.2499968757631,10|0,0:2|0:2,0:2:0:0:
493,48,93330,2,0,L|380:45,1,68.2499968757631,2|0,0:2|3:2,0:2:0:0:
188,153,93525,6,0,L|90:156,2,68.2499968757631,0|0|0,0:2|0:2|3:2,0:2:0:0:
285,149,93816,1,0,0:2:0:0:
77,290,93913,2,0,L|69:211,1,68.2499968757631,10|0,0:2|0:2,0:2:0:0:
331,219,94107,2,0,L|426:216,1,68.2499968757631,2|0,0:2|0:2,0:2:0:0:
183,130,94302,6,0,L|284:128,1,68.2499968757631,0|0,3:2|0:2,0:2:0:0:
334,124,94496,1,0,0:2:0:0:
97,200,94593,2,0,L|183:149,2,68.2499968757631,0|8|0,0:0|0:0|0:0,0:0:0:0:
405,209,94885,2,0,L|302:209,1,68.2499968757631,2|0,0:2|3:2,0:2:0:0:
72,250,95079,6,0,L|13:172,1,68.2499968757631,2|0,0:2|0:2,0:2:0:0:
213,172,95273,2,0,L|289:173,1,68.2499968757631,2|0,3:2|0:2,0:2:0:0:
463,155,95468,2,0,L|377:155,1,68.2499968757631,10|0,0:2|0:2,0:2:0:0:
213,172,95662,2,0,L|306:170,1,68.2499968757631,2|0,0:2|0:2,0:2:0:0:
63,246,95856,6,0,P|57:161|148:130,1,136.499993751526,2|0,3:2|0:2,0:2:0:0:
256,104,96115,1,2,0:2:0:0:
235,106,96180,1,2,0:2:0:0:
184,104,96245,1,10,0:2:0:0:
485,115,96439,1,2,0:2:0:0:
411,117,96536,1,0,3:2:0:0:
170,282,96633,6,0,L|25:280,1,136.499993751526,0|0,0:2|3:2,0:2:0:0:
121,248,96925,1,0,0:2:0:0:
228,238,97022,2,0,L|311:240,1,68.2499968757631,10|0,0:2|0:2,0:2:0:0:
203,139,97216,2,0,L|271:140,1,68.2499968757631,2|0,0:2|0:2,0:2:0:0:
486,113,97411,5,2,3:2:0:0:
391,227,97605,1,2,0:2:0:0:
384,215,97670,1,2,0:2:0:0:
377,202,97734,1,2,0:2:0:0:
171,245,97799,1,10,0:2:0:0:
305,204,97993,2,0,L|308:113,1,68.2499968757631,0|0,0:2|3:2,0:2:0:0:
66,119,98188,6,0,L|165:120,1,68.2499968757631,2|0,0:2|3:2,0:2:0:0:
312,84,98382,2,0,L|186:87,1,68.2499968757631,2|0,0:2|3:2,0:2:0:0:
480,200,98576,1,10,0:2:0:0:
404,198,98674,1,0,0:2:0:0:
313,119,98771,1,2,0:2:0:0:
388,119,98868,1,0,0:2:0:0:
201,258,98965,6,0,B|94:252|4:242|85:115,1,241.500004606247,2|8,3:2|0:2,0:2:0:0:
211,78,99548,2,0,L|323:75,1,60.3750011515618,0|0,0:2|3:2,0:2:0:0:
331,77,99742,2,0,L|165:78,2,120.750002303124,0|0|8,0:2|3:2|0:2,0:2:0:0:
225,258,100325,1,0,0:2:0:0:
421,264,100519,6,0,P|492:215|389:127,1,241.500004606247,2|8,3:2|0:2,0:2:0:0:
254,209,101102,2,0,L|243:120,1,60.3750011515618,0|0,0:0|3:0,0:0:0:0:
357,120,101297,1,0,0:0:0:0:
206,139,101491,2,0,L|209:58,1,60.3750011515618,0|0,3:0|0:0,0:0:0:0:
126,60,101685,1,8,0:0:0:0:
273,243,101879,2,0,L|324:198,1,60.3750011515618
492,156,102074,6,0,L|501:72,1,60.3750011515618,0|0,3:0|0:0,0:0:0:0:
344,126,102268,2,0,L|301:66,1,60.3750011515618,0|0,3:0|0:0,0:0:0:0:
155,102,102462,2,0,L|197:23,1,60.3750011515618,0|0,3:0|0:0,0:0:0:0:
357,132,102657,2,0,L|385:63,1,60.3750011515618,0|0,3:0|0:0,0:0:0:0:
179,340,102851,6,0,L|85:341,1,60.3750011515618,0|0,3:0|3:0,3:0:0:0:
373,229,103045,2,0,L|464:228,1,60.3750011515618,0|0,3:0|3:0,3:0:0:0:
116,269,103240,2,0,L|38:269,1,60.3750011515618,0|0,3:0|3:0,3:0:0:0:
442,168,103434,2,0,L|497:168,2,30.1875005757809,0|0|0,3:0|3:0|3:0,3:0:0:0:
409,171,103580,1,0,3:0:0:0:
181,342,103628,6,0,B|96:344|87:306|81:222|81:222|156:194|156:194|78:135|78:135|139:70|179:60,1,483.000009212494,0|0,3:0|0:0,0:0:0:0:
306,222,104600,2,0,L|323:168,3,30.1875005757809,0|0|0|0,3:0|0:0|0:0|0:0,0:0:0:0:
456,254,104794,2,0,P|476:183|420:192,1,120.750002303124,8|0,0:0|3:0,0:0:0:0:
370,125,105085,1,8,0:0:0:0:
145,92,105183,6,0,L|441:93,1,252,4|0,3:2|0:2,0:2:0:0:
151,265,105571,2,0,L|138:182,1,56,2|0,0:2|0:2,0:2:0:0:
286,198,105701,2,0,L|367:198,1,56,2|0,0:2|0:2,0:2:0:0:
489,185,105830,2,0,L|464:124,1,56,2|0,0:2|0:2,0:2:0:0:
282,146,105960,5,8,3:2:0:0:
394,251,106154,2,0,L|390:176,1,56,2|0,0:2|0:2,0:2:0:0:
238,269,106284,2,0,L|177:267,1,56,2|0,0:2|0:2,0:2:0:0:
17,250,106446,2,0,L|79:153,1,84,2|0,0:2|0:2,0:2:0:0:
381,175,106640,1,0,3:2:0:0:
132,219,106737,6,0,P|81:88|158:72,1,252,0|0,3:2|0:2,0:2:0:0:
424,103,107126,2,0,L|441:31,2,56,2|0|0,0:2|0:2|0:2,0:2:0:0:
251,159,107320,2,0,L|325:71,1,84,0|0,0:0|3:0,0:0:0:0:
350,125,107466,1,0,3:0:0:0:
125,215,107514,6,0,L|-14:208,1,84,10|0,0:2|0:2,0:2:0:0:
60,182,107708,1,0,0:0:0:0:
80,144,107757,1,0,0:0:0:0:
71,102,107806,1,0,0:0:0:0:
39,74,107854,1,0,0:0:0:0:
11,152,107903,2,0,L|2:89,3,42,2|0|0|0,0:3|0:3|0:3|0:3,0:3:0:0:
311,282,108097,6,0,P|401:233|297:72,1,336,4|0,3:2|3:2,0:2:0:0:
224,79,108583,1,0,0:2:0:0:
393,112,108680,2,0,L|477:112,1,84,2|0,0:3|3:2,0:2:0:0:
248,268,108874,1,2,0:3:0:0:
243,233,108923,1,0,0:3:0:0:
237,201,108971,2,0,L|226:142,1,42,0|0,3:2|3:2,0:2:0:0:
36,177,109069,6,0,P|35:83|53:57,1,84,8|0,0:2|0:2,0:2:0:0:
250,145,109263,2,0,L|282:104,2,42,2|2|2,0:3|0:3|0:3,0:2:0:0:
434,207,109457,2,0,P|477:172|502:127,1,84,2|0,0:3|0:3,0:2:0:0:
467,102,109603,1,2,0:3:0:0:
216,101,109651,1,2,0:3:0:0:
136,67,109749,1,0,3:2:0:0:
446,238,109846,6,0,P|483:162|439:75,1,168,0|0,3:2|0:2,0:2:0:0:
369,72,110137,1,0,3:2:0:0:
276,295,110234,2,0,P|250:243|318:165,1,168,0|0,0:2|3:2,0:2:0:0:
363,171,110526,2,0,L|326:132,1,42,0|0,3:2|3:2,3:2:0:0:
89,188,110623,6,0,L|-8:161,1,84,8|0,0:2|0:2,0:2:0:0:
95,105,110817,1,0,0:2:0:0:
278,57,110914,2,0,L|182:22,1,84,8|0,0:2|0:2,0:2:0:0:
413,175,111109,2,0,L|472:104,2,84,0|0|0,3:2|0:2|0:2,0:2:0:0:
337,263,111400,1,2,3:3:0:0:
326,209,111497,1,2,0:3:0:0:
376,136,111594,1,2,0:3:0:0:
359,135,111659,1,2,0:3:0:0:
376,136,111724,1,2,0:3:0:0:
128,314,111789,6,0,P|280:233|306:139,1,252,4|0,3:2|3:2,0:2:0:0:
284,163,112129,1,0,3:2:0:0:
74,238,112177,2,0,P|67:177|62:137,1,84,8|0,0:2|0:2,0:2:0:0:
260,224,112372,2,0,L|265:167,1,56,2|0,0:2|0:2,0:2:0:0:
480,134,112501,2,0,L|466:60,1,56,2|0,0:2|0:2,0:2:0:0:
301,107,112663,2,0,L|153:105,1,84,2|0,0:0|0:0,0:0:0:0:
46,50,112857,1,0,3:0:0:0:
341,313,112955,6,0,P|432:230|344:191,1,252,0|0,3:2|3:2,0:2:0:0:
148,156,113343,2,0,L|137:65,1,56,2|0,0:2|0:2,0:2:0:0:
302,102,113473,2,0,L|293:34,1,56,2|0,0:2|3:2,0:2:0:0:
120,287,113635,1,0,3:2:0:0:
335,232,113732,1,8,0:0:0:0:
61,230,113926,1,8,0:2:0:0:
193,315,114120,6,0,P|228:216|122:279,1,294,0|0,3:2|0:2,0:2:0:0:
460,232,114509,6,0,L|468:52,1,168,4|0,3:2|0:2,0:2:0:0:
34,232,114800,2,0,L|28:99,1,84,12|0,3:2|0:2,0:2:0:0:
285,121,114995,1,8,0:2:0:0:
71,169,115092,2,0,L|41:62,1,84,8|0,0:2|0:2,0:2:0:0:
348,65,115286,6,0,L|239:67,1,84,4|0,3:2|0:2,0:2:0:0:
183,68,115481,1,0,0:2:0:0:
491,275,115578,2,0,L|495:165,1,84,4|0,3:2|0:2,0:2:0:0:
208,169,115772,1,8,0:2:0:0:
287,168,115869,2,0,L|386:170,1,84,8|0,0:2|0:2,0:2:0:0:
41,258,116063,6,0,P|28:209|23:62,1,168,4|0,3:2|0:2,0:2:0:0:
238,86,116355,1,8,0:2:0:0:
451,85,116452,1,8,0:2:0:0:
69,53,116646,1,4,0:2:0:0:
256,192,116743,12,0,119949,0:0:0:0:
