osu file format v14

[General]
AudioFilename: 04. Towards the Horizon.mp3
AudioLeadIn: 0
PreviewTime: 79146
Countdown: 0
SampleSet: Soft
StackLeniency: 0.7
Mode: 2
LetterboxInBreaks: 0
WidescreenStoryboard: 0

[Editor]
DistanceSpacing: 1.7
BeatDivisor: 2
GridSize: 4
TimelineZoom: 1.2

[Metadata]
Title:Towards The Horizon
TitleUnicode:Towards The Horizon
Artist:Camellia
ArtistUnicode:かめりあ
Creator:Sinnoh
Version:Cup
Source:REFLEC BEAT 悠久のリフレシア
Tags:The Reflesia of Eternity 6th KONAMI Arcade Championship kac BEMANI Illusiya イルシヤ
BeatmapID:1383646
BeatmapSetID:629384

[Difficulty]
HPDrainRate:3
CircleSize:2
OverallDifficulty:6
ApproachRate:6
SliderMultiplier:1.2
SliderTickRate:1

[Events]
//Background and Video events
0,0,"audio.jpg",0,0
//Break Periods
2,64976,69936
2,71194,73044
//Storyboard Layer 0 (Background)
//Storyboard Layer 1 (Fail)
//Storyboard Layer 2 (Pass)
//Storyboard Layer 3 (Foreground)
//Storyboard Sound Samples

[TimingPoints]
1038,388.60103626943,4,2,2,60,1,0
15027,-100,4,2,1,60,0,0
27462,-100,4,2,1,80,0,1
36789,-100,4,2,1,70,0,0
39898,-100,4,2,1,80,0,1
52333,-100,4,2,1,60,0,0
64768,-100,4,2,2,60,0,0
75649,-100,4,2,1,40,0,0
76426,-100,4,2,1,60,0,0
77203,-100,4,2,1,70,0,0
79924,-100,4,2,1,20,0,0
80312,-100,4,2,1,80,0,1
98965,-100,4,2,1,60,0,0
102074,-100,4,2,1,40,0,0
102851,-100,4,2,1,60,0,0
103628,-100,4,2,1,40,0,0
105183,-100,4,2,1,80,0,1
111400,-100,4,2,1,60,0,0
111789,-100,4,2,1,90,0,1
111983,-100,4,2,1,80,0,1
114120,-100,4,2,1,80,0,0
114509,-100,4,2,1,60,0,1
116646,-100,4,2,1,100,0,0
116743,-100,4,2,1,50,0,0
118201,-100,4,2,1,38,0,0
118784,-100,4,2,1,26,0,0
119172,-100,4,2,1,14,0,0
119561,-100,4,2,1,5,0,0

[Colours]
Combo1 : 192,192,192
Combo2 : 255,89,89
Combo3 : 87,87,255
Combo4 : 0,198,99

[HitObjects]
69,176,1038,5,2,0:0:0:0:
332,327,2592,6,0,P|403:246|327:168,1,240,2|10,0:0|0:0,0:0:0:0:
194,150,3758,1,0,0:0:0:0:
60,133,4146,2,0,L|298:70,1,240,2|2,0:0|0:0,0:0:0:0:
441,39,5312,1,0,0:0:0:0:
244,299,5701,6,0,P|129:286|85:168,2,240,2|2|2,0:0|0:0|0:0,0:0:0:0:
478,253,8032,1,2,0:0:0:0:
240,277,8810,6,0,P|378:199|398:109,1,240,2|10,0:0|0:0,0:0:0:0:
264,109,9975,1,0,0:0:0:0:
123,245,10364,2,0,P|56:213|131:103,1,240,2|2,0:0|0:0,0:0:0:0:
363,112,11918,6,0,L|112:154,2,240,2|2|2,0:0|0:0|0:0,0:0:0:0:
105,335,14250,2,0,L|98:203,1,120,10|0,0:0|0:0,0:0:0:0:
289,214,15027,6,0,P|372:175|393:28,1,240,0|2,3:0|0:0,0:0:0:0:
288,56,16193,1,8,0:0:0:0:
139,310,16582,2,0,L|136:169,1,120,2|8,3:2|0:0,0:0:0:0:
302,185,17359,2,0,L|309:59,1,120,0|8,3:0|0:0,0:0:0:0:
135,69,18136,6,0,P|62:101|138:197,1,240,0|0,3:0|3:0,0:0:0:0:
396,227,19690,2,0,L|167:343,1,240,0|0,3:0|3:0,0:0:0:0:
463,320,21245,6,0,P|477:244|342:154,1,240,0|0,3:0|3:0,0:0:0:0:
105,158,22799,2,0,L|239:167,2,120,0|8|0,3:0|0:0|3:0,0:0:0:0:
248,226,23965,1,8,0:0:0:0:
256,192,24354,12,0,25908,3:0:0:0:
145,202,27462,6,0,L|375:120,1,240,4|2,3:2|0:0,0:0:0:0:
242,298,28628,1,10,0:0:0:0:
72,293,29017,2,0,P|92:157|198:136,1,240,0|2,3:3|0:0,0:0:0:0:
318,191,30183,1,8,0:0:0:0:
472,297,30571,6,0,L|482:150,1,120,0|8,3:0|0:0,0:0:0:0:
310,173,31348,2,0,L|304:47,1,120,2|10,0:3|0:3,0:0:0:0:
454,57,32126,2,0,L|196:55,1,240,0|0,3:0|0:0,0:0:0:0:
333,213,33291,1,8,0:0:0:0:
171,230,33680,6,0,P|102:225|174:146,1,240,4|2,3:2|0:0,0:0:0:0:
321,168,34846,1,10,0:0:0:0:
177,123,35234,2,0,L|417:112,1,240,0|2,3:0|0:0,0:0:0:0:
304,264,36400,1,8,0:0:0:0:
128,232,36789,6,0,B|140:148|140:148|346:128,2,240,0|8|0,3:0|0:0|3:0,0:0:0:0:
428,262,39120,1,10,0:0:0:0:
114,191,39898,6,0,L|373:180,1,240,4|2,3:2|0:3,0:0:0:0:
206,114,41063,1,10,0:3:0:0:
65,250,41452,2,0,P|81:134|199:115,1,240,0|0,3:0|0:0,0:0:0:0:
330,121,42618,1,8,0:0:0:0:
477,193,43006,6,0,L|335:193,1,120,0|8,3:0|0:0,0:0:0:0:
214,193,43784,2,0,L|359:191,1,120,2|10,0:3|0:3,0:0:0:0:
159,354,44561,2,0,P|82:289|167:209,1,240,0|0,3:0|0:0,0:0:0:0:
295,203,45727,1,8,0:0:0:0:
435,190,46115,6,0,L|180:185,1,240,4|2,3:2|0:3,0:0:0:0:
310,297,47281,1,10,0:3:0:0:
145,303,47670,2,0,L|18:301,2,120,0|8|0,3:0|0:0|0:0,0:0:0:0:
293,304,48835,1,8,0:0:0:0:
459,284,49224,6,0,P|441:168|324:132,1,240,0|2,3:0|0:3,0:0:0:0:
185,148,50390,1,10,0:3:0:0:
52,126,50778,2,0,L|298:124,1,240,8|0,0:0|3:0,0:0:0:0:
420,129,51944,1,8,0:0:0:0:
228,247,52333,5,4,3:2:0:0:
448,282,53110,2,0,L|215:175,2,240,10|2|10,0:0|0:0|0:0,0:0:0:0:
163,280,55442,2,0,L|396:173,2,240,2|8|0,3:2|0:0|3:0,0:0:0:0:
399,331,57773,2,0,L|405:199,1,120,8|8,0:0|0:0,0:0:0:0:
270,186,58550,1,0,0:0:0:0:
405,138,58939,1,0,3:0:0:0:
235,120,59328,6,0,P|125:153|81:283,2,240,10|2|10,0:0|0:0|0:0,0:0:0:0:
424,294,61659,2,0,B|443:233|402:174|257:184,2,240,2|8|2,3:2|0:0|3:2,0:0:0:0:
144,297,63991,2,0,L|52:267,2,90,8|8|10,0:0|0:0|0:0,0:0:0:0:
231,299,64768,1,10,0:0:0:0:
313,232,70986,5,10,0:0:0:0:
256,192,74094,12,2,77203,3:2:0:0:
280,274,79146,6,0,L|433:269,2,120,2|2|6,0:2|0:2|0:2,0:0:0:0:
99,171,80312,6,0,L|240:154,1,120,4|10,3:2|0:2,0:0:0:0:
351,126,81089,2,0,L|215:116,1,120,0|10,0:2|0:2,0:0:0:0:
79,266,81867,2,0,P|7:232|97:139,1,240,0|2,3:2|0:2,0:0:0:0:
224,156,83032,1,10,0:2:0:0:
354,236,83421,6,0,B|354:172|368:113|178:149,1,240,0|0,3:2|0:2,0:0:0:0:
28,174,84587,1,10,0:2:0:0:
174,270,84975,2,0,L|306:266,1,120,2|10,3:2|0:2,0:0:0:0:
145,273,85753,2,0,P|105:250|157:212,1,120,2|10,0:2|0:2,0:0:0:0:
314,166,86530,6,0,L|181:161,1,120,4|10,3:2|0:2,0:0:0:0:
370,112,87307,2,0,L|491:103,1,120,0|8,0:2|0:2,0:0:0:0:
286,126,88084,2,0,B|205:123|211:213|180:266|304:281,1,240,0|2,3:2|0:2,0:0:0:0:
430,273,89250,1,10,0:2:0:0:
272,297,89639,6,0,B|124:327|114:268|144:172,1,240,0|2,3:2|0:2,0:0:0:0:
281,166,90804,1,10,0:2:0:0:
434,158,91193,2,0,P|436:92|397:50,1,120,2|10,3:2|0:2,0:0:0:0:
238,62,91970,2,0,L|133:56,2,90,10|10|8,0:2|0:2|0:2,0:0:0:0:
332,81,92747,6,0,P|365:138|345:202,1,120,4|10,3:2|0:2,0:0:0:0:
187,222,93525,2,0,P|155:286|172:341,1,120,0|10,0:2|0:2,0:0:0:0:
337,336,94302,2,0,P|404:307|316:208,1,240,0|2,3:2|0:2,0:0:0:0:
193,213,95468,1,10,0:2:0:0:
42,223,95856,6,0,P|42:151|177:49,1,240,2|0,3:2|0:2,0:0:0:0:
306,58,97022,1,10,0:2:0:0:
435,195,97411,2,0,L|297:192,1,120,2|10,3:2|0:2,0:0:0:0:
184,108,98188,2,0,L|309:110,1,120,2|10,0:2|0:2,0:0:0:0:
131,330,98965,6,0,P|72:264|174:156,1,240,2|0,3:2|0:2,0:0:0:0:
284,166,100131,1,8,0:2:0:0:
424,140,100519,2,0,L|179:91,1,240,2|0,3:2|0:0,0:0:0:0:
37,175,101685,1,8,0:0:0:0:
256,192,102074,12,0,103628,3:0:0:0:
343,226,105183,6,0,L|201:217,1,120,4|2,3:2|0:2,0:0:0:0:
388,288,105960,2,0,P|461:209|362:127,1,240,8|0,3:2|3:2,0:0:0:0:
245,121,107126,1,2,0:2:0:0:
94,221,107514,6,0,B|101:172|80:147|247:153,2,180,8|4|0,0:2|3:2|0:2,0:0:0:0:
266,285,109069,2,0,P|311:284|392:282,1,120,8|2,0:2|0:3,0:0:0:0:
243,186,109846,2,0,P|171:116|267:57,1,240,0|8,3:2|0:0,0:0:0:0:
412,59,111012,2,0,L|275:59,1,120,0|2,0:2|3:3,0:0:0:0:
292,59,111789,6,0,L|412:59,1,120,4|8,3:2|0:2,0:0:0:0:
303,160,112566,1,0,0:2:0:0:
152,159,112955,2,0,P|72:198|174:257,1,240,0|8,3:2|0:2,0:0:0:0:
27,306,114120,1,0,3:2:0:0:
194,321,114509,6,0,L|207:208,1,90,4|4,3:2|3:2,0:0:0:0:
75,206,115286,2,0,L|83:107,1,90,4|4,3:2|3:2,0:0:0:0:
223,90,116063,1,4,3:2:0:0:
484,72,116646,1,4,0:2:0:0:
256,192,117035,12,0,119949,0:0:0:0:
