osu file format v14

[General]
AudioFilename: racemization.mp3
AudioLeadIn: 0
PreviewTime: 90148
Countdown: 0
SampleSet: Normal
StackLeniency: 0.7
Mode: 1
LetterboxInBreaks: 0
WidescreenStoryboard: 0

[Editor]
Bookmarks: 62819,84205,91334,110343,219650
DistanceSpacing: 0.5
BeatDivisor: 4
GridSize: 4
TimelineZoom: 2.499999

[Metadata]
Title:Racemization
TitleUnicode:Racemization
Artist:Camellia
ArtistUnicode:かめりあ
Creator:SKSalt
Version:Muzukashii
Source:
Tags:cameltek planet shaper PLANET//SHAPER drumstep -xNaCLx-
BeatmapID:999712
BeatmapSetID:389310

[Difficulty]
HPDrainRate:5
CircleSize:5
OverallDifficulty:4.5
ApproachRate:5
SliderMultiplier:1.4
SliderTickRate:1

[Events]
//Background and Video events
0,0,"316212-blackangel.jpg",0,0
//Break Periods
//Storyboard Layer 0 (Background)
//Storyboard Layer 1 (Fail)
//Storyboard Layer 2 (Pass)
//Storyboard Layer 3 (Foreground)
//Storyboard Sound Samples

[TimingPoints]
1032,297.029702970297,4,1,0,50,1,0
43804,-100,4,1,0,80,0,0
91329,-100,4,1,0,80,0,1
109744,-100,4,1,0,80,0,0
110338,-100,4,1,0,80,0,1
119843,-100,4,1,0,80,0,0
120140,-100,4,1,0,80,0,1
129348,-100,4,1,0,80,0,0
129497,-133.333333333333,4,1,0,80,0,0
157863,-125,4,1,0,80,0,0
160239,-117.647058823529,4,1,0,80,0,0
162616,-111.111111111111,4,1,0,80,0,0
163804,-105.263157894737,4,1,0,80,0,0
164992,-100,4,1,0,80,0,0
167368,-100,4,1,0,80,0,1
184893,-100,4,1,0,80,0,0
185487,-100,4,1,0,50,0,0
185635,-100,4,1,0,55,0,0
185784,-100,4,1,0,60,0,0
185932,-100,4,1,0,65,0,0
186081,-100,4,1,0,70,0,0
186230,-100,4,1,0,75,0,0
186378,-100,4,1,0,80,0,0
186824,-100,4,1,0,80,0,1
195883,-100,4,1,0,80,0,0
196031,-100,4,1,0,50,0,0
196180,-133.333333333333,4,1,0,50,0,0
205388,-100,4,1,0,80,0,0
224398,-100,4,1,0,80,0,1
238655,-100,4,1,0,80,0,0
238952,-100,4,1,0,80,0,1
242220,-100,4,1,0,80,0,0

[HitObjects]
200,160,42764,6,0,L|216:160,48,8.75
236,196,43804,5,4,0:0:0:0:
244,148,44101,1,2,0:0:0:0:
284,288,44249,1,4,0:0:0:0:
392,344,44546,1,0,0:0:0:0:
284,288,44992,1,4,0:0:0:0:
272,196,45289,1,2,0:0:0:0:
188,292,45437,1,4,0:0:0:0:
148,216,45734,1,4,0:0:0:0:
284,288,46180,1,4,0:0:0:0:
256,228,46477,1,2,0:0:0:0:
284,288,46626,1,4,0:0:0:0:
328,256,46923,1,0,0:0:0:0:
284,288,47368,1,4,0:0:0:0:
144,200,47665,1,0,0:0:0:0:
144,200,47962,1,0,0:0:0:0:
132,192,48111,1,0,0:0:0:0:
144,200,48259,1,0,0:0:0:0:
284,288,48556,1,4,0:0:0:0:
232,192,48853,1,2,0:0:0:0:
284,288,49002,1,4,0:0:0:0:
380,312,49299,1,0,0:0:0:0:
284,288,49744,1,4,0:0:0:0:
372,304,50041,1,2,0:0:0:0:
188,292,50190,1,4,0:0:0:0:
148,216,50487,1,4,0:0:0:0:
124,228,50932,1,4,0:0:0:0:
168,168,51230,1,2,0:0:0:0:
116,216,51378,1,4,0:0:0:0:
104,204,51675,1,0,0:0:0:0:
104,204,52121,1,4,0:0:0:0:
168,168,52418,1,0,0:0:0:0:
168,168,52715,1,0,0:0:0:0:
168,168,52863,1,0,0:0:0:0:
168,168,53012,1,0,0:0:0:0:
168,168,53309,5,4,0:0:0:0:
280,228,53606,1,2,0:0:0:0:
276,220,54200,1,0,0:0:0:0:
280,228,54497,1,0,0:0:0:0:
276,220,54794,1,0,0:0:0:0:
276,220,55388,1,0,0:0:0:0:
276,220,55685,1,0,0:0:0:0:
276,220,55982,1,0,0:0:0:0:
268,204,56131,1,2,0:0:0:0:
268,200,56428,1,2,0:0:0:0:
268,200,56576,1,0,0:0:0:0:
268,200,56725,1,2,0:0:0:0:
268,200,57022,1,2,0:0:0:0:
268,200,57170,1,0,0:0:0:0:
268,204,57319,1,2,0:0:0:0:
192,248,57616,1,2,0:0:0:0:
192,248,57764,1,0,0:0:0:0:
116,96,58061,1,0,0:0:0:0:
160,164,58358,1,0,0:0:0:0:
132,172,58507,1,0,0:0:0:0:
132,172,58804,1,0,0:0:0:0:
132,172,58952,1,0,0:0:0:0:
272,140,59101,1,0,0:0:0:0:
116,96,59398,1,0,0:0:0:0:
160,164,59546,1,0,0:0:0:0:
132,172,59843,1,0,0:0:0:0:
132,172,59992,1,0,0:0:0:0:
132,172,60140,1,0,0:0:0:0:
132,172,60289,1,0,0:0:0:0:
272,140,60437,1,2,0:0:0:0:
232,188,60734,1,0,0:0:0:0:
232,188,60809,1,0,0:0:0:0:
232,188,60883,1,0,0:0:0:0:
236,208,61032,1,2,0:0:0:0:
248,176,61180,1,0,0:0:0:0:
176,136,61626,1,2,0:0:0:0:
176,200,61923,1,0,0:0:0:0:
200,176,62071,1,2,0:0:0:0:
276,116,62368,1,0,0:0:0:0:
252,188,62517,1,2,0:0:0:0:
204,208,62814,5,4,0:0:0:0:
204,180,63259,1,0,0:0:0:0:
204,180,63408,1,8,0:0:0:0:
240,152,63705,1,2,0:0:0:0:
240,152,63853,1,2,0:0:0:0:
288,244,64002,1,0,0:0:0:0:
200,180,64447,1,0,0:0:0:0:
200,176,64596,1,8,0:0:0:0:
260,208,64893,1,2,0:0:0:0:
232,192,65041,1,0,0:0:0:0:
240,164,65190,1,0,0:0:0:0:
120,184,65487,1,2,0:0:0:0:
120,184,65635,1,0,0:0:0:0:
256,176,65784,1,8,0:0:0:0:
256,164,66081,1,2,0:0:0:0:
184,212,66230,1,0,0:0:0:0:
248,200,66527,1,0,0:0:0:0:
316,224,66675,1,0,0:0:0:0:
280,164,66972,1,2,0:0:0:0:
248,168,67269,1,2,0:0:0:0:
104,208,67566,1,0,0:0:0:0:
192,160,68012,1,0,0:0:0:0:
188,156,68160,1,8,0:0:0:0:
152,176,68457,1,2,0:0:0:0:
140,180,68606,1,2,0:0:0:0:
32,188,68754,1,0,0:0:0:0:
424,200,69200,1,0,0:0:0:0:
252,172,69348,1,8,0:0:0:0:
244,204,69497,1,0,0:0:0:0:
232,208,69645,1,8,0:0:0:0:
244,204,69942,1,6,0:0:0:0:
176,221,70239,1,0,0:0:0:0:
68,192,70388,1,0,0:0:0:0:
219,172,70536,1,6,0:0:0:0:
344,182,70833,1,2,0:0:0:0:
344,182,70982,1,4,0:0:0:0:
337,180,71279,1,4,0:0:0:0:
191,198,71428,1,4,0:0:0:0:
256,191,71725,1,8,0:0:0:0:
256,191,72022,1,8,0:0:0:0:
256,191,72170,1,8,0:0:0:0:
278,202,72319,1,0,0:0:0:0:
288,189,72467,1,0,0:0:0:0:
288,189,72541,1,0,0:0:0:0:
288,189,72616,1,0,0:0:0:0:
288,189,72764,1,0,0:0:0:0:
301,188,72913,1,2,0:0:0:0:
262,220,73210,1,2,0:0:0:0:
265,230,73358,1,2,0:0:0:0:
132,189,73507,1,0,0:0:0:0:
144,196,73952,1,0,0:0:0:0:
97,162,74101,1,8,0:0:0:0:
207,176,74398,1,2,0:0:0:0:
207,176,74546,1,0,0:0:0:0:
211,189,74695,1,0,0:0:0:0:
281,222,74992,1,2,0:0:0:0:
329,202,75140,1,0,0:0:0:0:
316,181,75289,1,2,0:0:0:0:
201,164,75586,1,2,0:0:0:0:
195,251,75734,1,0,0:0:0:0:
248,200,76032,1,0,0:0:0:0:
316,224,76180,1,0,0:0:0:0:
280,164,76477,1,2,0:0:0:0:
248,168,76774,1,2,0:0:0:0:
320,272,77071,1,0,0:0:0:0:
192,160,77517,1,0,0:0:0:0:
188,156,77665,1,8,0:0:0:0:
152,176,77962,1,2,0:0:0:0:
140,180,78111,1,2,0:0:0:0:
32,188,78259,1,0,0:0:0:0:
424,200,78705,1,0,0:0:0:0:
252,172,78853,1,8,0:0:0:0:
244,204,79002,1,0,0:0:0:0:
232,208,79150,1,8,0:0:0:0:
199,198,79447,1,6,0:0:0:0:
196,190,79744,1,0,0:0:0:0:
196,190,79893,1,0,0:0:0:0:
196,190,80190,1,2,0:0:0:0:
196,189,80487,1,0,0:0:0:0:
196,189,80635,1,0,0:0:0:0:
196,185,80932,1,2,0:0:0:0:
196,178,81081,1,0,0:0:0:0:
196,178,81378,1,0,0:0:0:0:
196,177,81527,1,0,0:0:0:0:
179,179,81824,1,4,0:0:0:0:
157,239,82121,1,0,0:0:0:0:
157,239,82269,1,2,0:0:0:0:
354,173,82566,1,2,0:0:0:0:
330,167,82715,1,0,0:0:0:0:
322,164,82863,1,0,0:0:0:0:
339,168,83012,1,2,0:0:0:0:
247,167,83309,1,2,0:0:0:0:
291,188,83457,1,0,0:0:0:0:
246,121,83754,1,0,0:0:0:0:
306,173,83903,1,2,0:0:0:0:
246,121,84051,1,2,0:0:0:0:
179,179,84200,1,0,0:0:0:0:
157,239,84497,1,0,0:0:0:0:
157,239,84645,1,2,0:0:0:0:
354,173,84942,1,2,0:0:0:0:
330,167,85091,1,0,0:0:0:0:
322,164,85239,1,0,0:0:0:0:
339,168,85388,1,2,0:0:0:0:
247,167,85685,1,2,0:0:0:0:
291,188,85833,1,0,0:0:0:0:
246,121,86131,1,0,0:0:0:0:
306,173,86279,1,2,0:0:0:0:
246,121,86428,1,2,0:0:0:0:
147,202,86576,1,0,0:0:0:0:
147,202,86873,1,0,0:0:0:0:
147,202,87022,1,2,0:0:0:0:
147,202,87319,1,2,0:0:0:0:
147,202,87467,1,0,0:0:0:0:
147,202,87616,1,2,0:0:0:0:
147,202,87913,1,2,0:0:0:0:
179,131,88061,1,0,0:0:0:0:
147,202,88210,1,2,0:0:0:0:
147,202,88507,1,2,0:0:0:0:
147,202,88655,1,0,0:0:0:0:
147,164,88952,1,0,0:0:0:0:
147,164,89101,1,8,0:0:0:0:
147,164,89324,1,0,0:0:0:0:
147,164,89546,1,8,0:0:0:0:
147,164,89695,1,0,0:0:0:0:
147,164,89769,1,0,0:0:0:0:
147,164,89843,1,0,0:0:0:0:
147,164,89992,1,8,0:0:0:0:
256,192,90140,12,0,91180,0:0:0:0:
84,200,91329,5,4,0:0:0:0:
68,176,91626,1,8,0:0:0:0:
232,188,91923,1,2,0:0:0:0:
232,188,92071,1,0,0:0:0:0:
200,132,92220,1,8,0:0:0:0:
280,224,92517,1,0,0:0:0:0:
276,208,92665,1,0,0:0:0:0:
276,208,92814,1,8,0:0:0:0:
140,156,93111,1,2,0:0:0:0:
144,152,93259,1,0,0:0:0:0:
136,152,93408,1,2,0:0:0:0:
104,192,93705,1,0,0:0:0:0:
272,192,94002,1,8,0:0:0:0:
236,204,94299,1,2,0:0:0:0:
236,204,94447,1,0,0:0:0:0:
236,204,94596,1,2,0:0:0:0:
272,216,94744,1,0,0:0:0:0:
272,220,95041,1,0,0:0:0:0:
184,132,95190,1,2,0:0:0:0:
220,232,95413,1,0,0:0:0:0:
220,196,95635,1,0,0:0:0:0:
212,176,95784,1,8,0:0:0:0:
188,196,96081,1,0,0:0:0:0:
136,212,96378,1,8,0:0:0:0:
236,200,96675,1,2,0:0:0:0:
236,200,96824,1,0,0:0:0:0:
236,200,96972,1,8,0:0:0:0:
236,84,97269,1,0,0:0:0:0:
236,84,97418,1,0,0:0:0:0:
236,84,97566,1,2,0:0:0:0:
220,192,97863,1,2,0:0:0:0:
220,192,98012,1,0,0:0:0:0:
220,192,98160,1,2,0:0:0:0:
208,176,98457,1,6,0:0:0:0:
308,180,98754,1,2,0:0:0:0:
88,156,98903,1,0,0:0:0:0:
424,344,99051,1,6,0:0:0:0:
216,180,99348,1,0,0:0:0:0:
216,180,99497,1,6,0:0:0:0:
212,180,99794,1,0,0:0:0:0:
56,196,99942,1,2,0:0:0:0:
248,152,100165,1,0,0:0:0:0:
244,188,100388,1,0,0:0:0:0:
348,308,100536,1,8,0:0:0:0:
84,200,100833,5,4,0:0:0:0:
68,176,101131,1,8,0:0:0:0:
232,188,101428,1,2,0:0:0:0:
232,188,101576,1,0,0:0:0:0:
200,132,101725,1,8,0:0:0:0:
280,224,102022,1,0,0:0:0:0:
276,208,102170,1,0,0:0:0:0:
276,208,102319,1,8,0:0:0:0:
140,156,102616,1,2,0:0:0:0:
144,152,102764,1,0,0:0:0:0:
136,152,102913,1,2,0:0:0:0:
104,192,103210,1,0,0:0:0:0:
272,192,103507,1,8,0:0:0:0:
236,204,103804,1,2,0:0:0:0:
236,204,103952,1,0,0:0:0:0:
236,204,104101,1,2,0:0:0:0:
228,200,104249,1,0,0:0:0:0:
272,220,104546,5,0,0:0:0:0:
184,132,104695,1,2,0:0:0:0:
220,232,104918,1,0,0:0:0:0:
220,196,105140,1,0,0:0:0:0:
272,196,105289,1,2,0:0:0:0:
188,196,105586,1,0,0:0:0:0:
132,168,106180,1,0,0:0:0:0:
184,168,106329,1,8,0:0:0:0:
168,176,106477,1,0,0:0:0:0:
152,172,106774,1,8,0:0:0:0:
128,208,106923,1,0,0:0:0:0:
128,208,107071,1,2,0:0:0:0:
276,244,107368,1,0,0:0:0:0:
128,208,107517,1,8,0:0:0:0:
276,244,107665,1,0,0:0:0:0:
136,172,107962,1,8,0:0:0:0:
212,200,108111,1,0,0:0:0:0:
212,200,108259,1,8,0:0:0:0:
116,192,108408,1,0,0:0:0:0:
116,192,108556,1,8,0:0:0:0:
240,200,108779,1,0,0:0:0:0:
240,200,109002,1,8,0:0:0:0:
260,148,109150,1,0,0:0:0:0:
260,148,109299,1,0,0:0:0:0:
264,144,109447,1,2,0:0:0:0:
236,148,109744,1,0,0:0:0:0:
272,260,110338,1,4,0:0:0:0:
168,200,110635,1,8,0:0:0:0:
244,208,110932,1,2,0:0:0:0:
236,200,111081,1,0,0:0:0:0:
240,180,111230,1,8,0:0:0:0:
96,260,111378,1,2,0:0:0:0:
64,232,111527,1,0,0:0:0:0:
256,248,111824,1,2,0:0:0:0:
184,176,111972,1,2,0:0:0:0:
184,176,112046,1,2,0:0:0:0:
184,176,112121,1,2,0:0:0:0:
192,172,112269,1,0,0:0:0:0:
120,200,112418,1,2,0:0:0:0:
168,208,112566,1,2,0:0:0:0:
100,216,112715,1,0,0:0:0:0:
252,184,113012,1,8,0:0:0:0:
304,184,113309,1,0,0:0:0:0:
300,172,113457,1,0,0:0:0:0:
300,172,113606,1,2,0:0:0:0:
232,216,113754,1,0,0:0:0:0:
148,200,113829,1,0,0:0:0:0:
260,172,113903,1,0,0:0:0:0:
260,172,114051,1,0,0:0:0:0:
424,192,114200,1,8,0:0:0:0:
176,172,114348,1,2,0:0:0:0:
256,152,114423,1,2,0:0:0:0:
256,152,114497,1,2,0:0:0:0:
80,200,114645,1,0,0:0:0:0:
88,152,114794,1,8,0:0:0:0:
168,248,115091,1,0,0:0:0:0:
168,200,115388,1,8,0:0:0:0:
244,208,115685,1,2,0:0:0:0:
236,200,115833,1,0,0:0:0:0:
240,180,115982,1,8,0:0:0:0:
96,260,116131,1,2,0:0:0:0:
64,232,116279,1,0,0:0:0:0:
256,248,116576,1,2,0:0:0:0:
184,176,116725,1,2,0:0:0:0:
184,176,116799,1,2,0:0:0:0:
184,176,116873,1,2,0:0:0:0:
192,172,117022,1,0,0:0:0:0:
120,200,117170,1,2,0:0:0:0:
168,208,117319,1,2,0:0:0:0:
100,216,117467,1,0,0:0:0:0:
252,184,117764,1,8,0:0:0:0:
304,184,118061,1,0,0:0:0:0:
300,172,118210,1,0,0:0:0:0:
300,172,118358,1,2,0:0:0:0:
232,216,118507,1,0,0:0:0:0:
148,200,118581,1,0,0:0:0:0:
260,172,118655,1,0,0:0:0:0:
260,172,118804,1,0,0:0:0:0:
424,192,118952,1,8,0:0:0:0:
176,172,119101,1,2,0:0:0:0:
256,152,119175,1,2,0:0:0:0:
256,152,119249,1,2,0:0:0:0:
80,200,119398,1,0,0:0:0:0:
88,152,119546,1,8,0:0:0:0:
168,248,119843,1,0,0:0:0:0:
288,168,120140,1,6,0:0:0:0:
244,208,120437,1,2,0:0:0:0:
236,200,120586,1,0,0:0:0:0:
240,180,120734,1,8,0:0:0:0:
96,260,120883,1,2,0:0:0:0:
64,232,121032,1,0,0:0:0:0:
256,248,121329,1,2,0:0:0:0:
184,176,121477,1,2,0:0:0:0:
184,176,121551,1,2,0:0:0:0:
184,176,121626,1,2,0:0:0:0:
192,172,121774,1,0,0:0:0:0:
120,200,121923,1,2,0:0:0:0:
168,208,122071,1,2,0:0:0:0:
100,216,122220,1,0,0:0:0:0:
252,184,122517,1,8,0:0:0:0:
304,184,122814,1,0,0:0:0:0:
300,172,122962,1,0,0:0:0:0:
300,172,123111,1,2,0:0:0:0:
232,216,123259,1,0,0:0:0:0:
148,200,123333,1,0,0:0:0:0:
260,172,123408,1,0,0:0:0:0:
260,172,123556,1,0,0:0:0:0:
424,192,123705,1,8,0:0:0:0:
176,172,123853,1,2,0:0:0:0:
256,152,123928,1,2,0:0:0:0:
256,152,124002,1,2,0:0:0:0:
80,200,124150,1,0,0:0:0:0:
88,152,124299,1,8,0:0:0:0:
168,248,124596,1,0,0:0:0:0:
196,192,124893,1,8,0:0:0:0:
256,236,125190,1,0,0:0:0:0:
248,232,125338,1,0,0:0:0:0:
248,232,125487,1,8,0:0:0:0:
124,192,125784,1,0,0:0:0:0:
168,156,126081,1,8,0:0:0:0:
228,200,126378,1,0,0:0:0:0:
220,188,126527,1,0,0:0:0:0:
220,188,126675,1,8,0:0:0:0:
244,168,126972,1,0,0:0:0:0:
212,164,127269,1,8,0:0:0:0:
264,176,127566,1,0,0:0:0:0:
264,176,127715,1,0,0:0:0:0:
264,176,127863,1,8,0:0:0:0:
264,176,128012,1,0,0:0:0:0:
168,168,128160,1,0,0:0:0:0:
164,164,128234,1,0,0:0:0:0:
152,164,128309,1,0,0:0:0:0:
148,160,128457,1,8,0:0:0:0:
144,160,128680,1,8,0:0:0:0:
140,152,128903,1,0,0:0:0:0:
136,152,129051,1,2,0:0:0:0:
140,152,129126,1,8,0:0:0:0:
156,168,129200,1,8,0:0:0:0:
180,248,129348,1,4,0:0:0:0:
156,216,130239,1,0,0:0:0:0:
0,188,130536,1,0,0:0:0:0:
256,200,130982,1,2,0:0:0:0:
264,224,131725,1,0,0:0:0:0:
256,200,132170,1,2,0:0:0:0:
352,256,132913,1,0,0:0:0:0:
268,248,133358,1,2,0:0:0:0:
364,188,134101,1,0,0:0:0:0:
176,212,134695,1,2,0:0:0:0:
200,188,135289,1,2,0:0:0:0:
204,184,135734,1,0,0:0:0:0:
280,208,136477,1,2,0:0:0:0:
280,208,136923,1,0,0:0:0:0:
172,172,137665,1,2,0:0:0:0:
192,176,138111,1,0,0:0:0:0:
232,224,138853,1,0,0:0:0:0:
360,288,139447,1,2,0:0:0:0:
380,280,140041,1,0,0:0:0:0:
396,264,140487,1,2,0:0:0:0:
252,208,141230,1,2,0:0:0:0:
264,208,141675,1,2,0:0:0:0:
248,204,142418,1,0,0:0:0:0:
240,204,142863,1,2,0:0:0:0:
236,188,143606,1,0,0:0:0:0:
236,184,144200,1,0,0:0:0:0:
256,176,144794,1,2,0:0:0:0:
256,176,145239,1,2,0:0:0:0:
288,224,145685,1,0,0:0:0:0:
276,224,146279,1,0,0:0:0:0:
276,208,146873,1,2,0:0:0:0:
256,236,147467,1,2,0:0:0:0:
160,192,148358,1,0,0:0:0:0:
272,180,148952,1,2,0:0:0:0:
272,180,149546,1,0,0:0:0:0:
272,180,149992,1,2,0:0:0:0:
160,196,150734,1,0,0:0:0:0:
160,196,151180,1,2,0:0:0:0:
192,196,151923,1,0,0:0:0:0:
184,192,152368,1,2,0:0:0:0:
244,264,153111,1,0,0:0:0:0:
244,264,153705,1,2,0:0:0:0:
244,264,154299,1,2,0:0:0:0:
244,264,154744,1,0,0:0:0:0:
244,264,155487,1,2,0:0:0:0:
244,264,155932,1,0,0:0:0:0:
240,252,156675,1,0,0:0:0:0:
240,252,157121,1,2,0:0:0:0:
240,252,157863,1,0,0:0:0:0:
240,252,158457,1,0,0:0:0:0:
252,244,159051,1,0,0:0:0:0:
252,244,159645,1,0,0:0:0:0:
252,244,160239,1,0,0:0:0:0:
252,244,160833,1,0,0:0:0:0:
252,244,161428,1,0,0:0:0:0:
264,232,162022,1,0,0:0:0:0:
264,232,162616,1,0,0:0:0:0:
264,232,162913,1,0,0:0:0:0:
264,232,163210,1,0,0:0:0:0:
264,232,163507,1,0,0:0:0:0:
264,232,163804,1,0,0:0:0:0:
264,232,163952,1,0,0:0:0:0:
264,232,164101,1,0,0:0:0:0:
264,232,164398,1,0,0:0:0:0:
264,232,164546,1,0,0:0:0:0:
264,232,164695,1,0,0:0:0:0:
204,192,164992,1,0,0:0:0:0:
204,192,165140,1,0,0:0:0:0:
264,232,165289,1,0,0:0:0:0:
264,232,165437,1,0,0:0:0:0:
204,192,165586,1,0,0:0:0:0:
264,232,165660,1,0,0:0:0:0:
204,192,165734,1,0,0:0:0:0:
264,232,165883,1,0,0:0:0:0:
264,232,165957,1,0,0:0:0:0:
204,192,166032,1,0,0:0:0:0:
256,192,166180,12,0,167220,0:0:0:0:
316,212,167368,5,2,0:0:0:0:
312,208,167665,1,0,0:0:0:0:
312,208,167814,1,0,0:0:0:0:
288,196,167962,1,2,0:0:0:0:
208,196,168259,1,2,0:0:0:0:
196,192,168556,1,0,0:0:0:0:
196,192,168705,1,0,0:0:0:0:
208,196,168853,1,2,0:0:0:0:
208,196,169002,1,0,0:0:0:0:
196,192,169150,1,2,0:0:0:0:
212,232,169447,1,2,0:0:0:0:
200,216,169596,1,0,0:0:0:0:
324,208,170041,1,2,0:0:0:0:
324,208,170190,1,0,0:0:0:0:
316,200,170338,1,2,0:0:0:0:
208,196,170635,1,2,0:0:0:0:
196,192,170932,1,0,0:0:0:0:
208,196,171081,1,2,0:0:0:0:
196,192,171230,1,0,0:0:0:0:
208,196,171378,1,0,0:0:0:0:
352,144,171527,1,2,0:0:0:0:
276,212,171824,1,0,0:0:0:0:
288,220,172121,1,2,0:0:0:0:
288,188,172418,1,0,0:0:0:0:
288,188,172566,1,0,0:0:0:0:
288,188,172715,1,2,0:0:0:0:
248,144,173012,1,2,0:0:0:0:
244,140,173309,1,0,0:0:0:0:
244,140,173457,1,0,0:0:0:0:
240,128,173606,1,2,0:0:0:0:
240,128,173754,1,0,0:0:0:0:
248,136,173903,1,2,0:0:0:0:
56,200,174200,1,2,0:0:0:0:
56,196,174348,1,0,0:0:0:0:
128,224,174497,1,2,0:0:0:0:
212,184,174794,1,0,0:0:0:0:
200,128,174942,1,0,0:0:0:0:
212,184,175091,1,2,0:0:0:0:
208,196,175388,1,2,0:0:0:0:
196,192,175685,1,0,0:0:0:0:
208,196,175833,1,2,0:0:0:0:
196,192,175982,1,0,0:0:0:0:
208,196,176131,1,0,0:0:0:0:
352,144,176279,1,2,0:0:0:0:
216,192,176576,1,0,0:0:0:0:
316,212,176873,5,2,0:0:0:0:
312,208,177170,1,0,0:0:0:0:
312,208,177319,1,0,0:0:0:0:
288,196,177467,1,2,0:0:0:0:
208,196,177764,1,2,0:0:0:0:
196,192,178061,1,0,0:0:0:0:
196,192,178210,1,0,0:0:0:0:
208,196,178358,1,2,0:0:0:0:
208,196,178507,1,0,0:0:0:0:
196,192,178655,1,2,0:0:0:0:
212,232,178952,1,2,0:0:0:0:
200,216,179101,1,0,0:0:0:0:
324,208,179546,1,2,0:0:0:0:
324,208,179695,1,0,0:0:0:0:
316,200,179843,1,2,0:0:0:0:
208,196,180140,1,2,0:0:0:0:
196,192,180437,1,0,0:0:0:0:
208,196,180586,1,2,0:0:0:0:
196,192,180734,1,0,0:0:0:0:
208,196,180883,1,0,0:0:0:0:
352,144,181032,1,2,0:0:0:0:
276,212,181329,1,0,0:0:0:0:
288,220,181626,1,2,0:0:0:0:
288,188,181923,1,0,0:0:0:0:
288,188,182071,1,0,0:0:0:0:
288,188,182220,1,2,0:0:0:0:
248,144,182517,1,2,0:0:0:0:
244,140,182814,1,0,0:0:0:0:
244,140,182962,1,0,0:0:0:0:
240,128,183111,1,2,0:0:0:0:
240,128,183259,1,0,0:0:0:0:
248,136,183408,1,2,0:0:0:0:
248,208,183705,1,2,0:0:0:0:
248,208,183853,1,0,0:0:0:0:
272,216,184150,1,0,0:0:0:0:
212,184,184299,1,2,0:0:0:0:
212,184,184447,1,0,0:0:0:0:
212,184,184596,1,2,0:0:0:0:
384,168,184744,1,2,0:0:0:0:
264,148,184893,1,0,0:0:0:0:
280,272,185487,1,2,0:0:0:0:
280,272,185784,1,2,0:0:0:0:
280,272,185932,1,2,0:0:0:0:
280,272,186081,1,2,0:0:0:0:
156,224,186378,1,0,0:0:0:0:
248,204,186824,1,2,0:0:0:0:
260,200,187121,1,0,0:0:0:0:
248,204,187269,1,2,0:0:0:0:
260,200,187566,1,0,0:0:0:0:
248,204,187715,1,2,0:0:0:0:
260,200,188012,1,0,0:0:0:0:
248,204,188160,1,2,0:0:0:0:
260,200,188457,1,0,0:0:0:0:
176,236,188606,1,2,0:0:0:0:
164,112,188754,1,0,0:0:0:0:
248,204,189200,1,2,0:0:0:0:
260,200,189497,1,0,0:0:0:0:
248,204,189645,1,2,0:0:0:0:
260,200,189942,1,0,0:0:0:0:
248,204,190091,1,2,0:0:0:0:
260,200,190388,1,0,0:0:0:0:
248,204,190536,1,2,0:0:0:0:
260,200,190685,1,2,0:0:0:0:
260,200,190759,1,2,0:0:0:0:
260,200,190833,1,2,0:0:0:0:
108,160,190982,1,2,0:0:0:0:
164,112,191131,1,0,0:0:0:0:
248,204,191576,1,2,0:0:0:0:
260,200,191873,1,0,0:0:0:0:
248,204,192022,1,2,0:0:0:0:
260,200,192319,1,0,0:0:0:0:
248,204,192467,1,2,0:0:0:0:
260,200,192764,1,0,0:0:0:0:
248,204,192913,1,2,0:0:0:0:
260,200,193210,1,0,0:0:0:0:
108,160,193358,1,2,0:0:0:0:
164,112,193507,1,0,0:0:0:0:
248,204,193952,1,2,0:0:0:0:
260,200,194249,1,0,0:0:0:0:
248,204,194398,1,2,0:0:0:0:
260,200,194695,1,0,0:0:0:0:
248,204,194843,1,2,0:0:0:0:
260,200,195140,1,0,0:0:0:0:
248,204,195289,1,2,0:0:0:0:
260,200,195586,1,2,0:0:0:0:
232,180,195883,1,4,0:0:0:0:
256,192,196032,12,0,200635,0:0:0:0:
152,160,204348,6,0,L|160:160,48,6.56250025033952
236,196,205388,5,4,0:0:0:0:
244,148,205685,1,2,0:0:0:0:
284,288,205833,1,4,0:0:0:0:
392,344,206131,1,0,0:0:0:0:
284,288,206576,1,4,0:0:0:0:
272,196,206873,1,2,0:0:0:0:
188,292,207022,1,4,0:0:0:0:
148,216,207319,1,4,0:0:0:0:
284,288,207764,1,4,0:0:0:0:
256,228,208061,1,2,0:0:0:0:
284,288,208210,1,4,0:0:0:0:
328,256,208507,1,0,0:0:0:0:
284,288,208952,1,4,0:0:0:0:
144,200,209249,1,0,0:0:0:0:
144,200,209546,1,0,0:0:0:0:
144,200,209695,1,0,0:0:0:0:
144,200,209843,1,0,0:0:0:0:
284,288,210140,1,4,0:0:0:0:
232,192,210437,1,2,0:0:0:0:
284,288,210586,1,4,0:0:0:0:
380,312,210883,1,0,0:0:0:0:
284,288,211329,1,4,0:0:0:0:
372,304,211626,1,2,0:0:0:0:
188,292,211774,1,4,0:0:0:0:
148,216,212071,1,4,0:0:0:0:
124,228,212517,1,4,0:0:0:0:
168,168,212814,1,2,0:0:0:0:
116,216,212962,1,4,0:0:0:0:
104,204,213259,1,0,0:0:0:0:
104,204,213705,1,4,0:0:0:0:
168,168,214002,1,0,0:0:0:0:
168,168,214299,1,0,0:0:0:0:
168,168,214447,1,0,0:0:0:0:
168,168,214596,1,0,0:0:0:0:
168,168,214893,5,4,0:0:0:0:
280,228,215190,1,2,0:0:0:0:
280,228,215784,1,0,0:0:0:0:
276,220,216081,1,0,0:0:0:0:
276,220,216378,1,0,0:0:0:0:
276,220,216972,1,0,0:0:0:0:
276,220,217269,1,0,0:0:0:0:
204,128,217566,1,0,0:0:0:0:
268,204,217715,1,2,0:0:0:0:
268,200,218012,1,2,0:0:0:0:
268,200,218160,1,0,0:0:0:0:
268,200,218309,1,2,0:0:0:0:
268,200,218606,5,2,0:0:0:0:
192,248,218754,1,0,0:0:0:0:
268,204,218903,1,2,0:0:0:0:
192,248,219200,1,2,0:0:0:0:
224,196,219348,1,0,0:0:0:0:
116,96,219645,1,0,0:0:0:0:
160,164,219794,1,2,0:0:0:0:
160,164,219942,1,0,0:0:0:0:
132,172,220091,1,2,0:0:0:0:
132,172,220388,1,2,0:0:0:0:
272,140,220685,1,2,0:0:0:0:
224,140,220833,1,0,0:0:0:0:
116,96,220982,1,2,0:0:0:0:
160,164,221131,1,0,0:0:0:0:
136,168,221279,1,2,0:0:0:0:
132,172,221576,1,2,0:0:0:0:
132,172,221873,1,2,0:0:0:0:
272,140,222022,1,0,0:0:0:0:
304,208,222170,1,2,0:0:0:0:
232,188,222467,1,2,0:0:0:0:
236,208,222616,1,0,0:0:0:0:
256,176,222764,1,0,0:0:0:0:
256,176,222838,1,0,0:0:0:0:
248,176,222913,1,0,0:0:0:0:
164,216,223061,1,0,0:0:0:0:
176,136,223210,1,2,0:0:0:0:
176,200,223507,1,0,0:0:0:0:
200,176,223655,1,2,0:0:0:0:
276,116,223952,1,0,0:0:0:0:
252,188,224101,1,2,0:0:0:0:
112,160,224398,1,0,0:0:0:0:
288,220,224695,1,2,0:0:0:0:
224,220,224992,1,0,0:0:0:0:
224,220,225140,1,0,0:0:0:0:
224,220,225289,1,2,0:0:0:0:
236,212,225586,1,0,0:0:0:0:
224,200,225883,1,2,0:0:0:0:
312,216,226180,1,0,0:0:0:0:
292,200,226329,1,2,0:0:0:0:
208,152,226403,1,2,0:0:0:0:
184,192,226477,1,2,0:0:0:0:
184,192,226626,1,2,0:0:0:0:
184,192,226774,1,0,0:0:0:0:
288,220,227071,1,2,0:0:0:0:
224,220,227368,1,0,0:0:0:0:
224,220,227517,1,0,0:0:0:0:
224,220,227665,1,2,0:0:0:0:
180,168,227962,1,0,0:0:0:0:
288,220,228259,1,2,0:0:0:0:
224,220,228556,1,0,0:0:0:0:
224,220,228705,1,2,0:0:0:0:
240,64,228779,1,2,0:0:0:0:
224,220,228853,1,2,0:0:0:0:
220,232,229002,1,2,0:0:0:0:
192,232,229150,1,0,0:0:0:0:
212,184,229447,1,2,0:0:0:0:
304,204,229744,1,2,0:0:0:0:
340,272,229893,1,0,0:0:0:0:
236,216,230041,1,2,0:0:0:0:
212,236,230338,1,0,0:0:0:0:
96,148,230635,1,2,0:0:0:0:
232,228,230932,1,0,0:0:0:0:
240,220,231081,1,2,0:0:0:0:
88,236,231155,1,2,0:0:0:0:
88,236,231230,1,2,0:0:0:0:
88,236,231378,1,2,0:0:0:0:
88,236,231527,1,0,0:0:0:0:
232,164,231675,1,0,0:0:0:0:
236,204,231824,1,2,0:0:0:0:
280,232,232121,1,2,0:0:0:0:
304,244,232269,1,0,0:0:0:0:
108,176,232418,1,2,0:0:0:0:
216,192,232715,1,0,0:0:0:0:
216,192,232863,1,0,0:0:0:0:
212,204,233012,1,2,0:0:0:0:
228,212,233309,1,2,0:0:0:0:
228,200,233457,1,0,0:0:0:0:
168,244,233531,1,0,0:0:0:0:
228,200,233606,1,0,0:0:0:0:
228,192,233754,1,2,0:0:0:0:
224,188,233903,1,0,0:0:0:0:
288,220,234200,1,2,0:0:0:0:
224,220,234497,1,0,0:0:0:0:
224,220,234645,1,0,0:0:0:0:
224,220,234794,1,2,0:0:0:0:
236,212,235091,1,0,0:0:0:0:
224,200,235388,1,2,0:0:0:0:
312,216,235685,1,0,0:0:0:0:
292,200,235833,1,2,0:0:0:0:
240,180,235908,1,2,0:0:0:0:
184,192,235982,1,2,0:0:0:0:
184,192,236131,1,2,0:0:0:0:
184,192,236279,1,0,0:0:0:0:
288,220,236576,1,2,0:0:0:0:
224,220,236873,1,0,0:0:0:0:
224,220,237022,1,0,0:0:0:0:
224,220,237170,1,2,0:0:0:0:
180,168,237467,1,0,0:0:0:0:
288,220,237764,1,2,0:0:0:0:
224,220,238061,1,0,0:0:0:0:
224,220,238210,1,2,0:0:0:0:
224,220,238284,1,2,0:0:0:0:
224,220,238358,1,2,0:0:0:0:
192,232,238507,1,2,0:0:0:0:
220,232,238655,1,0,0:0:0:0:
196,172,238952,1,6,0:0:0:0:
308,204,239249,1,0,0:0:0:0:
340,272,239398,1,0,0:0:0:0:
236,216,239546,1,2,0:0:0:0:
212,236,239843,1,0,0:0:0:0:
96,148,240140,1,2,0:0:0:0:
120,176,240437,1,0,0:0:0:0:
88,236,240586,1,0,0:0:0:0:
88,236,240734,1,2,0:0:0:0:
88,236,241032,1,0,0:0:0:0:
412,108,241180,1,0,0:0:0:0:
236,204,241254,1,0,0:0:0:0:
236,204,241329,1,0,0:0:0:0:
304,244,241477,1,0,0:0:0:0:
280,232,241626,1,2,0:0:0:0:
180,172,241774,1,2,0:0:0:0:
320,208,241848,1,2,0:0:0:0:
108,176,241923,1,2,0:0:0:0:
220,264,242071,1,0,0:0:0:0:
216,192,242220,1,0,0:0:0:0:
248,172,242442,1,2,0:0:0:0:
248,172,242665,1,0,0:0:0:0:
60,188,242814,1,2,0:0:0:0:
20,172,243111,1,0,0:0:0:0:
16,168,243259,1,2,0:0:0:0:
16,168,243408,1,0,0:0:0:0:
192,184,244002,1,6,0:0:0:0:
264,160,244299,1,2,0:0:0:0:
300,164,244596,1,0,0:0:0:0:
292,160,244744,1,0,0:0:0:0:
288,148,244893,1,2,0:0:0:0:
64,176,245190,1,0,0:0:0:0:
200,192,245487,1,2,0:0:0:0:
276,192,245784,1,0,0:0:0:0:
276,192,245932,1,0,0:0:0:0:
276,192,246081,1,2,0:0:0:0:
296,288,246230,1,0,0:0:0:0:
288,264,246527,1,0,0:0:0:0:
172,216,246675,1,2,0:0:0:0:
292,236,246824,1,2,0:0:0:0:
292,236,246972,1,0,0:0:0:0:
160,152,247121,1,2,0:0:0:0:
160,144,247195,1,2,0:0:0:0:
172,156,247269,1,2,0:0:0:0:
164,156,247418,1,2,0:0:0:0:
320,288,247566,1,0,0:0:0:0:
252,200,247863,1,2,0:0:0:0:
296,264,248160,1,6,0:0:0:0:
192,168,248457,1,2,0:0:0:0:
180,184,248754,1,0,0:0:0:0:
184,188,248903,1,0,0:0:0:0:
264,160,249051,1,2,0:0:0:0:
300,164,249348,1,0,0:0:0:0:
288,148,249645,1,2,0:0:0:0:
64,176,249794,1,2,0:0:0:0:
64,176,249942,1,0,0:0:0:0:
64,176,250091,1,0,0:0:0:0:
200,192,250239,1,2,0:0:0:0:
276,192,250536,1,6,0:0:0:0:
276,192,250833,1,2,0:0:0:0:
292,272,251131,1,2,0:0:0:0:
160,172,251279,1,0,0:0:0:0:
160,172,251428,1,2,0:0:0:0:
228,216,251725,1,0,0:0:0:0:
224,208,251873,1,2,0:0:0:0:
272,144,251947,1,2,0:0:0:0:
264,144,252022,1,2,0:0:0:0:
160,204,252170,1,0,0:0:0:0:
276,196,252319,1,0,0:0:0:0:
248,232,252467,1,2,0:0:0:0:
88,176,252764,1,2,0:0:0:0:
88,160,252913,1,0,0:0:0:0:
184,280,253210,1,2,0:0:0:0:
320,264,253507,1,0,0:0:0:0:
320,244,253655,1,0,0:0:0:0:
320,244,253804,1,2,0:0:0:0:
300,164,254101,1,0,0:0:0:0:
288,148,254398,1,2,0:0:0:0:
64,176,254546,1,2,0:0:0:0:
64,176,254695,1,0,0:0:0:0:
64,176,254843,1,0,0:0:0:0:
200,192,254992,1,2,0:0:0:0:
276,192,255289,1,0,0:0:0:0:
276,192,255437,1,0,0:0:0:0:
276,192,255586,1,2,0:0:0:0:
296,288,255734,1,0,0:0:0:0:
288,264,256032,1,0,0:0:0:0:
172,216,256180,1,2,0:0:0:0:
292,236,256329,1,2,0:0:0:0:
292,236,256477,1,0,0:0:0:0:
160,152,256626,1,2,0:0:0:0:
172,156,256700,1,2,0:0:0:0:
172,156,256774,1,2,0:0:0:0:
164,156,256923,1,2,0:0:0:0:
320,288,257071,1,0,0:0:0:0:
252,200,257368,1,2,0:0:0:0:
296,264,257665,1,6,0:0:0:0:
192,168,257962,1,2,0:0:0:0:
120,280,258259,1,0,0:0:0:0:
184,188,258408,1,2,0:0:0:0:
264,160,258556,1,0,0:0:0:0:
300,164,258853,1,0,0:0:0:0:
292,160,259002,1,2,0:0:0:0:
288,148,259150,1,2,0:0:0:0:
64,176,259447,1,0,0:0:0:0:
200,192,259744,1,2,0:0:0:0:
172,188,260041,1,0,0:0:0:0:
104,224,260190,1,0,0:0:0:0:
212,224,260338,1,2,0:0:0:0:
272,192,260635,1,0,0:0:0:0:
272,192,260784,1,0,0:0:0:0:
212,224,260932,1,2,0:0:0:0:
272,192,261081,1,0,0:0:0:0:
264,236,261230,1,2,0:0:0:0:
244,224,261452,1,0,0:0:0:0:
244,224,261675,1,2,0:0:0:0:
244,224,261824,1,0,0:0:0:0:
248,256,262418,1,6,0:0:0:0:
