osu file format v14

[General]
AudioFilename: Camellia - Proluvies.mp3
AudioLeadIn: 0
PreviewTime: 81143
Countdown: 0
SampleSet: Soft
StackLeniency: 0.7
Mode: 3
LetterboxInBreaks: 0
SpecialStyle: 0
WidescreenStoryboard: 1

[Editor]
DistanceSpacing: 0.5
BeatDivisor: 4
GridSize: 8
TimelineZoom: 2.7

[Metadata]
Title:Proluvies
TitleUnicode:Proluvies
Artist:Camellia
ArtistUnicode:かめりあ
Creator:Rido
Version:7K SPECIAL
Source:REFLEC BEAT groovin'!!
Tags:Drumstep Electronic Masaya Oya 大箭マサヤ Cametek Dubstep
BeatmapID:738713
BeatmapSetID:322236

[Difficulty]
HPDrainRate:8
CircleSize:7
OverallDifficulty:8
ApproachRate:5
SliderMultiplier:1.4
SliderTickRate:1

[Events]
//Background and Video events
0,0,"bg.jpg",0,0
//Break Periods
//Storyboard Layer 0 (Background)
//Storyboard Layer 1 (Fail)
//Storyboard Layer 2 (Pass)
//Storyboard Layer 3 (Foreground)
//Storyboard Sound Samples

[TimingPoints]
4940,370.37037037037,4,2,0,30,1,0
4940,-133.333333333333,4,2,0,30,0,0
14939,-100,4,2,0,30,0,0
16791,-133.333333333333,4,2,0,30,0,0
22717,-117.647058823529,4,2,0,30,0,0
25495,-100,4,2,0,30,0,0
28643,-111.111111111111,4,2,0,30,0,0
29014,-125,4,2,0,30,0,0
29384,-142.857142857143,4,2,0,30,0,0
33829,-500,4,2,0,30,0,0
34246,-200,4,2,0,30,0,0
34292,-133.333333333333,4,2,0,30,0,0
34339,-100,4,2,0,30,0,0
34385,-66.6666666666667,4,2,0,30,0,0
34570,-100,4,2,0,30,0,0
35496,-200,4,2,0,30,0,0
36237,-100,4,2,0,30,0,0
39107,-133.333333333333,4,2,0,30,0,0
39292,-100,4,2,0,30,0,0
44940,-133.333333333333,4,2,0,30,0,0
45126,-100,4,2,0,30,0,0
47163,-50,4,2,0,30,0,0
47302,-133.333333333333,4,2,0,30,0,0
47440,-50,4,2,0,30,0,0
47579,-133.333333333333,4,2,0,30,0,0
47718,-50,4,2,0,30,0,0
47857,-133.333333333333,4,2,0,30,0,0
47996,-100,4,2,0,30,0,0
49200,-50,4,2,0,30,0,0
49292,-100,4,2,0,30,0,0
50959,-133.333333333333,4,2,0,30,0,0
51144,-100,4,2,0,30,0,0
56052,-83.3333333333333,4,2,0,30,0,0
56175,-166.666666666667,4,2,0,30,0,0
56299,-66.6666666666667,4,2,0,30,0,0
56422,-133.333333333333,4,2,0,30,0,0
56545,-83.3333333333333,4,2,0,30,0,0
56669,-166.666666666667,4,2,0,30,0,0
56792,-100,4,2,0,30,0,0
58274,740.740740740741,4,2,0,30,1,0
58274,-52.6315789473684,4,2,0,30,0,0
58458,-55.5555555555556,4,2,0,30,0,0
58644,-58.8235294117647,4,2,0,30,0,0
58829,-62.5,4,2,0,30,0,0
59014,-66.6666666666667,4,2,0,30,0,0
59199,-71.4285714285714,4,2,0,30,0,0
59385,-76.9230769230769,4,2,0,30,0,0
59570,-83.3333333333333,4,2,0,30,0,0
59755,-90.9090909090909,4,2,0,30,0,0
59940,-100,4,2,0,30,0,0
69385,-41.6666666666667,4,2,0,30,0,0
69570,-50,4,2,0,30,0,0
70125,370.37037037037,4,2,0,30,1,0
70125,-100,4,2,0,30,0,0
81976,-100,4,2,0,30,0,1
93458,-100,4,2,0,30,0,0
93828,-50,4,2,0,30,0,0
93921,-66.6666666666667,4,2,0,30,0,0
94013,-100,4,2,0,30,0,0
94106,-133.333333333333,4,2,0,30,0,0
94199,-100,4,2,0,30,0,1
99754,-100,4,2,0,30,0,0
105680,-117.647058823529,4,2,0,30,0,0
105865,-133.333333333333,4,2,0,30,0,0
109754,-100,4,2,0,30,0,0
111513,-66.6666666666667,4,2,0,30,0,0

[HitObjects]
36,192,4940,128,0,5126:0:0:0:0:
402,192,4940,1,0,0:0:0:0:
182,192,5126,128,0,5311:0:0:0:0:
475,192,5311,128,0,5496:0:0:0:0:
329,192,5496,128,0,5681:0:0:0:0:
36,192,6052,128,0,6237:0:0:0:0:
182,192,6237,128,0,6422:0:0:0:0:
402,192,6237,1,0,0:0:0:0:
475,192,6422,128,0,6607:0:0:0:0:
329,192,6607,128,0,6792:0:0:0:0:
36,192,6978,128,0,7163:0:0:0:0:
182,192,7163,128,0,7348:0:0:0:0:
402,192,7163,1,0,0:0:0:0:
475,192,7348,128,0,7533:0:0:0:0:
329,192,7533,128,0,7718:0:0:0:0:
36,192,7903,128,0,8089:0:0:0:0:
182,192,8089,128,0,8274:0:0:0:0:
402,192,8274,128,0,8459:0:0:0:0:
256,192,8459,128,0,8644:0:0:0:0:
36,192,9015,128,0,9200:0:0:0:0:
182,192,9200,128,0,9385:0:0:0:0:
475,192,9200,1,0,0:0:0:0:
402,192,9385,128,0,9570:0:0:0:0:
256,192,9570,128,0,9755:0:0:0:0:
475,192,9570,1,0,0:0:0:0:
36,192,9940,128,0,10126:0:0:0:0:
182,192,10126,128,0,10311:0:0:0:0:
475,192,10126,1,0,0:0:0:0:
402,192,10311,128,0,10496:0:0:0:0:
256,192,10496,128,0,10681:0:0:0:0:
475,192,10496,1,0,0:0:0:0:
109,192,10589,1,0,0:0:0:0:
329,192,10681,1,0,0:0:0:0:
475,192,10728,1,0,0:0:0:0:
182,192,10774,1,0,0:0:0:0:
36,192,10866,128,0,11052:0:0:0:0:
182,192,11052,128,0,11237:0:0:0:0:
475,192,11237,128,0,11422:0:0:0:0:
329,192,11422,128,0,11607:0:0:0:0:
36,192,11978,128,0,12163:0:0:0:0:
182,192,12163,128,0,12348:0:0:0:0:
402,192,12163,1,0,0:0:0:0:
475,192,12348,128,0,12533:0:0:0:0:
329,192,12533,128,0,12718:0:0:0:0:
36,192,12903,128,0,13089:0:0:0:0:
182,192,13089,128,0,13274:0:0:0:0:
402,192,13089,1,0,0:0:0:0:
475,192,13274,128,0,13459:0:0:0:0:
329,192,13459,128,0,13644:0:0:0:0:
36,192,13829,128,0,14015:0:0:0:0:
402,192,13829,1,0,0:0:0:0:
182,192,14015,128,0,14200:0:0:0:0:
329,192,14200,128,0,14385:0:0:0:0:
475,192,14385,128,0,14570:0:0:0:0:
256,192,14940,128,0,15126:0:0:0:0:
109,192,15126,1,0,0:0:0:0:
402,192,15126,1,0,0:0:0:0:
109,192,15218,1,0,0:0:0:0:
402,192,15218,1,0,0:0:0:0:
36,192,15311,1,0,0:0:0:0:
182,192,15311,1,0,0:0:0:0:
329,192,15311,1,0,0:0:0:0:
475,192,15311,1,0,0:0:0:0:
256,192,15496,128,0,15681:0:0:0:0:
109,192,15680,1,0,0:0:0:0:
402,192,15681,1,0,0:0:0:0:
36,192,15773,1,0,0:0:0:0:
475,192,15774,1,0,0:0:0:0:
256,192,15866,1,0,0:0:0:0:
182,192,15890,1,0,0:0:0:0:
109,192,15913,1,0,0:0:0:0:
36,192,15936,1,0,0:0:0:0:
475,192,15959,1,0,0:0:0:0:
402,192,15982,1,0,0:0:0:0:
329,192,16005,1,0,0:0:0:0:
256,192,16028,1,0,0:0:0:0:
182,192,16052,1,0,0:0:0:0:
109,192,16052,1,0,0:0:0:0:
475,192,16236,128,0,16328:0:0:0:0:
329,192,16328,1,0,0:0:0:0:
402,192,16328,1,0,0:0:0:0:
36,192,16328,1,0,0:0:0:0:
109,192,16421,1,0,0:0:0:0:
256,192,16421,128,0,16791:0:0:0:0:
182,192,16514,128,0,16791:0:0:0:0:
329,192,16606,128,0,16791:0:0:0:0:
36,192,16606,1,0,0:0:0:0:
475,192,16606,1,0,0:0:0:0:
109,192,16699,1,0,0:0:0:0:
475,192,16791,1,0,0:0:0:0:
402,192,16791,1,0,0:0:0:0:
36,192,16791,128,0,16977:0:0:0:0:
182,192,16977,128,0,17162:0:0:0:0:
475,192,17162,128,0,17347:0:0:0:0:
329,192,17347,128,0,17532:0:0:0:0:
36,192,17902,128,0,18088:0:0:0:0:
182,192,18088,128,0,18273:0:0:0:0:
402,192,18088,1,0,0:0:0:0:
475,192,18273,128,0,18458:0:0:0:0:
329,192,18458,128,0,18643:0:0:0:0:
36,192,18828,128,0,19014:0:0:0:0:
182,192,19014,128,0,19199:0:0:0:0:
475,192,19199,128,0,19384:0:0:0:0:
256,192,19199,1,0,0:0:0:0:
402,192,19199,1,0,0:0:0:0:
36,192,19200,1,0,0:0:0:0:
329,192,19384,128,0,19569:0:0:0:0:
182,192,19477,1,0,0:0:0:0:
109,192,19477,1,0,0:0:0:0:
256,192,19478,1,0,0:0:0:0:
36,192,19754,128,0,19939:0:0:0:0:
256,192,19754,1,0,0:0:0:0:
329,192,19755,1,0,0:0:0:0:
475,192,19755,1,0,0:0:0:0:
182,192,19939,128,0,20125:0:0:0:0:
402,192,20125,128,0,20310:0:0:0:0:
256,192,20310,128,0,20495:0:0:0:0:
36,192,20865,128,0,21051:0:0:0:0:
182,192,21051,128,0,21236:0:0:0:0:
475,192,21051,1,0,0:0:0:0:
402,192,21236,128,0,21421:0:0:0:0:
256,192,21421,128,0,21606:0:0:0:0:
475,192,21421,1,0,0:0:0:0:
36,192,21791,128,0,21977:0:0:0:0:
182,192,21977,128,0,22162:0:0:0:0:
402,192,22162,128,0,22347:0:0:0:0:
109,192,22162,1,0,0:0:0:0:
36,192,22163,1,0,0:0:0:0:
329,192,22163,1,0,0:0:0:0:
256,192,22347,128,0,22532:0:0:0:0:
475,192,22439,1,0,0:0:0:0:
182,192,22439,1,0,0:0:0:0:
109,192,22440,1,0,0:0:0:0:
36,192,22717,128,0,22902:0:0:0:0:
402,192,22717,1,0,0:0:0:0:
475,192,22718,1,0,0:0:0:0:
329,192,22718,1,0,0:0:0:0:
182,192,22902,128,0,23088:0:0:0:0:
475,192,23088,128,0,23273:0:0:0:0:
329,192,23273,128,0,23458:0:0:0:0:
36,192,23828,128,0,24014:0:0:0:0:
256,192,24014,1,0,0:0:0:0:
182,192,24014,128,0,24199:0:0:0:0:
329,192,24015,1,0,0:0:0:0:
475,192,24015,1,0,0:0:0:0:
475,192,24199,128,0,24384:0:0:0:0:
36,192,24200,1,0,0:0:0:0:
329,192,24384,128,0,24569:0:0:0:0:
109,192,24385,1,0,0:0:0:0:
182,192,24570,1,0,0:0:0:0:
256,192,24754,128,0,24939:0:0:0:0:
109,192,24755,1,0,0:0:0:0:
329,192,24939,128,0,25125:0:0:0:0:
36,192,24940,1,0,0:0:0:0:
475,192,25125,128,0,25310:0:0:0:0:
109,192,25126,1,0,0:0:0:0:
402,192,25310,128,0,25495:0:0:0:0:
182,192,25311,1,0,0:0:0:0:
109,192,25496,1,0,0:0:0:0:
329,192,25496,1,0,0:0:0:0:
475,192,25496,1,0,0:0:0:0:
36,192,25681,1,0,0:0:0:0:
109,192,25774,1,0,0:0:0:0:
182,192,25866,1,0,0:0:0:0:
109,192,25959,1,0,0:0:0:0:
36,192,26052,1,0,0:0:0:0:
109,192,26144,1,0,0:0:0:0:
182,192,26237,1,0,0:0:0:0:
329,192,26237,1,0,0:0:0:0:
475,192,26237,1,0,0:0:0:0:
109,192,26329,1,0,0:0:0:0:
36,192,26422,1,0,0:0:0:0:
109,192,26515,1,0,0:0:0:0:
182,192,26607,1,0,0:0:0:0:
109,192,26700,1,0,0:0:0:0:
36,192,26792,1,0,0:0:0:0:
109,192,26885,1,0,0:0:0:0:
182,192,26978,1,0,0:0:0:0:
329,192,26978,1,0,0:0:0:0:
475,192,26978,1,0,0:0:0:0:
109,192,27070,1,0,0:0:0:0:
36,192,27163,1,0,0:0:0:0:
182,192,27209,1,0,0:0:0:0:
329,192,27255,1,0,0:0:0:0:
109,192,27348,1,0,0:0:0:0:
256,192,27348,1,0,0:0:0:0:
402,192,27348,1,0,0:0:0:0:
329,192,27440,1,0,0:0:0:0:
182,192,27533,1,0,0:0:0:0:
402,192,27626,1,0,0:0:0:0:
109,192,27626,1,0,0:0:0:0:
256,192,27626,1,0,0:0:0:0:
182,192,27718,1,0,0:0:0:0:
329,192,27811,1,0,0:0:0:0:
36,192,27903,1,0,0:0:0:0:
109,192,27903,1,0,0:0:0:0:
402,192,27903,1,0,0:0:0:0:
475,192,27903,1,0,0:0:0:0:
182,192,28089,1,0,0:0:0:0:
256,192,28089,1,0,0:0:0:0:
329,192,28181,1,0,0:0:0:0:
36,192,28181,1,0,0:0:0:0:
402,192,28181,1,0,0:0:0:0:
475,192,28181,1,0,0:0:0:0:
109,192,28366,1,0,0:0:0:0:
182,192,28366,1,0,0:0:0:0:
256,192,28459,1,0,0:0:0:0:
36,192,28459,1,0,0:0:0:0:
402,192,28459,1,0,0:0:0:0:
475,192,28459,1,0,0:0:0:0:
182,192,28552,1,0,0:0:0:0:
329,192,28552,1,0,0:0:0:0:
109,192,28644,1,0,0:0:0:0:
402,192,28644,1,0,0:0:0:0:
182,192,28829,1,0,0:0:0:0:
182,192,29015,1,0,0:0:0:0:
475,192,29200,1,0,0:0:0:0:
475,192,29385,1,0,0:0:0:0:
402,192,29570,1,0,0:0:0:0:
36,192,29755,1,0,0:0:0:0:
182,192,29940,1,0,0:0:0:0:
402,192,30126,1,0,0:0:0:0:
256,192,30311,1,0,0:0:0:0:
256,192,30496,1,0,0:0:0:0:
109,192,30681,1,0,0:0:0:0:
36,192,30866,1,0,0:0:0:0:
182,192,31052,1,0,0:0:0:0:
402,192,31237,1,0,0:0:0:0:
329,192,31422,1,0,0:0:0:0:
475,192,31607,1,0,0:0:0:0:
182,192,31792,1,0,0:0:0:0:
256,192,31978,1,0,0:0:0:0:
402,192,32163,1,0,0:0:0:0:
329,192,32348,1,0,0:0:0:0:
36,192,32533,1,0,0:0:0:0:
182,192,32718,1,0,0:0:0:0:
256,192,32903,1,0,0:0:0:0:
109,192,33089,1,0,0:0:0:0:
402,192,33274,1,0,0:0:0:0:
36,192,33459,1,0,0:0:0:0:
256,192,33644,1,0,0:0:0:0:
109,192,33829,1,0,0:0:0:0:
329,192,33829,1,0,0:0:0:0:
475,192,33829,128,0,34570:0:0:0:0:
36,192,33829,128,0,34570:0:0:0:0:
109,192,34570,1,0,0:0:0:0:
402,192,34570,1,0,0:0:0:0:
182,192,34570,128,0,35187:0:0:0:0:
329,192,34570,128,0,35187:0:0:0:0:
256,192,34570,1,0,0:0:0:0:
256,192,34940,1,0,0:0:0:0:
475,192,35187,1,0,0:0:0:0:
36,192,35187,1,0,0:0:0:0:
182,192,35249,1,0,0:0:0:0:
329,192,35249,1,0,0:0:0:0:
109,192,35311,1,0,0:0:0:0:
475,192,35311,1,0,0:0:0:0:
402,192,35311,1,0,0:0:0:0:
36,192,35311,1,0,0:0:0:0:
182,192,35496,1,0,0:0:0:0:
329,192,35496,1,0,0:0:0:0:
109,192,36237,128,0,36422:0:0:0:0:
256,192,36237,1,0,0:0:0:0:
475,192,36237,1,0,0:0:0:0:
402,192,36422,128,0,36607:0:0:0:0:
109,192,36607,128,0,36792:0:0:0:0:
256,192,36607,1,0,0:0:0:0:
475,192,36607,1,0,0:0:0:0:
36,192,36792,1,0,0:0:0:0:
329,192,36792,1,0,0:0:0:0:
475,192,36792,1,0,0:0:0:0:
36,192,36978,1,0,0:0:0:0:
109,192,37163,128,0,37348:0:0:0:0:
402,192,37255,128,0,37440:0:0:0:0:
182,192,37348,128,0,37533:0:0:0:0:
329,192,37440,128,0,37533:0:0:0:0:
109,192,37533,1,0,0:0:0:0:
36,192,37533,1,0,0:0:0:0:
256,192,37533,128,0,38274:0:0:0:0:
182,192,37903,1,0,0:0:0:0:
402,192,38089,1,0,0:0:0:0:
475,192,38089,1,0,0:0:0:0:
475,192,38274,1,0,0:0:0:0:
109,192,38274,1,0,0:0:0:0:
36,192,38274,1,0,0:0:0:0:
109,192,38459,128,0,38644:0:0:0:0:
329,192,38459,128,0,38644:0:0:0:0:
402,192,38459,128,0,38644:0:0:0:0:
182,192,38644,1,0,0:0:0:0:
475,192,38644,1,0,0:0:0:0:
36,192,38644,1,0,0:0:0:0:
182,192,38737,1,0,0:0:0:0:
475,192,38737,1,0,0:0:0:0:
36,192,38737,1,0,0:0:0:0:
182,192,38829,1,0,0:0:0:0:
475,192,38829,1,0,0:0:0:0:
36,192,38829,1,0,0:0:0:0:
256,192,38922,1,0,0:0:0:0:
329,192,38922,1,0,0:0:0:0:
402,192,38922,128,0,39292:0:0:0:0:
109,192,39015,128,0,39292:0:0:0:0:
475,192,39200,1,0,0:0:0:0:
329,192,39292,1,0,0:0:0:0:
182,192,39292,1,0,0:0:0:0:
36,192,39385,1,0,0:0:0:0:
109,192,39478,1,0,0:0:0:0:
182,192,39570,1,0,0:0:0:0:
329,192,39570,1,0,0:0:0:0:
475,192,39663,1,0,0:0:0:0:
402,192,39755,1,0,0:0:0:0:
36,192,39755,1,0,0:0:0:0:
182,192,39755,1,0,0:0:0:0:
109,192,39848,1,0,0:0:0:0:
329,192,39848,1,0,0:0:0:0:
182,192,39940,1,0,0:0:0:0:
402,192,39940,1,0,0:0:0:0:
109,192,40218,1,0,0:0:0:0:
36,192,40218,1,0,0:0:0:0:
256,192,40311,1,0,0:0:0:0:
256,192,40403,1,0,0:0:0:0:
36,192,40496,128,0,40681:0:0:0:0:
329,192,40589,128,0,40774:0:0:0:0:
109,192,40681,128,0,40866:0:0:0:0:
402,192,40774,128,0,40959:0:0:0:0:
182,192,40866,128,0,41052:0:0:0:0:
475,192,40959,128,0,41144:0:0:0:0:
256,192,41052,128,0,41237:0:0:0:0:
36,192,41113,1,0,0:0:0:0:
402,192,41113,1,0,0:0:0:0:
109,192,41175,1,0,0:0:0:0:
329,192,41175,1,0,0:0:0:0:
182,192,41237,1,0,0:0:0:0:
475,192,41237,1,0,0:0:0:0:
402,192,41237,1,0,0:0:0:0:
109,192,41422,1,0,0:0:0:0:
36,192,41422,1,0,0:0:0:0:
329,192,41515,128,0,41607:0:0:0:0:
256,192,41607,128,0,41700:0:0:0:0:
182,192,41700,128,0,41792:0:0:0:0:
36,192,41792,128,0,41978:0:0:0:0:
475,192,41792,128,0,41978:0:0:0:0:
402,192,41792,128,0,41978:0:0:0:0:
182,192,41978,128,0,42070:0:0:0:0:
329,192,42070,128,0,42163:0:0:0:0:
475,192,42070,128,0,42163:0:0:0:0:
36,192,42163,1,0,0:0:0:0:
109,192,42163,1,0,0:0:0:0:
256,192,42163,128,0,42533:0:0:0:0:
475,192,42348,128,0,42718:0:0:0:0:
109,192,42533,1,0,0:0:0:0:
329,192,42533,128,0,42718:0:0:0:0:
36,192,42718,1,0,0:0:0:0:
182,192,42718,1,0,0:0:0:0:
402,192,42718,1,0,0:0:0:0:
182,192,42903,1,0,0:0:0:0:
36,192,43089,1,0,0:0:0:0:
256,192,43089,1,0,0:0:0:0:
402,192,43089,1,0,0:0:0:0:
475,192,43181,128,0,43274:0:0:0:0:
475,192,43366,128,0,43459:0:0:0:0:
329,192,43459,128,0,44015:0:0:0:0:
109,192,43459,1,0,0:0:0:0:
182,192,43459,1,0,0:0:0:0:
36,192,43829,1,0,0:0:0:0:
109,192,44015,1,0,0:0:0:0:
256,192,44015,1,0,0:0:0:0:
182,192,44200,1,0,0:0:0:0:
36,192,44200,1,0,0:0:0:0:
329,192,44200,1,0,0:0:0:0:
256,192,44385,128,0,44570:0:0:0:0:
402,192,44385,128,0,44570:0:0:0:0:
475,192,44385,128,0,44570:0:0:0:0:
36,192,44570,1,0,0:0:0:0:
182,192,44570,1,0,0:0:0:0:
329,192,44570,1,0,0:0:0:0:
329,192,44663,1,0,0:0:0:0:
182,192,44663,1,0,0:0:0:0:
36,192,44663,1,0,0:0:0:0:
36,192,44755,1,0,0:0:0:0:
182,192,44755,1,0,0:0:0:0:
329,192,44755,1,0,0:0:0:0:
475,192,44848,1,0,0:0:0:0:
402,192,44848,1,0,0:0:0:0:
109,192,44848,128,0,45126:0:0:0:0:
256,192,44940,128,0,45126:0:0:0:0:
36,192,45126,1,0,0:0:0:0:
329,192,45126,1,0,0:0:0:0:
475,192,45126,128,0,46422:0:0:0:0:
182,192,45218,1,0,0:0:0:0:
402,192,45218,1,0,0:0:0:0:
36,192,45311,1,0,0:0:0:0:
109,192,45403,1,0,0:0:0:0:
402,192,45496,1,0,0:0:0:0:
182,192,45496,1,0,0:0:0:0:
256,192,45589,1,0,0:0:0:0:
36,192,45681,1,0,0:0:0:0:
329,192,45681,1,0,0:0:0:0:
109,192,45681,1,0,0:0:0:0:
182,192,45774,1,0,0:0:0:0:
402,192,45774,1,0,0:0:0:0:
329,192,45866,1,0,0:0:0:0:
256,192,45866,1,0,0:0:0:0:
36,192,45959,1,0,0:0:0:0:
109,192,45959,1,0,0:0:0:0:
402,192,45959,1,0,0:0:0:0:
182,192,46052,1,0,0:0:0:0:
109,192,46144,1,0,0:0:0:0:
256,192,46144,1,0,0:0:0:0:
36,192,46237,1,0,0:0:0:0:
329,192,46237,1,0,0:0:0:0:
402,192,46237,1,0,0:0:0:0:
182,192,46329,1,0,0:0:0:0:
109,192,46422,128,0,47039:0:0:0:0:
402,192,46422,128,0,47039:0:0:0:0:
182,192,46792,1,0,0:0:0:0:
36,192,47039,1,0,0:0:0:0:
329,192,47039,1,0,0:0:0:0:
109,192,47101,1,0,0:0:0:0:
402,192,47101,1,0,0:0:0:0:
182,192,47163,1,0,0:0:0:0:
256,192,47163,128,0,47440:0:0:0:0:
475,192,47163,128,0,47464:0:0:0:0:
36,192,47440,128,0,47718:0:0:0:0:
329,192,47440,128,0,47718:0:0:0:0:
402,192,47440,1,0,0:0:0:0:
475,192,47718,128,0,47996:0:0:0:0:
182,192,47718,1,0,0:0:0:0:
256,192,47718,128,0,47996:0:0:0:0:
329,192,47996,1,0,0:0:0:0:
402,192,47996,1,0,0:0:0:0:
182,192,47996,1,0,0:0:0:0:
109,192,48089,1,0,0:0:0:0:
36,192,48089,1,0,0:0:0:0:
475,192,48274,128,0,48459:0:0:0:0:
36,192,48459,128,0,48644:0:0:0:0:
109,192,48459,1,0,0:0:0:0:
256,192,48644,1,0,0:0:0:0:
329,192,48644,1,0,0:0:0:0:
402,192,48644,1,0,0:0:0:0:
402,192,48829,1,0,0:0:0:0:
329,192,48829,1,0,0:0:0:0:
256,192,48829,1,0,0:0:0:0:
109,192,49015,1,0,0:0:0:0:
182,192,49107,1,0,0:0:0:0:
36,192,49200,1,0,0:0:0:0:
475,192,49200,1,0,0:0:0:0:
402,192,49200,1,0,0:0:0:0:
109,192,49385,128,0,49940:0:0:0:0:
329,192,49385,128,0,49940:0:0:0:0:
475,192,49755,1,0,0:0:0:0:
36,192,49940,1,0,0:0:0:0:
256,192,49940,1,0,0:0:0:0:
109,192,50126,1,0,0:0:0:0:
182,192,50126,1,0,0:0:0:0:
402,192,50126,1,0,0:0:0:0:
475,192,50311,128,0,50496:0:0:0:0:
256,192,50311,128,0,50496:0:0:0:0:
36,192,50311,128,0,50496:0:0:0:0:
109,192,50496,1,0,0:0:0:0:
329,192,50496,1,0,0:0:0:0:
402,192,50496,1,0,0:0:0:0:
402,192,50589,1,0,0:0:0:0:
329,192,50589,1,0,0:0:0:0:
109,192,50589,1,0,0:0:0:0:
402,192,50681,1,0,0:0:0:0:
329,192,50681,1,0,0:0:0:0:
109,192,50681,1,0,0:0:0:0:
256,192,50774,1,0,0:0:0:0:
182,192,50774,128,0,51144:0:0:0:0:
475,192,50774,1,0,0:0:0:0:
36,192,50866,128,0,51144:0:0:0:0:
329,192,51144,1,0,0:0:0:0:
402,192,51144,1,0,0:0:0:0:
475,192,51237,1,0,0:0:0:0:
475,192,51360,1,0,0:0:0:0:
109,192,51422,1,0,0:0:0:0:
256,192,51422,1,0,0:0:0:0:
475,192,51484,1,0,0:0:0:0:
36,192,51607,1,0,0:0:0:0:
329,192,51607,1,0,0:0:0:0:
402,192,51607,1,0,0:0:0:0:
36,192,51700,1,0,0:0:0:0:
329,192,51700,1,0,0:0:0:0:
402,192,51700,1,0,0:0:0:0:
109,192,51792,1,0,0:0:0:0:
256,192,51792,1,0,0:0:0:0:
475,192,51854,128,0,51978:0:0:0:0:
109,192,51978,128,0,52070:0:0:0:0:
182,192,52070,1,0,0:0:0:0:
329,192,52070,1,0,0:0:0:0:
36,192,52163,128,0,52348:0:0:0:0:
475,192,52255,128,0,52440:0:0:0:0:
109,192,52348,128,0,52533:0:0:0:0:
402,192,52440,128,0,52626:0:0:0:0:
182,192,52533,128,0,52718:0:0:0:0:
329,192,52626,128,0,52718:0:0:0:0:
36,192,52718,1,0,0:0:0:0:
475,192,52718,1,0,0:0:0:0:
256,192,52718,1,0,0:0:0:0:
109,192,53089,1,0,0:0:0:0:
182,192,53089,1,0,0:0:0:0:
402,192,53089,1,0,0:0:0:0:
36,192,53274,1,0,0:0:0:0:
475,192,53274,1,0,0:0:0:0:
109,192,53366,1,0,0:0:0:0:
182,192,53366,1,0,0:0:0:0:
402,192,53366,1,0,0:0:0:0:
329,192,53459,128,0,53552:0:0:0:0:
182,192,53552,128,0,53644:0:0:0:0:
36,192,53644,1,0,0:0:0:0:
109,192,53644,1,0,0:0:0:0:
256,192,53644,128,0,53922:0:0:0:0:
402,192,53644,128,0,53922:0:0:0:0:
329,192,53922,1,0,0:0:0:0:
475,192,53922,1,0,0:0:0:0:
182,192,53922,1,0,0:0:0:0:
109,192,54015,1,0,0:0:0:0:
36,192,54015,1,0,0:0:0:0:
329,192,54107,1,0,0:0:0:0:
475,192,54200,128,0,54385:0:0:0:0:
109,192,54385,1,0,0:0:0:0:
182,192,54385,1,0,0:0:0:0:
402,192,54385,128,0,54570:0:0:0:0:
36,192,54570,1,0,0:0:0:0:
256,192,54570,1,0,0:0:0:0:
475,192,54570,1,0,0:0:0:0:
36,192,54755,1,0,0:0:0:0:
329,192,54940,1,0,0:0:0:0:
182,192,54940,1,0,0:0:0:0:
256,192,55064,1,0,0:0:0:0:
256,192,55187,1,0,0:0:0:0:
109,192,55311,128,0,56052:0:0:0:0:
402,192,55311,128,0,56052:0:0:0:0:
182,192,55681,1,0,0:0:0:0:
256,192,55866,1,0,0:0:0:0:
475,192,55866,1,0,0:0:0:0:
36,192,56052,128,0,56792:0:0:0:0:
182,192,56052,1,0,0:0:0:0:
329,192,56052,1,0,0:0:0:0:
475,192,56299,128,0,56792:0:0:0:0:
402,192,56299,1,0,0:0:0:0:
182,192,56299,1,0,0:0:0:0:
109,192,56545,1,0,0:0:0:0:
256,192,56545,128,0,56792:0:0:0:0:
329,192,56545,1,0,0:0:0:0:
109,192,56792,128,0,57163:0:0:0:0:
402,192,56792,128,0,57163:0:0:0:0:
182,192,56792,1,0,0:0:0:0:
329,192,56792,1,0,0:0:0:0:
329,192,57163,128,0,57255:0:0:0:0:
256,192,57255,128,0,57348:0:0:0:0:
182,192,57348,128,0,57440:0:0:0:0:
109,192,57440,128,0,57533:0:0:0:0:
256,192,57533,128,0,57903:0:0:0:0:
475,192,57533,128,0,57903:0:0:0:0:
36,192,57533,1,0,0:0:0:0:
329,192,57533,1,0,0:0:0:0:
109,192,57903,128,0,58089:0:0:0:0:
402,192,57903,128,0,58274:0:0:0:0:
182,192,58089,128,0,58274:0:0:0:0:
329,192,58089,128,0,58274:0:0:0:0:
256,192,58274,1,0,0:0:0:0:
36,192,58274,128,0,59755:0:0:0:0:
475,192,58274,1,0,0:0:0:0:
109,192,58459,1,0,0:0:0:0:
182,192,58644,1,0,0:0:0:0:
256,192,58829,1,0,0:0:0:0:
329,192,59014,1,0,0:0:0:0:
402,192,59199,1,0,0:0:0:0:
256,192,59385,1,0,0:0:0:0:
475,192,59570,1,0,0:0:0:0:
109,192,59755,128,0,60496:0:0:0:0:
256,192,59940,1,0,0:0:0:0:
329,192,60125,1,0,0:0:0:0:
402,192,60311,1,0,0:0:0:0:
475,192,60496,128,0,61236:0:0:0:0:
36,192,60496,1,0,0:0:0:0:
256,192,60681,1,0,0:0:0:0:
182,192,60866,1,0,0:0:0:0:
329,192,61051,1,0,0:0:0:0:
36,192,61236,128,0,62718:0:0:0:0:
109,192,61422,1,0,0:0:0:0:
182,192,61607,1,0,0:0:0:0:
256,192,61792,1,0,0:0:0:0:
329,192,61977,1,0,0:0:0:0:
402,192,62162,1,0,0:0:0:0:
256,192,62348,1,0,0:0:0:0:
475,192,62533,1,0,0:0:0:0:
109,192,62718,128,0,63459:0:0:0:0:
256,192,62903,1,0,0:0:0:0:
329,192,63088,1,0,0:0:0:0:
402,192,63274,1,0,0:0:0:0:
475,192,63459,128,0,64199:0:0:0:0:
36,192,63459,1,0,0:0:0:0:
256,192,63644,1,0,0:0:0:0:
182,192,63829,1,0,0:0:0:0:
329,192,64014,1,0,0:0:0:0:
402,192,64199,128,0,65681:0:0:0:0:
36,192,64385,1,0,0:0:0:0:
109,192,64570,1,0,0:0:0:0:
182,192,64755,1,0,0:0:0:0:
256,192,64940,1,0,0:0:0:0:
329,192,65125,1,0,0:0:0:0:
182,192,65311,1,0,0:0:0:0:
475,192,65496,1,0,0:0:0:0:
36,192,65866,1,0,0:0:0:0:
475,192,66051,128,0,66422:0:0:0:0:
109,192,66051,1,0,0:0:0:0:
182,192,66236,1,0,0:0:0:0:
402,192,66422,128,0,67162:0:0:0:0:
36,192,66422,1,0,0:0:0:0:
109,192,66607,1,0,0:0:0:0:
256,192,66792,128,0,69385:0:0:0:0:
182,192,66792,1,0,0:0:0:0:
475,192,66977,1,0,0:0:0:0:
109,192,67162,128,0,68644:0:0:0:0:
36,192,69014,128,0,69385:0:0:0:0:
109,192,69385,128,0,69755:0:0:0:0:
402,192,69385,128,0,69755:0:0:0:0:
475,192,69755,128,0,69894:0:0:0:0:
329,192,69940,1,0,0:0:0:0:
182,192,70033,1,0,0:0:0:0:
36,192,70125,1,0,0:0:0:0:
109,192,70125,1,0,0:0:0:0:
256,192,70125,1,0,0:0:0:0:
402,192,70125,1,0,0:0:0:0:
475,192,70125,1,0,0:0:0:0:
182,192,70310,1,0,0:0:0:0:
329,192,70402,1,0,0:0:0:0:
109,192,70495,1,0,0:0:0:0:
402,192,70495,1,0,0:0:0:0:
36,192,70495,1,0,0:0:0:0:
256,192,70495,1,0,0:0:0:0:
182,192,70587,1,0,0:0:0:0:
402,192,70773,1,0,0:0:0:0:
329,192,70865,1,0,0:0:0:0:
256,192,70865,1,0,0:0:0:0:
109,192,70865,1,0,0:0:0:0:
475,192,70865,1,0,0:0:0:0:
182,192,70958,1,0,0:0:0:0:
329,192,71050,1,0,0:0:0:0:
36,192,71143,1,0,0:0:0:0:
109,192,71143,1,0,0:0:0:0:
402,192,71143,1,0,0:0:0:0:
475,192,71143,1,0,0:0:0:0:
182,192,71236,1,0,0:0:0:0:
109,192,71328,1,0,0:0:0:0:
256,192,71421,1,0,0:0:0:0:
36,192,71421,1,0,0:0:0:0:
475,192,71421,1,0,0:0:0:0:
329,192,71421,1,0,0:0:0:0:
402,192,71513,1,0,0:0:0:0:
109,192,71606,1,0,0:0:0:0:
182,192,71606,1,0,0:0:0:0:
475,192,71606,1,0,0:0:0:0:
36,192,71606,1,0,0:0:0:0:
329,192,71699,1,0,0:0:0:0:
182,192,71791,1,0,0:0:0:0:
402,192,71884,1,0,0:0:0:0:
36,192,71976,1,0,0:0:0:0:
109,192,71976,1,0,0:0:0:0:
256,192,71976,1,0,0:0:0:0:
475,192,71976,1,0,0:0:0:0:
329,192,72069,1,0,0:0:0:0:
402,192,72254,1,0,0:0:0:0:
182,192,72347,1,0,0:0:0:0:
109,192,72347,1,0,0:0:0:0:
329,192,72347,1,0,0:0:0:0:
475,192,72347,1,0,0:0:0:0:
36,192,72439,1,0,0:0:0:0:
256,192,72532,1,0,0:0:0:0:
182,192,72625,1,0,0:0:0:0:
109,192,72625,1,0,0:0:0:0:
402,192,72625,1,0,0:0:0:0:
475,192,72625,1,0,0:0:0:0:
36,192,72717,1,0,0:0:0:0:
256,192,72810,1,0,0:0:0:0:
36,192,72902,1,0,0:0:0:0:
182,192,72902,1,0,0:0:0:0:
329,192,72902,1,0,0:0:0:0:
475,192,72902,1,0,0:0:0:0:
402,192,72995,1,0,0:0:0:0:
36,192,73087,1,0,0:0:0:0:
109,192,73087,1,0,0:0:0:0:
475,192,73087,1,0,0:0:0:0:
182,192,73087,1,0,0:0:0:0:
256,192,73273,1,0,0:0:0:0:
329,192,73365,1,0,0:0:0:0:
109,192,73458,1,0,0:0:0:0:
475,192,73458,1,0,0:0:0:0:
402,192,73458,1,0,0:0:0:0:
182,192,73458,1,0,0:0:0:0:
36,192,73550,1,0,0:0:0:0:
182,192,73736,1,0,0:0:0:0:
109,192,73828,1,0,0:0:0:0:
329,192,73828,1,0,0:0:0:0:
402,192,73828,1,0,0:0:0:0:
475,192,73828,1,0,0:0:0:0:
256,192,73921,1,0,0:0:0:0:
475,192,74013,1,0,0:0:0:0:
36,192,74106,1,0,0:0:0:0:
182,192,74106,1,0,0:0:0:0:
329,192,74106,1,0,0:0:0:0:
109,192,74106,1,0,0:0:0:0:
402,192,74199,1,0,0:0:0:0:
36,192,74291,1,0,0:0:0:0:
256,192,74384,1,0,0:0:0:0:
182,192,74384,1,0,0:0:0:0:
329,192,74384,1,0,0:0:0:0:
402,192,74384,1,0,0:0:0:0:
109,192,74476,1,0,0:0:0:0:
329,192,74569,1,0,0:0:0:0:
475,192,74569,1,0,0:0:0:0:
182,192,74569,1,0,0:0:0:0:
36,192,74569,1,0,0:0:0:0:
402,192,74662,1,0,0:0:0:0:
182,192,74754,1,0,0:0:0:0:
256,192,74847,1,0,0:0:0:0:
36,192,74939,1,0,0:0:0:0:
109,192,74939,1,0,0:0:0:0:
329,192,74939,1,0,0:0:0:0:
402,192,74939,1,0,0:0:0:0:
182,192,75032,1,0,0:0:0:0:
256,192,75217,1,0,0:0:0:0:
329,192,75310,1,0,0:0:0:0:
36,192,75310,1,0,0:0:0:0:
402,192,75356,1,0,0:0:0:0:
109,192,75356,1,0,0:0:0:0:
475,192,75402,1,0,0:0:0:0:
182,192,75402,1,0,0:0:0:0:
36,192,75495,1,0,0:0:0:0:
329,192,75495,1,0,0:0:0:0:
475,192,75587,1,0,0:0:0:0:
182,192,75587,1,0,0:0:0:0:
36,192,75773,1,0,0:0:0:0:
109,192,75773,1,0,0:0:0:0:
256,192,75773,1,0,0:0:0:0:
402,192,75773,1,0,0:0:0:0:
475,192,75958,1,0,0:0:0:0:
36,192,75958,1,0,0:0:0:0:
182,192,75958,1,0,0:0:0:0:
329,192,75958,1,0,0:0:0:0:
36,192,76143,1,0,0:0:0:0:
475,192,76143,1,0,0:0:0:0:
256,192,76143,1,0,0:0:0:0:
402,192,76143,1,0,0:0:0:0:
182,192,76328,1,0,0:0:0:0:
329,192,76328,1,0,0:0:0:0:
402,192,76328,1,0,0:0:0:0:
109,192,76328,1,0,0:0:0:0:
109,192,76606,1,0,0:0:0:0:
182,192,76606,1,0,0:0:0:0:
402,192,76606,1,0,0:0:0:0:
329,192,76606,1,0,0:0:0:0:
109,192,76884,1,0,0:0:0:0:
36,192,76884,1,0,0:0:0:0:
329,192,76884,1,0,0:0:0:0:
475,192,76884,1,0,0:0:0:0:
109,192,77162,1,0,0:0:0:0:
475,192,77162,1,0,0:0:0:0:
402,192,77162,1,0,0:0:0:0:
256,192,77162,1,0,0:0:0:0:
109,192,77347,1,0,0:0:0:0:
182,192,77347,1,0,0:0:0:0:
329,192,77347,1,0,0:0:0:0:
36,192,77347,1,0,0:0:0:0:
36,192,77624,1,0,0:0:0:0:
182,192,77624,1,0,0:0:0:0:
329,192,77624,1,0,0:0:0:0:
402,192,77624,1,0,0:0:0:0:
109,192,77810,1,0,0:0:0:0:
402,192,77810,1,0,0:0:0:0:
475,192,77810,1,0,0:0:0:0:
182,192,77810,1,0,0:0:0:0:
36,192,77995,1,0,0:0:0:0:
329,192,77995,1,0,0:0:0:0:
475,192,77995,1,0,0:0:0:0:
256,192,77995,1,0,0:0:0:0:
402,192,78273,1,0,0:0:0:0:
475,192,78273,1,0,0:0:0:0:
109,192,78273,1,0,0:0:0:0:
182,192,78273,1,0,0:0:0:0:
109,192,78550,1,0,0:0:0:0:
329,192,78550,1,0,0:0:0:0:
402,192,78550,1,0,0:0:0:0:
36,192,78550,1,0,0:0:0:0:
36,192,78736,1,0,0:0:0:0:
182,192,78736,1,0,0:0:0:0:
329,192,78736,1,0,0:0:0:0:
475,192,78736,1,0,0:0:0:0:
182,192,78828,1,0,0:0:0:0:
36,192,78828,1,0,0:0:0:0:
329,192,78828,1,0,0:0:0:0:
475,192,78828,1,0,0:0:0:0:
109,192,79106,1,0,0:0:0:0:
256,192,79106,1,0,0:0:0:0:
402,192,79106,1,0,0:0:0:0:
36,192,79106,1,0,0:0:0:0:
329,192,79291,1,0,0:0:0:0:
182,192,79291,1,0,0:0:0:0:
475,192,79291,1,0,0:0:0:0:
109,192,79291,1,0,0:0:0:0:
182,192,79476,1,0,0:0:0:0:
256,192,79476,1,0,0:0:0:0:
36,192,79476,1,0,0:0:0:0:
402,192,79476,1,0,0:0:0:0:
256,192,79662,1,0,0:0:0:0:
329,192,79662,1,0,0:0:0:0:
475,192,79662,1,0,0:0:0:0:
109,192,79662,1,0,0:0:0:0:
36,192,79847,1,0,0:0:0:0:
109,192,79847,1,0,0:0:0:0:
402,192,79939,1,0,0:0:0:0:
475,192,79939,1,0,0:0:0:0:
182,192,80032,1,0,0:0:0:0:
109,192,80032,1,0,0:0:0:0:
329,192,80124,1,0,0:0:0:0:
402,192,80124,1,0,0:0:0:0:
182,192,80217,1,0,0:0:0:0:
256,192,80217,1,0,0:0:0:0:
36,192,80310,1,0,0:0:0:0:
475,192,80310,1,0,0:0:0:0:
402,192,80402,1,0,0:0:0:0:
109,192,80402,1,0,0:0:0:0:
329,192,80495,1,0,0:0:0:0:
36,192,80495,1,0,0:0:0:0:
182,192,80495,1,0,0:0:0:0:
402,192,80587,1,0,0:0:0:0:
109,192,80680,1,0,0:0:0:0:
256,192,80680,1,0,0:0:0:0:
182,192,80773,1,0,0:0:0:0:
329,192,80773,1,0,0:0:0:0:
475,192,80773,1,0,0:0:0:0:
109,192,80865,1,0,0:0:0:0:
402,192,80958,1,0,0:0:0:0:
256,192,80958,1,0,0:0:0:0:
182,192,81050,1,0,0:0:0:0:
36,192,81050,1,0,0:0:0:0:
329,192,81050,1,0,0:0:0:0:
109,192,81143,1,0,0:0:0:0:
329,192,81236,1,0,0:0:0:0:
475,192,81236,1,0,0:0:0:0:
182,192,81236,128,0,81421:0:0:0:0:
402,192,81236,1,0,0:0:0:0:
36,192,81328,128,0,81513:0:0:0:0:
256,192,81421,128,0,81606:0:0:0:0:
109,192,81513,128,0,81699:0:0:0:0:
329,192,81606,128,0,81791:0:0:0:0:
182,192,81699,128,0,81884:0:0:0:0:
402,192,81791,128,0,81976:0:0:0:0:
256,192,81884,128,0,81976:0:0:0:0:
36,192,81976,1,0,0:0:0:0:
109,192,81976,1,0,0:0:0:0:
475,192,81976,1,0,0:0:0:0:
329,192,81976,128,0,82162:0:0:0:0:
182,192,82069,1,0,0:0:0:0:
36,192,82162,1,0,0:0:0:0:
475,192,82162,1,0,0:0:0:0:
109,192,82254,1,0,0:0:0:0:
402,192,82254,1,0,0:0:0:0:
36,192,82347,1,0,0:0:0:0:
256,192,82347,1,0,0:0:0:0:
329,192,82347,1,0,0:0:0:0:
182,192,82439,1,0,0:0:0:0:
475,192,82439,1,0,0:0:0:0:
36,192,82532,1,0,0:0:0:0:
182,192,82624,1,0,0:0:0:0:
329,192,82624,1,0,0:0:0:0:
109,192,82717,1,0,0:0:0:0:
475,192,82717,1,0,0:0:0:0:
402,192,82717,1,0,0:0:0:0:
36,192,82810,1,0,0:0:0:0:
256,192,82810,1,0,0:0:0:0:
109,192,82902,1,0,0:0:0:0:
402,192,82902,1,0,0:0:0:0:
182,192,82995,1,0,0:0:0:0:
475,192,82995,1,0,0:0:0:0:
329,192,83087,1,0,0:0:0:0:
256,192,83087,1,0,0:0:0:0:
36,192,83087,1,0,0:0:0:0:
109,192,83180,1,0,0:0:0:0:
402,192,83180,1,0,0:0:0:0:
475,192,83273,128,0,83458:0:0:0:0:
329,192,83273,128,0,83458:0:0:0:0:
182,192,83365,1,0,0:0:0:0:
36,192,83365,1,0,0:0:0:0:
109,192,83458,1,0,0:0:0:0:
256,192,83458,1,0,0:0:0:0:
402,192,83458,1,0,0:0:0:0:
36,192,83550,1,0,0:0:0:0:
329,192,83550,1,0,0:0:0:0:
256,192,83643,1,0,0:0:0:0:
402,192,83736,1,0,0:0:0:0:
182,192,83736,1,0,0:0:0:0:
109,192,83828,1,0,0:0:0:0:
36,192,83828,1,0,0:0:0:0:
475,192,83828,1,0,0:0:0:0:
256,192,83921,1,0,0:0:0:0:
402,192,83921,1,0,0:0:0:0:
36,192,84013,1,0,0:0:0:0:
329,192,84106,1,0,0:0:0:0:
475,192,84106,1,0,0:0:0:0:
109,192,84199,1,0,0:0:0:0:
182,192,84199,1,0,0:0:0:0:
402,192,84199,1,0,0:0:0:0:
36,192,84291,1,0,0:0:0:0:
256,192,84291,1,0,0:0:0:0:
329,192,84384,1,0,0:0:0:0:
109,192,84384,1,0,0:0:0:0:
402,192,84476,1,0,0:0:0:0:
182,192,84476,1,0,0:0:0:0:
36,192,84569,1,0,0:0:0:0:
256,192,84569,1,0,0:0:0:0:
475,192,84569,1,0,0:0:0:0:
109,192,84662,1,0,0:0:0:0:
329,192,84662,1,0,0:0:0:0:
402,192,84754,1,0,0:0:0:0:
182,192,84754,1,0,0:0:0:0:
256,192,84847,1,0,0:0:0:0:
475,192,84847,1,0,0:0:0:0:
109,192,84847,1,0,0:0:0:0:
36,192,84939,1,0,0:0:0:0:
109,192,84939,128,0,85124:0:0:0:0:
329,192,84939,1,0,0:0:0:0:
182,192,85032,1,0,0:0:0:0:
402,192,85124,1,0,0:0:0:0:
475,192,85124,1,0,0:0:0:0:
36,192,85217,1,0,0:0:0:0:
182,192,85217,1,0,0:0:0:0:
256,192,85310,1,0,0:0:0:0:
329,192,85310,1,0,0:0:0:0:
475,192,85310,1,0,0:0:0:0:
36,192,85402,1,0,0:0:0:0:
109,192,85402,1,0,0:0:0:0:
402,192,85495,1,0,0:0:0:0:
182,192,85587,1,0,0:0:0:0:
329,192,85587,1,0,0:0:0:0:
109,192,85680,1,0,0:0:0:0:
402,192,85680,1,0,0:0:0:0:
475,192,85680,1,0,0:0:0:0:
36,192,85773,1,0,0:0:0:0:
256,192,85773,1,0,0:0:0:0:
109,192,85865,1,0,0:0:0:0:
329,192,85865,1,0,0:0:0:0:
182,192,85958,1,0,0:0:0:0:
402,192,85958,1,0,0:0:0:0:
36,192,86050,1,0,0:0:0:0:
256,192,86050,1,0,0:0:0:0:
475,192,86050,1,0,0:0:0:0:
182,192,86143,1,0,0:0:0:0:
402,192,86143,1,0,0:0:0:0:
109,192,86236,1,0,0:0:0:0:
329,192,86236,128,0,86421:0:0:0:0:
36,192,86328,1,0,0:0:0:0:
256,192,86328,1,0,0:0:0:0:
109,192,86421,1,0,0:0:0:0:
402,192,86421,1,0,0:0:0:0:
475,192,86421,1,0,0:0:0:0:
182,192,86513,1,0,0:0:0:0:
329,192,86513,1,0,0:0:0:0:
36,192,86606,1,0,0:0:0:0:
109,192,86699,1,0,0:0:0:0:
475,192,86699,1,0,0:0:0:0:
256,192,86791,1,0,0:0:0:0:
329,192,86791,1,0,0:0:0:0:
402,192,86791,1,0,0:0:0:0:
36,192,86884,1,0,0:0:0:0:
475,192,86884,1,0,0:0:0:0:
182,192,86976,1,0,0:0:0:0:
109,192,87069,1,0,0:0:0:0:
329,192,87069,1,0,0:0:0:0:
36,192,87162,1,0,0:0:0:0:
256,192,87162,1,0,0:0:0:0:
402,192,87162,1,0,0:0:0:0:
109,192,87254,1,0,0:0:0:0:
475,192,87254,1,0,0:0:0:0:
182,192,87347,1,0,0:0:0:0:
402,192,87347,1,0,0:0:0:0:
109,192,87439,1,0,0:0:0:0:
329,192,87439,1,0,0:0:0:0:
36,192,87532,1,0,0:0:0:0:
475,192,87532,1,0,0:0:0:0:
402,192,87532,1,0,0:0:0:0:
329,192,87624,1,0,0:0:0:0:
182,192,87624,1,0,0:0:0:0:
256,192,87717,1,0,0:0:0:0:
109,192,87717,1,0,0:0:0:0:
182,192,87810,1,0,0:0:0:0:
36,192,87810,1,0,0:0:0:0:
109,192,87902,1,0,0:0:0:0:
329,192,87902,1,0,0:0:0:0:
475,192,87902,128,0,88087:0:0:0:0:
256,192,87995,1,0,0:0:0:0:
36,192,88087,1,0,0:0:0:0:
182,192,88087,1,0,0:0:0:0:
329,192,88180,1,0,0:0:0:0:
402,192,88180,1,0,0:0:0:0:
109,192,88273,1,0,0:0:0:0:
256,192,88273,1,0,0:0:0:0:
475,192,88273,1,0,0:0:0:0:
329,192,88365,1,0,0:0:0:0:
36,192,88365,1,0,0:0:0:0:
182,192,88458,1,0,0:0:0:0:
109,192,88550,1,0,0:0:0:0:
402,192,88550,1,0,0:0:0:0:
36,192,88643,1,0,0:0:0:0:
256,192,88643,1,0,0:0:0:0:
329,192,88643,1,0,0:0:0:0:
109,192,88736,1,0,0:0:0:0:
402,192,88736,1,0,0:0:0:0:
182,192,88828,1,0,0:0:0:0:
475,192,88828,1,0,0:0:0:0:
256,192,88921,1,0,0:0:0:0:
402,192,88921,1,0,0:0:0:0:
36,192,89013,1,0,0:0:0:0:
109,192,89013,1,0,0:0:0:0:
329,192,89013,1,0,0:0:0:0:
256,192,89106,1,0,0:0:0:0:
36,192,89199,128,0,89384:0:0:0:0:
182,192,89199,128,0,89384:0:0:0:0:
329,192,89291,1,0,0:0:0:0:
475,192,89291,1,0,0:0:0:0:
402,192,89384,1,0,0:0:0:0:
256,192,89384,1,0,0:0:0:0:
109,192,89384,1,0,0:0:0:0:
36,192,89476,1,0,0:0:0:0:
329,192,89476,1,0,0:0:0:0:
182,192,89569,1,0,0:0:0:0:
36,192,89662,1,0,0:0:0:0:
475,192,89662,1,0,0:0:0:0:
109,192,89754,1,0,0:0:0:0:
329,192,89754,1,0,0:0:0:0:
402,192,89754,1,0,0:0:0:0:
182,192,89847,1,0,0:0:0:0:
256,192,89847,1,0,0:0:0:0:
475,192,89939,1,0,0:0:0:0:
36,192,90032,1,0,0:0:0:0:
402,192,90032,1,0,0:0:0:0:
109,192,90124,1,0,0:0:0:0:
182,192,90124,1,0,0:0:0:0:
329,192,90124,1,0,0:0:0:0:
256,192,90217,1,0,0:0:0:0:
475,192,90217,1,0,0:0:0:0:
36,192,90310,1,0,0:0:0:0:
402,192,90310,1,0,0:0:0:0:
109,192,90402,1,0,0:0:0:0:
329,192,90402,1,0,0:0:0:0:
182,192,90495,1,0,0:0:0:0:
475,192,90495,1,0,0:0:0:0:
36,192,90495,1,0,0:0:0:0:
256,192,90587,1,0,0:0:0:0:
402,192,90587,1,0,0:0:0:0:
182,192,90680,1,0,0:0:0:0:
475,192,90680,1,0,0:0:0:0:
109,192,90773,1,0,0:0:0:0:
402,192,90773,1,0,0:0:0:0:
36,192,90865,1,0,0:0:0:0:
329,192,90865,1,0,0:0:0:0:
256,192,90865,128,0,91050:0:0:0:0:
475,192,90958,1,0,0:0:0:0:
36,192,91050,1,0,0:0:0:0:
182,192,91050,1,0,0:0:0:0:
329,192,91143,1,0,0:0:0:0:
475,192,91143,1,0,0:0:0:0:
36,192,91236,1,0,0:0:0:0:
109,192,91236,1,0,0:0:0:0:
256,192,91236,1,0,0:0:0:0:
402,192,91328,1,0,0:0:0:0:
475,192,91328,1,0,0:0:0:0:
182,192,91421,1,0,0:0:0:0:
36,192,91513,1,0,0:0:0:0:
329,192,91513,1,0,0:0:0:0:
109,192,91606,1,0,0:0:0:0:
256,192,91606,1,0,0:0:0:0:
475,192,91606,1,0,0:0:0:0:
329,192,91699,1,0,0:0:0:0:
36,192,91699,1,0,0:0:0:0:
402,192,91791,1,0,0:0:0:0:
109,192,91791,1,0,0:0:0:0:
475,192,91884,1,0,0:0:0:0:
182,192,91884,1,0,0:0:0:0:
36,192,91976,1,0,0:0:0:0:
256,192,91976,1,0,0:0:0:0:
402,192,91976,1,0,0:0:0:0:
109,192,92069,1,0,0:0:0:0:
329,192,92069,1,0,0:0:0:0:
402,192,92162,1,0,0:0:0:0:
182,192,92162,128,0,92347:0:0:0:0:
475,192,92254,1,0,0:0:0:0:
36,192,92254,1,0,0:0:0:0:
256,192,92347,128,0,92532:0:0:0:0:
109,192,92347,1,0,0:0:0:0:
402,192,92347,1,0,0:0:0:0:
329,192,92439,1,0,0:0:0:0:
182,192,92532,1,0,0:0:0:0:
109,192,92624,1,0,0:0:0:0:
329,192,92624,1,0,0:0:0:0:
36,192,92717,1,0,0:0:0:0:
256,192,92717,1,0,0:0:0:0:
475,192,92717,1,0,0:0:0:0:
109,192,92810,1,0,0:0:0:0:
329,192,92810,1,0,0:0:0:0:
182,192,92902,1,0,0:0:0:0:
402,192,92902,1,0,0:0:0:0:
256,192,92995,1,0,0:0:0:0:
475,192,92995,1,0,0:0:0:0:
329,192,93087,1,0,0:0:0:0:
402,192,93087,1,0,0:0:0:0:
36,192,93087,1,0,0:0:0:0:
182,192,93180,1,0,0:0:0:0:
109,192,93180,1,0,0:0:0:0:
256,192,93273,1,0,0:0:0:0:
329,192,93273,1,0,0:0:0:0:
36,192,93365,1,0,0:0:0:0:
475,192,93365,1,0,0:0:0:0:
402,192,93458,1,0,0:0:0:0:
109,192,93458,1,0,0:0:0:0:
182,192,93458,1,0,0:0:0:0:
329,192,93458,1,0,0:0:0:0:
256,192,93643,128,0,93736:0:0:0:0:
182,192,93736,128,0,93828:0:0:0:0:
329,192,93736,128,0,93828:0:0:0:0:
109,192,93828,128,0,94199:0:0:0:0:
256,192,93828,128,0,94199:0:0:0:0:
402,192,93828,128,0,94199:0:0:0:0:
36,192,94199,1,0,0:0:0:0:
182,192,94199,1,0,0:0:0:0:
329,192,94199,1,0,0:0:0:0:
475,192,94199,1,0,0:0:0:0:
256,192,94291,1,0,0:0:0:0:
402,192,94291,1,0,0:0:0:0:
109,192,94384,1,0,0:0:0:0:
329,192,94476,1,0,0:0:0:0:
475,192,94476,1,0,0:0:0:0:
36,192,94569,1,0,0:0:0:0:
182,192,94569,1,0,0:0:0:0:
256,192,94569,1,0,0:0:0:0:
402,192,94662,1,0,0:0:0:0:
475,192,94662,1,0,0:0:0:0:
109,192,94754,1,0,0:0:0:0:
182,192,94754,1,0,0:0:0:0:
36,192,94847,1,0,0:0:0:0:
329,192,94847,1,0,0:0:0:0:
475,192,94847,1,0,0:0:0:0:
109,192,94939,1,0,0:0:0:0:
256,192,94939,1,0,0:0:0:0:
182,192,95032,1,0,0:0:0:0:
402,192,95032,1,0,0:0:0:0:
36,192,95124,1,0,0:0:0:0:
475,192,95124,128,0,95310:0:0:0:0:
256,192,95124,128,0,95310:0:0:0:0:
182,192,95217,1,0,0:0:0:0:
36,192,95310,1,0,0:0:0:0:
329,192,95310,1,0,0:0:0:0:
109,192,95310,1,0,0:0:0:0:
402,192,95402,1,0,0:0:0:0:
182,192,95402,1,0,0:0:0:0:
36,192,95495,1,0,0:0:0:0:
182,192,95587,1,0,0:0:0:0:
329,192,95587,1,0,0:0:0:0:
109,192,95680,1,0,0:0:0:0:
402,192,95680,1,0,0:0:0:0:
475,192,95680,1,0,0:0:0:0:
256,192,95773,1,0,0:0:0:0:
329,192,95773,1,0,0:0:0:0:
475,192,95865,1,0,0:0:0:0:
109,192,95958,1,0,0:0:0:0:
182,192,95958,1,0,0:0:0:0:
36,192,96050,1,0,0:0:0:0:
329,192,96050,1,0,0:0:0:0:
402,192,96050,1,0,0:0:0:0:
109,192,96143,1,0,0:0:0:0:
475,192,96143,1,0,0:0:0:0:
182,192,96236,1,0,0:0:0:0:
402,192,96236,1,0,0:0:0:0:
36,192,96328,1,0,0:0:0:0:
329,192,96328,1,0,0:0:0:0:
109,192,96328,1,0,0:0:0:0:
182,192,96421,1,0,0:0:0:0:
475,192,96421,1,0,0:0:0:0:
329,192,96513,1,0,0:0:0:0:
256,192,96513,1,0,0:0:0:0:
109,192,96606,1,0,0:0:0:0:
402,192,96606,1,0,0:0:0:0:
36,192,96606,1,0,0:0:0:0:
329,192,96699,1,0,0:0:0:0:
182,192,96699,1,0,0:0:0:0:
256,192,96791,1,0,0:0:0:0:
475,192,96791,1,0,0:0:0:0:
182,192,96791,128,0,96976:0:0:0:0:
36,192,96884,1,0,0:0:0:0:
329,192,96976,1,0,0:0:0:0:
402,192,96976,1,0,0:0:0:0:
475,192,97069,1,0,0:0:0:0:
109,192,97069,1,0,0:0:0:0:
182,192,97162,1,0,0:0:0:0:
256,192,97162,1,0,0:0:0:0:
329,192,97162,1,0,0:0:0:0:
36,192,97254,1,0,0:0:0:0:
475,192,97254,1,0,0:0:0:0:
109,192,97347,1,0,0:0:0:0:
256,192,97439,1,0,0:0:0:0:
402,192,97439,1,0,0:0:0:0:
182,192,97532,1,0,0:0:0:0:
109,192,97532,1,0,0:0:0:0:
36,192,97532,1,0,0:0:0:0:
256,192,97624,1,0,0:0:0:0:
475,192,97624,1,0,0:0:0:0:
402,192,97717,1,0,0:0:0:0:
182,192,97717,1,0,0:0:0:0:
329,192,97810,1,0,0:0:0:0:
36,192,97810,1,0,0:0:0:0:
475,192,97810,1,0,0:0:0:0:
182,192,97902,1,0,0:0:0:0:
402,192,97902,1,0,0:0:0:0:
329,192,97995,1,0,0:0:0:0:
109,192,97995,1,0,0:0:0:0:
256,192,98087,1,0,0:0:0:0:
475,192,98087,1,0,0:0:0:0:
36,192,98087,128,0,98273:0:0:0:0:
329,192,98180,1,0,0:0:0:0:
109,192,98273,1,0,0:0:0:0:
182,192,98273,1,0,0:0:0:0:
402,192,98273,1,0,0:0:0:0:
256,192,98365,1,0,0:0:0:0:
329,192,98365,1,0,0:0:0:0:
475,192,98458,1,0,0:0:0:0:
182,192,98550,1,0,0:0:0:0:
36,192,98550,1,0,0:0:0:0:
329,192,98643,1,0,0:0:0:0:
402,192,98643,1,0,0:0:0:0:
475,192,98643,1,0,0:0:0:0:
109,192,98736,1,0,0:0:0:0:
256,192,98736,1,0,0:0:0:0:
475,192,98828,1,0,0:0:0:0:
36,192,98921,1,0,0:0:0:0:
256,192,98921,1,0,0:0:0:0:
109,192,99013,1,0,0:0:0:0:
182,192,99013,1,0,0:0:0:0:
329,192,99013,1,0,0:0:0:0:
402,192,99013,1,0,0:0:0:0:
36,192,99106,1,0,0:0:0:0:
475,192,99106,1,0,0:0:0:0:
256,192,99199,1,0,0:0:0:0:
329,192,99199,1,0,0:0:0:0:
182,192,99291,1,0,0:0:0:0:
109,192,99291,1,0,0:0:0:0:
329,192,99384,1,0,0:0:0:0:
402,192,99384,1,0,0:0:0:0:
256,192,99476,1,0,0:0:0:0:
182,192,99476,1,0,0:0:0:0:
329,192,99569,1,0,0:0:0:0:
402,192,99569,1,0,0:0:0:0:
182,192,99662,1,0,0:0:0:0:
109,192,99662,1,0,0:0:0:0:
256,192,99754,1,0,0:0:0:0:
329,192,99754,1,0,0:0:0:0:
36,192,99754,1,0,0:0:0:0:
475,192,99754,1,0,0:0:0:0:
109,192,99939,1,0,0:0:0:0:
109,192,100310,1,0,0:0:0:0:
329,192,100371,1,0,0:0:0:0:
475,192,100371,1,0,0:0:0:0:
402,192,100433,1,0,0:0:0:0:
256,192,100433,1,0,0:0:0:0:
182,192,100495,1,0,0:0:0:0:
329,192,100495,1,0,0:0:0:0:
475,192,100495,1,0,0:0:0:0:
109,192,100680,1,0,0:0:0:0:
109,192,101050,1,0,0:0:0:0:
256,192,101050,128,0,101236:0:0:0:0:
402,192,101050,128,0,101236:0:0:0:0:
182,192,101236,128,0,101328:0:0:0:0:
329,192,101328,128,0,101421:0:0:0:0:
475,192,101328,128,0,101421:0:0:0:0:
109,192,101421,1,0,0:0:0:0:
256,192,101421,128,0,101791:0:0:0:0:
475,192,101606,128,0,101976:0:0:0:0:
329,192,101791,128,0,101976:0:0:0:0:
109,192,101791,1,0,0:0:0:0:
36,192,101791,1,0,0:0:0:0:
182,192,101976,1,0,0:0:0:0:
36,192,101976,1,0,0:0:0:0:
109,192,102162,1,0,0:0:0:0:
402,192,102162,128,0,102254:0:0:0:0:
109,192,102532,1,0,0:0:0:0:
36,192,102717,1,0,0:0:0:0:
475,192,102717,128,0,102902:0:0:0:0:
109,192,102902,1,0,0:0:0:0:
256,192,102902,1,0,0:0:0:0:
402,192,102995,1,0,0:0:0:0:
329,192,103180,1,0,0:0:0:0:
36,192,103273,1,0,0:0:0:0:
109,192,103273,1,0,0:0:0:0:
475,192,103365,1,0,0:0:0:0:
36,192,103458,1,0,0:0:0:0:
182,192,103458,1,0,0:0:0:0:
256,192,103550,1,0,0:0:0:0:
109,192,103643,1,0,0:0:0:0:
329,192,103643,1,0,0:0:0:0:
402,192,103736,1,0,0:0:0:0:
475,192,103828,1,0,0:0:0:0:
402,192,103921,1,0,0:0:0:0:
109,192,104013,1,0,0:0:0:0:
329,192,104013,128,0,104199:0:0:0:0:
256,192,104106,1,0,0:0:0:0:
36,192,104199,1,0,0:0:0:0:
329,192,104291,1,0,0:0:0:0:
475,192,104291,1,0,0:0:0:0:
109,192,104384,1,0,0:0:0:0:
256,192,104384,1,0,0:0:0:0:
329,192,104476,1,0,0:0:0:0:
475,192,104476,1,0,0:0:0:0:
182,192,104569,1,0,0:0:0:0:
36,192,104662,1,0,0:0:0:0:
256,192,104662,1,0,0:0:0:0:
109,192,104754,1,0,0:0:0:0:
329,192,104754,1,0,0:0:0:0:
182,192,104847,1,0,0:0:0:0:
402,192,104847,1,0,0:0:0:0:
256,192,104939,1,0,0:0:0:0:
36,192,104939,1,0,0:0:0:0:
475,192,104939,1,0,0:0:0:0:
109,192,105032,1,0,0:0:0:0:
402,192,105032,1,0,0:0:0:0:
182,192,105124,1,0,0:0:0:0:
329,192,105124,1,0,0:0:0:0:
256,192,105217,1,0,0:0:0:0:
402,192,105310,1,0,0:0:0:0:
475,192,105310,1,0,0:0:0:0:
109,192,105310,1,0,0:0:0:0:
329,192,105402,1,0,0:0:0:0:
182,192,105402,1,0,0:0:0:0:
109,192,105495,1,0,0:0:0:0:
402,192,105495,1,0,0:0:0:0:
475,192,105495,1,0,0:0:0:0:
256,192,105587,1,0,0:0:0:0:
36,192,105680,128,0,105865:0:0:0:0:
329,192,105680,1,0,0:0:0:0:
182,192,105865,128,0,106050:0:0:0:0:
475,192,106050,128,0,106236:0:0:0:0:
329,192,106236,128,0,106421:0:0:0:0:
36,192,106606,128,0,106791:0:0:0:0:
182,192,106791,128,0,106976:0:0:0:0:
475,192,106976,128,0,107162:0:0:0:0:
329,192,107162,128,0,107347:0:0:0:0:
36,192,107532,128,0,107717:0:0:0:0:
182,192,107717,128,0,107902:0:0:0:0:
475,192,107902,128,0,108087:0:0:0:0:
329,192,108087,128,0,108273:0:0:0:0:
36,192,108458,128,0,108643:0:0:0:0:
182,192,108643,128,0,108828:0:0:0:0:
475,192,108828,128,0,109013:0:0:0:0:
329,192,109013,128,0,109199:0:0:0:0:
36,192,109384,128,0,109569:0:0:0:0:
182,192,109569,128,0,109754:0:0:0:0:
475,192,109754,128,0,109939:0:0:0:0:
402,192,109939,1,0,0:0:0:0:
109,192,109939,1,0,0:0:0:0:
402,192,110032,1,0,0:0:0:0:
109,192,110032,1,0,0:0:0:0:
182,192,110124,1,0,0:0:0:0:
329,192,110124,1,0,0:0:0:0:
475,192,110124,1,0,0:0:0:0:
36,192,110124,1,0,0:0:0:0:
256,192,110310,128,0,110495:0:0:0:0:
402,192,110495,1,0,0:0:0:0:
182,192,110495,1,0,0:0:0:0:
109,192,110587,1,0,0:0:0:0:
329,192,110587,1,0,0:0:0:0:
256,192,110680,1,0,0:0:0:0:
182,192,110703,1,0,0:0:0:0:
109,192,110726,1,0,0:0:0:0:
36,192,110749,1,0,0:0:0:0:
475,192,110773,1,0,0:0:0:0:
402,192,110796,1,0,0:0:0:0:
329,192,110819,1,0,0:0:0:0:
256,192,110842,1,0,0:0:0:0:
109,192,110865,1,0,0:0:0:0:
182,192,110865,1,0,0:0:0:0:
329,192,111050,128,0,111143:0:0:0:0:
36,192,111236,1,0,0:0:0:0:
182,192,111236,128,0,111328:0:0:0:0:
329,192,111328,128,0,111421:0:0:0:0:
475,192,111421,128,0,111513:0:0:0:0:
182,192,111421,128,0,111606:0:0:0:0:
