osu file format v14

[General]
AudioFilename: Proluvies.mp3
AudioLeadIn: 0
PreviewTime: 81144
Countdown: 0
SampleSet: None
StackLeniency: 0.6
Mode: 0
LetterboxInBreaks: 0
WidescreenStoryboard: 0

[Editor]
Bookmarks: 34570,58274,81978
DistanceSpacing: 1
BeatDivisor: 4
GridSize: 4
TimelineZoom: 1.2

[Metadata]
Title:Proluvies
TitleUnicode:Proluvies
Artist:Camellia
ArtistUnicode:かめりあ
Creator:Priti
Version:Easy
Source:REFLEC BEAT groovin'!!
Tags:Drumstep Electronic Masaya Oya 大箭マサヤ Cametek Dubstep Bonzi Leader Nwolf Irreversible
BeatmapID:704049
BeatmapSetID:283815

[Difficulty]
HPDrainRate:2.5
CircleSize:3
OverallDifficulty:2
ApproachRate:2.7
SliderMultiplier:0.9
SliderTickRate:1

[Events]
//Background and Video events
0,0,"bg.jpg",0,0
//Break Periods
2,16992,17725
2,19955,20688
2,28844,32354
2,58474,67910
//Storyboard Layer 0 (Background)
//Storyboard Layer 1 (Fail)
//Storyboard Layer 2 (Pass)
//Storyboard Layer 3 (Foreground)
//Storyboard Sound Samples

[TimingPoints]
4941,370.37037037037,4,3,1,70,1,0
24755,-100,4,2,1,55,0,0
25126,-100,4,2,1,75,0,0
25496,-100,4,3,1,90,0,0
33829,-100,4,3,1,90,0,0
42533,-100,4,2,1,90,0,0
42718,-100,4,3,1,90,0,0
43829,-100,4,2,1,90,0,0
44015,-100,4,3,1,90,0,0
46792,-100,4,2,1,90,0,0
46978,-100,4,3,1,90,0,0
48459,-100,4,2,1,90,0,0
48644,-100,4,3,1,90,0,0
69385,-100,4,3,1,60,0,0
70126,-100,4,3,1,70,0,0
76052,-100,4,3,1,30,0,0
80496,-100,4,3,1,70,0,0
81978,-100,4,3,2,85,0,1
93459,-100,4,3,1,85,0,0
94200,-100,4,3,2,85,0,1
99015,-100,4,3,1,85,0,1
99385,-100,4,3,2,85,0,1
99755,-100,4,3,2,70,0,0
100496,-100,4,3,1,70,0,0
102718,-100,4,3,2,70,0,0
102811,-100,4,3,1,70,0,0
104200,-100,4,3,2,70,0,0
104292,-100,4,3,1,70,0,0
105774,-100,4,3,2,30,0,0
109940,-100,4,3,1,70,0,0

[Colours]
Combo1 : 191,238,164
Combo2 : 133,227,233
Combo3 : 240,238,159
Combo4 : 192,187,242

[HitObjects]
94,138,15126,6,0,L|101:201,1,45,0|8,1:0|1:0,0:0:0:0:
247,284,16052,2,0,P|285:204|269:101,1,180,8|4,1:0|1:2,0:0:0:0:
275,115,19200,6,0,P|290:156|300:262,1,135,0|0,1:0|1:0,0:0:0:0:
300,246,22163,6,0,L|149:253,1,135,0|0,1:0|1:0,0:0:0:0:
14,70,24015,1,0,1:0:0:0:
271,159,25496,6,0,P|313:150|362:152,1,90,0|0,1:0|0:0,0:0:0:0:
363,241,26236,2,0,P|320:249|271:247,1,90,0|0,1:0|0:0,0:0:0:0:
194,205,26978,1,0,1:0:0:0:
256,192,27163,12,4,28644,1:2:0:0:
227,177,33829,5,8,1:0:0:0:
394,244,34570,6,2,P|410:180|407:138,1,90,0|0,1:0|2:0,0:0:0:0:
379,71,35311,1,8,1:0:0:0:
187,189,36237,2,2,P|230:183|330:182,1,135,0|8,1:0|1:0,0:0:0:0:
328,361,37533,6,2,L|141:371,1,180,0|8,1:0|1:0,0:0:0:0:
84,307,38644,2,0,P|84:269|97:231,1,67.5,0|2,1:0|1:0,0:0:0:0:
140,164,39292,2,0,L|360:172,1,202.5,2|4,0:2|0:0,0:0:0:0:
428,199,40496,6,2,P|431:154|413:113,1,90,0|0,1:0|2:0,0:0:0:0:
342,58,41237,2,0,P|286:67|199:56,1,135,8|2,1:0|0:0,0:0:0:0:
124,25,42163,2,2,B|121:80|121:80|128:97|128:97|124:161,1,135,0|8,0:0|1:0,0:0:0:0:
91,242,43089,1,8,1:0:0:0:
147,311,43459,6,2,P|231:322|327:295,1,180,0|8,1:0|1:0,0:0:0:0:
352,214,44570,2,0,P|398:219|424:236,2,67.5,0|2|8,1:0|1:0|1:0,0:0:0:0:
276,163,45496,2,0,L|271:118,1,45,0|8,1:0|1:0,0:0:0:0:
103,53,46422,6,2,L|109:149,1,90,0|0,1:0|0:0,1:0:0:0:
160,216,47163,2,0,P|177:262|129:348,1,135,8|8,1:0|1:0,0:0:0:0:
84,271,48088,2,2,P|66:224|114:138,1,135,0|8,1:0|1:0,0:0:0:0:
270,99,49385,6,2,L|374:91,1,90,0|0,1:0|2:0,0:0:0:0:
435,145,50126,1,8,1:0:0:0:
474,226,50496,2,0,P|472:284|462:311,1,67.5,0|2,1:0|1:0,0:0:0:0:
387,329,51144,2,0,L|268:315,1,112.5,2|8,0:2|1:0,0:0:0:0:
100,336,52348,1,2,0:2:0:0:
124,249,52718,5,4,1:2:0:0:
36,271,53089,2,0,P|41:212|49:194,2,67.5,8|0|10,1:0|1:0|1:0,0:0:0:0:
100,336,54014,2,2,L|240:329,1,135,0|8,1:0|1:0,0:0:0:0:
313,286,54940,1,8,1:0:0:0:
361,210,55311,6,2,P|364:172|347:120,1,90,0|0,1:0|2:0,0:0:0:0:
276,177,56051,2,0,P|241:189|100:151,1,180,8|2,1:0|1:2,0:0:0:0:
212,10,57533,1,2,1:2:0:0:
276,177,58274,5,4,1:2:0:0:
433,131,69385,5,2,0:0:0:0:
267,201,70126,6,0,L|164:196,1,90,4|4,1:2|1:2,0:0:0:0:
125,122,70866,1,4,1:2:0:0:
42,281,71607,2,0,P|113:282|141:269,1,90,4|4,1:2|1:2,0:0:0:0:
174,197,72348,1,4,1:2:0:0:
86,39,73089,6,0,P|159:30|275:40,1,180,4|4,1:2|1:2,0:0:0:0:
287,216,74570,2,0,P|224:217|191:194,1,90,4|4,1:2|1:2,0:0:0:0:
117,172,75311,2,0,L|131:328,1,157.5,0|0,1:0|1:0,0:0:0:0:
256,192,76144,12,8,80496,1:0:0:0:
116,124,81978,6,0,P|108:168|104:232,1,90,12|8,1:0|1:0,0:0:0:0:
140,296,82718,1,8,1:0:0:0:
312,243,83459,2,0,P|309:153|290:65,1,180,8|8,1:0|1:0,0:0:0:0:
207,31,84570,1,8,1:0:0:0:
129,76,84940,6,0,L|34:66,2,90,8|8|8,1:0|1:0|1:0,0:0:0:0:
221,230,86422,2,0,L|230:331,1,90,0|8,1:0|1:0,0:0:0:0:
314,348,87163,2,0,P|366:350|408:326,1,90,8|8,1:0|1:0,0:0:0:0:
343,262,87903,6,0,B|325:213|330:156|350:189|359:138|341:86,1,180,8|8,1:0|1:0,0:0:0:0:
264,38,89015,1,8,1:0:0:0:
178,64,89385,2,0,P|166:120|174:163,1,90,8|8,1:0|1:0,0:0:0:0:
214,230,90126,1,8,1:0:0:0:
377,305,90866,6,0,B|408:220|408:220|358:145,1,180,0|8,1:0|1:0,0:0:0:0:
184,99,92348,2,0,L|76:107,1,90,0|8,1:0|1:0,0:0:0:0:
77,194,93089,2,0,L|166:187,1,90,8|8,1:0|1:0,0:0:0:0:
308,300,94200,6,0,L|112:284,1,180,12|8,1:0|1:0,0:0:0:0:
47,245,95311,2,0,P|31:197|108:83,1,180,8|8,1:0|1:0,0:0:0:0:
225,199,96792,6,0,P|181:205|140:189,1,90,8|8,1:0|1:0,0:0:0:0:
192,115,97532,2,0,P|233:98|277:104,1,90,8|8,1:0|1:0,0:0:0:0:
348,160,98274,2,0,P|346:243|271:323,1,180,8|8,1:0|1:0,0:0:0:0:
266,136,99755,6,0,B|345:127|345:127|362:137|362:137|442:129,1,180,12|8,1:0|1:0,0:0:0:0:
494,202,100866,2,0,P|511:269|430:347,1,180
357,313,101978,1,8,1:0:0:0:
181,354,102718,6,0,P|120:360|100:254,1,180,8|8,1:0|1:0,0:0:0:0:
233,146,104200,2,0,P|235:191|215:231,1,90,8|0,1:0|0:0,0:0:0:0:
147,172,104940,2,0,P|144:127|165:87,1,90,8|8,1:0|1:0,0:0:0:0:
250,58,105681,5,4,1:2:0:0:
256,192,105774,12,2,108459,2:0:0:0:
94,138,109940,6,0,L|101:201,1,45,0|8,1:0|1:0,0:0:0:0:
247,284,110866,2,0,P|273:243|287:193,1,90,0|2,0:0|0:0,0:0:0:0:
