osu file format v14

[General]
AudioFilename: Camellia - Proluvies.mp3
AudioLeadIn: 0
PreviewTime: 81144
Countdown: 0
SampleSet: None
StackLeniency: 0.6
Mode: 3
LetterboxInBreaks: 0
SpecialStyle: 0
WidescreenStoryboard: 1

[Editor]
Bookmarks: 34570,58274,81978
DistanceSpacing: 1
BeatDivisor: 4
GridSize: 4
TimelineZoom: 1.4

[Metadata]
Title:Proluvies
TitleUnicode:Proluvies
Artist:Camellia
ArtistUnicode:かめりあ
Creator:Luthfeh
Version:I
Source:REFLEC BEAT groovin'!!
Tags:Drumstep Electronic Masaya Oya 大箭マサヤ Cametek Dubstep
BeatmapID:758110
BeatmapSetID:343037

[Difficulty]
HPDrainRate:8
CircleSize:4
OverallDifficulty:8
ApproachRate:4.5
SliderMultiplier:1.12
SliderTickRate:1

[Events]
//Background and Video events
0,0,"bg.jpg",0,0
//Break Periods
//Storyboard Layer 0 (Background)
//Storyboard Layer 1 (Fail)
//Storyboard Layer 2 (Pass)
//Storyboard Layer 3 (Foreground)
//Storyboard Sound Samples

[TimingPoints]
4941,370.37037037037,4,3,1,70,1,0
15126,-100,4,3,1,70,0,1
16792,-100,4,3,1,70,0,0
24570,-100,4,3,1,25,0,0
25496,-100,4,3,1,70,0,0
25681,-100,4,3,1,30,0,0
26237,-100,4,3,1,70,0,0
26329,-100,4,3,1,25,0,0
26978,-100,4,3,1,70,0,0
27070,-100,4,3,1,25,0,0
27348,-100,4,3,1,70,0,0
27440,-100,4,3,1,25,0,0
27626,-100,4,3,1,70,0,0
27718,-100,4,3,1,25,0,0
27903,-100,4,3,1,70,0,0
27996,-100,4,3,1,25,0,0
28089,-100,4,3,1,70,0,0
33089,370.37037037037,4,3,1,70,1,0
33829,-10,4,3,1,70,0,0
33876,-1000,4,3,1,70,0,0
34200,-500.000000000003,4,3,1,70,0,0
34246,-333.333333333333,4,3,1,70,0,0
34292,-250.000000000001,4,3,1,70,0,0
34339,-333.333333333333,4,3,1,70,0,0
34385,-166.666666666667,4,3,1,70,0,0
34431,-142.857142857143,4,3,1,70,0,0
34478,-125,4,3,1,70,0,0
34524,-111.111111111111,4,3,1,70,0,0
34570,-100,4,3,1,70,0,0
81977,-100,4,3,2,50,0,1
93459,-100,4,3,1,85,0,0
94200,-100,4,3,2,50,0,1
99755,-100,4,3,2,70,0,0

[HitObjects]
448,192,4940,5,0,0:0:0:0:
64,192,5126,1,0,0:0:0:0:
192,192,5311,1,0,0:0:0:0:
320,192,5496,1,0,0:0:0:0:
448,192,6237,1,0,0:0:0:0:
320,192,6422,1,0,0:0:0:0:
192,192,6607,1,0,0:0:0:0:
320,192,7163,1,0,0:0:0:0:
192,192,7348,1,0,0:0:0:0:
64,192,7533,1,0,0:0:0:0:
64,192,8089,1,0,0:0:0:0:
192,192,8274,1,0,0:0:0:0:
320,192,8459,1,0,0:0:0:0:
192,192,9200,1,0,0:0:0:0:
320,192,9385,1,0,0:0:0:0:
448,192,9570,1,0,0:0:0:0:
64,192,10126,1,0,0:0:0:0:
192,192,10311,1,0,0:0:0:0:
320,192,10496,1,0,0:0:0:0:
448,192,10589,1,0,0:0:0:0:
320,192,10681,1,0,0:0:0:0:
192,192,10774,1,0,0:0:0:0:
448,192,10866,1,0,0:0:0:0:
64,192,11052,1,0,0:0:0:0:
320,192,11237,1,0,0:0:0:0:
192,192,11422,1,0,0:0:0:0:
448,192,12163,1,0,0:0:0:0:
192,192,12348,1,0,0:0:0:0:
320,192,12533,1,0,0:0:0:0:
64,192,13089,1,0,0:0:0:0:
320,192,13274,1,0,0:0:0:0:
448,192,13459,1,0,0:0:0:0:
192,192,13829,1,0,0:0:0:0:
64,192,14015,1,0,0:0:0:0:
320,192,14385,1,0,0:0:0:0:
448,192,14940,1,0,0:0:0:0:
192,192,15126,1,0,0:0:0:0:
64,192,15218,1,0,0:0:0:0:
192,192,15311,1,0,0:0:0:0:
320,192,15311,1,0,0:0:0:0:
448,192,15496,128,0,15589:0:0:0:0:
448,192,15681,128,0,15774:0:0:0:0:
320,192,15774,128,0,15866:0:0:0:0:
448,192,15866,128,0,16052:0:0:0:0:
192,192,16052,1,0,0:0:0:0:
64,192,16052,1,0,0:0:0:0:
448,192,16237,128,0,16329:0:0:0:0:
192,192,16329,1,0,0:0:0:0:
320,192,16329,1,0,0:0:0:0:
64,192,16422,128,0,16515:0:0:0:0:
192,192,16515,128,0,16607:0:0:0:0:
320,192,16607,1,0,0:0:0:0:
64,192,16607,1,0,0:0:0:0:
448,192,16792,1,0,0:0:0:0:
192,192,16792,1,0,0:0:0:0:
320,192,16792,1,0,0:0:0:0:
64,192,16978,1,0,0:0:0:0:
192,192,17163,1,0,0:0:0:0:
320,192,17348,1,0,0:0:0:0:
448,192,18089,1,0,0:0:0:0:
192,192,18274,1,0,0:0:0:0:
64,192,18459,1,0,0:0:0:0:
320,192,19015,1,0,0:0:0:0:
192,192,19200,1,0,0:0:0:0:
448,192,19200,1,0,0:0:0:0:
64,192,19200,1,0,0:0:0:0:
64,192,19385,1,0,0:0:0:0:
192,192,19478,1,0,0:0:0:0:
320,192,19478,1,0,0:0:0:0:
448,192,19478,1,0,0:0:0:0:
448,192,19755,1,0,0:0:0:0:
320,192,19755,1,0,0:0:0:0:
64,192,19755,1,0,0:0:0:0:
192,192,19940,1,0,0:0:0:0:
448,192,20126,1,0,0:0:0:0:
320,192,20311,1,0,0:0:0:0:
448,192,21052,1,0,0:0:0:0:
320,192,21237,1,0,0:0:0:0:
64,192,21422,1,0,0:0:0:0:
448,192,21978,1,0,0:0:0:0:
64,192,22163,1,0,0:0:0:0:
320,192,22163,1,0,0:0:0:0:
192,192,22163,1,0,0:0:0:0:
192,192,22348,1,0,0:0:0:0:
320,192,22440,1,0,0:0:0:0:
448,192,22440,1,0,0:0:0:0:
64,192,22440,1,0,0:0:0:0:
64,192,22718,1,0,0:0:0:0:
192,192,22718,1,0,0:0:0:0:
448,192,22718,1,0,0:0:0:0:
320,192,22903,1,0,0:0:0:0:
448,192,23089,1,0,0:0:0:0:
64,192,23274,1,0,0:0:0:0:
192,192,24015,1,0,0:0:0:0:
320,192,24015,1,0,0:0:0:0:
448,192,24015,1,0,0:0:0:0:
64,192,24200,1,0,0:0:0:0:
448,192,24385,1,0,0:0:0:0:
64,192,24570,1,0,0:0:0:0:
192,192,24755,1,0,0:0:0:0:
320,192,24940,1,0,0:0:0:0:
448,192,25126,1,0,0:0:0:0:
320,192,25311,1,0,0:0:0:0:
192,192,25496,1,0,0:0:0:0:
448,192,25496,1,0,0:0:0:0:
64,192,25496,1,0,0:0:0:0:
64,192,25681,1,0,0:0:0:0:
192,192,25774,1,0,0:0:0:0:
320,192,25866,1,0,0:0:0:0:
448,192,25959,1,0,0:0:0:0:
320,192,26052,1,0,0:0:0:0:
192,192,26144,1,0,0:0:0:0:
448,192,26237,1,0,0:0:0:0:
64,192,26237,1,0,0:0:0:0:
320,192,26237,1,0,0:0:0:0:
192,192,26329,1,0,0:0:0:0:
64,192,26422,1,0,0:0:0:0:
192,192,26515,1,0,0:0:0:0:
320,192,26607,1,0,0:0:0:0:
448,192,26700,1,0,0:0:0:0:
320,192,26792,1,0,0:0:0:0:
192,192,26885,1,0,0:0:0:0:
320,192,26978,1,0,0:0:0:0:
64,192,26978,1,0,0:0:0:0:
448,192,26978,1,0,0:0:0:0:
192,192,27070,1,0,0:0:0:0:
320,192,27163,1,0,0:0:0:0:
448,192,27255,1,0,0:0:0:0:
192,192,27348,1,0,0:0:0:0:
64,192,27348,1,0,0:0:0:0:
320,192,27348,1,0,0:0:0:0:
448,192,27440,1,0,0:0:0:0:
320,192,27533,1,0,0:0:0:0:
448,192,27626,1,0,0:0:0:0:
192,192,27626,1,0,0:0:0:0:
64,192,27626,1,0,0:0:0:0:
320,192,27718,1,0,0:0:0:0:
192,192,27811,1,0,0:0:0:0:
320,192,27903,1,0,0:0:0:0:
64,192,27903,1,0,0:0:0:0:
448,192,27903,1,0,0:0:0:0:
192,192,27996,1,0,0:0:0:0:
448,192,28089,1,0,0:0:0:0:
64,192,28089,1,0,0:0:0:0:
192,192,28181,1,0,0:0:0:0:
320,192,28181,1,0,0:0:0:0:
64,192,28366,1,0,0:0:0:0:
192,192,28366,1,0,0:0:0:0:
320,192,28459,1,0,0:0:0:0:
448,192,28459,1,0,0:0:0:0:
192,192,28552,1,0,0:0:0:0:
64,192,28644,1,0,0:0:0:0:
448,192,28829,1,0,0:0:0:0:
192,192,29015,1,0,0:0:0:0:
64,192,29200,1,0,0:0:0:0:
320,192,29385,1,0,0:0:0:0:
448,192,29570,1,0,0:0:0:0:
192,192,29755,1,0,0:0:0:0:
320,192,29940,1,0,0:0:0:0:
64,192,30126,1,0,0:0:0:0:
192,192,30311,1,0,0:0:0:0:
448,192,30496,1,0,0:0:0:0:
320,192,30681,1,0,0:0:0:0:
64,192,30866,1,0,0:0:0:0:
448,192,31052,1,0,0:0:0:0:
192,192,31237,1,0,0:0:0:0:
320,192,31422,1,0,0:0:0:0:
64,192,31607,1,0,0:0:0:0:
192,192,31792,1,0,0:0:0:0:
448,192,31978,1,0,0:0:0:0:
192,192,32163,1,0,0:0:0:0:
320,192,32348,1,0,0:0:0:0:
448,192,32533,1,0,0:0:0:0:
64,192,32718,1,0,0:0:0:0:
192,192,32903,1,0,0:0:0:0:
448,192,33089,1,0,0:0:0:0:
192,192,33274,1,0,0:0:0:0:
64,192,33459,1,0,0:0:0:0:
320,192,33644,1,0,0:0:0:0:
192,192,33829,1,0,0:0:0:0:
448,192,33829,1,0,0:0:0:0:
64,192,33829,1,0,0:0:0:0:
64,192,34570,128,0,35311:0:0:0:0:
320,192,34570,1,0,0:0:0:0:
448,192,34570,1,0,0:0:0:0:
192,192,35187,1,0,0:0:0:0:
320,192,35249,1,0,0:0:0:0:
448,192,35311,1,0,0:0:0:0:
192,192,35311,1,0,0:0:0:0:
320,192,35496,1,0,0:0:0:0:
448,192,36237,128,0,36607:0:0:0:0:
192,192,36237,1,0,0:0:0:0:
64,192,36237,1,0,0:0:0:0:
320,192,36422,128,0,36607:0:0:0:0:
192,192,36607,1,0,0:0:0:0:
64,192,36607,1,0,0:0:0:0:
320,192,36792,1,0,0:0:0:0:
448,192,36792,128,0,36885:0:0:0:0:
192,192,36792,1,0,0:0:0:0:
64,192,36885,128,0,36977:0:0:0:0:
192,192,36885,1,0,0:0:0:0:
448,192,36977,128,0,37070:0:0:0:0:
320,192,36977,1,0,0:0:0:0:
64,192,37070,128,0,37163:0:0:0:0:
192,192,37070,1,0,0:0:0:0:
192,192,37163,1,0,0:0:0:0:
320,192,37255,128,0,37348:0:0:0:0:
448,192,37348,128,0,37440:0:0:0:0:
320,192,37440,1,0,0:0:0:0:
64,192,37533,128,0,38274:0:0:0:0:
192,192,37533,1,0,0:0:0:0:
448,192,37533,1,0,0:0:0:0:
448,192,37903,1,0,0:0:0:0:
320,192,38088,1,0,0:0:0:0:
192,192,38274,1,0,0:0:0:0:
448,192,38274,1,0,0:0:0:0:
320,192,38459,128,0,38551:0:0:0:0:
64,192,38644,128,0,38737:0:0:0:0:
192,192,38644,1,0,0:0:0:0:
192,192,38737,128,0,38829:0:0:0:0:
320,192,38737,1,0,0:0:0:0:
64,192,38829,128,0,38922:0:0:0:0:
192,192,38922,1,0,0:0:0:0:
320,192,38922,128,0,39292:0:0:0:0:
192,192,39292,1,0,0:0:0:0:
448,192,39292,1,0,0:0:0:0:
320,192,39385,128,0,39477:0:0:0:0:
64,192,39385,1,0,0:0:0:0:
192,192,39477,128,0,39570:0:0:0:0:
448,192,39477,1,0,0:0:0:0:
64,192,39570,128,0,39663:0:0:0:0:
320,192,39570,1,0,0:0:0:0:
192,192,39663,128,0,39755:0:0:0:0:
448,192,39663,1,0,0:0:0:0:
320,192,39755,1,0,0:0:0:0:
64,192,39755,1,0,0:0:0:0:
192,192,39848,1,0,0:0:0:0:
320,192,39848,1,0,0:0:0:0:
192,192,39940,1,0,0:0:0:0:
448,192,39940,1,0,0:0:0:0:
320,192,40126,1,0,0:0:0:0:
192,192,40218,1,0,0:0:0:0:
64,192,40218,1,0,0:0:0:0:
448,192,40311,1,0,0:0:0:0:
448,192,40403,1,0,0:0:0:0:
64,192,40496,128,0,41237:0:0:0:0:
192,192,40496,1,0,0:0:0:0:
320,192,40496,1,0,0:0:0:0:
448,192,40588,1,0,0:0:0:0:
320,192,40681,1,0,0:0:0:0:
192,192,40774,1,0,0:0:0:0:
320,192,40866,1,0,0:0:0:0:
448,192,40959,1,0,0:0:0:0:
320,192,41051,1,0,0:0:0:0:
192,192,41113,1,0,0:0:0:0:
320,192,41175,1,0,0:0:0:0:
192,192,41237,1,0,0:0:0:0:
448,192,41237,1,0,0:0:0:0:
320,192,41422,1,0,0:0:0:0:
64,192,41514,128,0,41607:0:0:0:0:
320,192,41607,128,0,41700:0:0:0:0:
192,192,41700,128,0,41792:0:0:0:0:
448,192,41792,128,0,41977:0:0:0:0:
64,192,41792,128,0,41977:0:0:0:0:
320,192,41977,128,0,42070:0:0:0:0:
64,192,42070,128,0,42163:0:0:0:0:
192,192,42163,1,0,0:0:0:0:
448,192,42163,128,0,42533:0:0:0:0:
320,192,42163,1,0,0:0:0:0:
192,192,42348,128,0,42533:0:0:0:0:
64,192,42533,1,0,0:0:0:0:
320,192,42533,128,0,42718:0:0:0:0:
448,192,42718,1,0,0:0:0:0:
64,192,42718,128,0,42811:0:0:0:0:
192,192,42718,1,0,0:0:0:0:
320,192,42811,128,0,42903:0:0:0:0:
192,192,42811,1,0,0:0:0:0:
64,192,42903,128,0,42996:0:0:0:0:
192,192,42903,1,0,0:0:0:0:
320,192,42996,128,0,43088:0:0:0:0:
192,192,42996,1,0,0:0:0:0:
64,192,43088,1,0,0:0:0:0:
448,192,43088,1,0,0:0:0:0:
192,192,43088,1,0,0:0:0:0:
448,192,43212,128,0,43274:0:0:0:0:
320,192,43274,128,0,43335:0:0:0:0:
448,192,43335,128,0,43397:0:0:0:0:
320,192,43397,128,0,43459:0:0:0:0:
64,192,43459,128,0,44200:0:0:0:0:
192,192,43459,1,0,0:0:0:0:
448,192,43459,1,0,0:0:0:0:
448,192,44014,1,0,0:0:0:0:
192,192,44200,1,0,0:0:0:0:
320,192,44200,1,0,0:0:0:0:
320,192,44385,128,0,44477:0:0:0:0:
448,192,44385,128,0,44570:0:0:0:0:
192,192,44570,128,0,44663:0:0:0:0:
320,192,44570,1,0,0:0:0:0:
320,192,44663,128,0,44755:0:0:0:0:
64,192,44663,1,0,0:0:0:0:
192,192,44755,128,0,44848:0:0:0:0:
448,192,44755,1,0,0:0:0:0:
64,192,44848,1,0,0:0:0:0:
320,192,44848,1,0,0:0:0:0:
448,192,44848,128,0,45126:0:0:0:0:
320,192,45126,1,0,0:0:0:0:
192,192,45126,1,0,0:0:0:0:
64,192,45218,1,0,0:0:0:0:
192,192,45311,128,0,45403:0:0:0:0:
320,192,45403,128,0,45496:0:0:0:0:
448,192,45496,128,0,45588:0:0:0:0:
64,192,45496,1,0,0:0:0:0:
64,192,45681,1,0,0:0:0:0:
192,192,45681,1,0,0:0:0:0:
448,192,45681,1,0,0:0:0:0:
320,192,45774,1,0,0:0:0:0:
448,192,45866,1,0,0:0:0:0:
320,192,45959,1,0,0:0:0:0:
192,192,45959,1,0,0:0:0:0:
64,192,45959,1,0,0:0:0:0:
192,192,46144,1,0,0:0:0:0:
320,192,46237,1,0,0:0:0:0:
448,192,46237,1,0,0:0:0:0:
64,192,46237,1,0,0:0:0:0:
448,192,46422,128,0,47163:0:0:0:0:
192,192,46422,1,0,0:0:0:0:
320,192,46422,1,0,0:0:0:0:
192,192,47039,1,0,0:0:0:0:
64,192,47101,1,0,0:0:0:0:
192,192,47163,1,0,0:0:0:0:
320,192,47163,128,0,47440:0:0:0:0:
448,192,47348,128,0,47440:0:0:0:0:
192,192,47440,1,0,0:0:0:0:
64,192,47440,1,0,0:0:0:0:
448,192,47533,128,0,47903:0:0:0:0:
192,192,47718,1,0,0:0:0:0:
320,192,47718,1,0,0:0:0:0:
64,192,47718,128,0,47996:0:0:0:0:
320,192,47996,1,0,0:0:0:0:
448,192,47996,1,0,0:0:0:0:
192,192,48088,1,0,0:0:0:0:
64,192,48088,1,0,0:0:0:0:
448,192,48181,128,0,48274:0:0:0:0:
320,192,48274,128,0,48459:0:0:0:0:
64,192,48459,128,0,48644:0:0:0:0:
192,192,48459,1,0,0:0:0:0:
448,192,48459,1,0,0:0:0:0:
192,192,48644,1,0,0:0:0:0:
448,192,48644,1,0,0:0:0:0:
320,192,48644,128,0,48737:0:0:0:0:
192,192,48829,1,0,0:0:0:0:
448,192,48829,1,0,0:0:0:0:
320,192,48829,128,0,48922:0:0:0:0:
64,192,49014,128,0,49200:0:0:0:0:
192,192,49107,128,0,49200:0:0:0:0:
320,192,49200,128,0,49292:0:0:0:0:
448,192,49385,128,0,50126:0:0:0:0:
64,192,49385,1,0,0:0:0:0:
320,192,49385,1,0,0:0:0:0:
320,192,49940,1,0,0:0:0:0:
192,192,50126,1,0,0:0:0:0:
64,192,50126,1,0,0:0:0:0:
320,192,50311,128,0,50496:0:0:0:0:
448,192,50403,128,0,50496:0:0:0:0:
192,192,50496,128,0,50588:0:0:0:0:
64,192,50496,1,0,0:0:0:0:
64,192,50588,128,0,50681:0:0:0:0:
192,192,50681,128,0,50774:0:0:0:0:
320,192,50681,1,0,0:0:0:0:
64,192,50774,128,0,51144:0:0:0:0:
448,192,50774,1,0,0:0:0:0:
192,192,51144,1,0,0:0:0:0:
320,192,51144,1,0,0:0:0:0:
448,192,51237,128,0,51360:0:0:0:0:
320,192,51360,128,0,51484:0:0:0:0:
64,192,51422,1,0,0:0:0:0:
192,192,51484,128,0,51607:0:0:0:0:
64,192,51607,1,0,0:0:0:0:
448,192,51607,1,0,0:0:0:0:
320,192,51700,1,0,0:0:0:0:
192,192,51700,1,0,0:0:0:0:
64,192,51792,1,0,0:0:0:0:
192,192,51885,128,0,51977:0:0:0:0:
448,192,51977,1,0,0:0:0:0:
320,192,52070,1,0,0:0:0:0:
64,192,52070,1,0,0:0:0:0:
192,192,52163,128,0,52255:0:0:0:0:
448,192,52163,1,0,0:0:0:0:
320,192,52255,1,0,0:0:0:0:
64,192,52348,1,0,0:0:0:0:
192,192,52440,1,0,0:0:0:0:
320,192,52533,1,0,0:0:0:0:
448,192,52626,1,0,0:0:0:0:
64,192,52718,128,0,53459:0:0:0:0:
192,192,52718,1,0,0:0:0:0:
320,192,52718,1,0,0:0:0:0:
192,192,53088,1,0,0:0:0:0:
448,192,53088,1,0,0:0:0:0:
320,192,53274,1,0,0:0:0:0:
192,192,53366,1,0,0:0:0:0:
448,192,53366,1,0,0:0:0:0:
192,192,53459,128,0,53521:0:0:0:0:
320,192,53521,128,0,53582:0:0:0:0:
448,192,53582,128,0,53644:0:0:0:0:
64,192,53644,1,0,0:0:0:0:
320,192,53644,1,0,0:0:0:0:
192,192,53644,128,0,53829:0:0:0:0:
192,192,53922,1,0,0:0:0:0:
320,192,53922,1,0,0:0:0:0:
448,192,53922,1,0,0:0:0:0:
64,192,54014,1,0,0:0:0:0:
192,192,54107,128,0,54200:0:0:0:0:
320,192,54200,128,0,54385:0:0:0:0:
192,192,54385,128,0,54477:0:0:0:0:
64,192,54385,1,0,0:0:0:0:
448,192,54385,1,0,0:0:0:0:
320,192,54570,1,0,0:0:0:0:
64,192,54570,1,0,0:0:0:0:
448,192,54570,128,0,54663:0:0:0:0:
64,192,54663,128,0,54755:0:0:0:0:
448,192,54755,128,0,54848:0:0:0:0:
64,192,54848,128,0,54940:0:0:0:0:
192,192,54940,1,0,0:0:0:0:
448,192,54940,1,0,0:0:0:0:
320,192,55064,128,0,55126:0:0:0:0:
192,192,55126,128,0,55187:0:0:0:0:
320,192,55187,128,0,55249:0:0:0:0:
192,192,55249,128,0,55311:0:0:0:0:
64,192,55311,1,0,0:0:0:0:
320,192,55311,1,0,0:0:0:0:
448,192,55311,128,0,56051:0:0:0:0:
192,192,55866,1,0,0:0:0:0:
320,192,56051,1,0,0:0:0:0:
64,192,56051,1,0,0:0:0:0:
192,192,56051,128,0,56237:0:0:0:0:
64,192,56298,1,0,0:0:0:0:
320,192,56298,128,0,56484:0:0:0:0:
448,192,56298,1,0,0:0:0:0:
192,192,56545,1,0,0:0:0:0:
64,192,56545,1,0,0:0:0:0:
448,192,56545,128,0,56730:0:0:0:0:
320,192,56792,1,0,0:0:0:0:
192,192,56792,1,0,0:0:0:0:
64,192,56792,128,0,57533:0:0:0:0:
448,192,57163,128,0,57440:0:0:0:0:
320,192,57255,128,0,57440:0:0:0:0:
192,192,57348,128,0,57440:0:0:0:0:
448,192,57533,1,0,0:0:0:0:
320,192,57533,1,0,0:0:0:0:
192,192,57533,1,0,0:0:0:0:
64,192,57903,128,0,58181:0:0:0:0:
192,192,57996,128,0,58181:0:0:0:0:
320,192,58088,128,0,58181:0:0:0:0:
448,192,58181,128,0,58274:0:0:0:0:
64,192,58274,1,0,0:0:0:0:
320,192,58274,1,0,0:0:0:0:
192,192,58274,1,0,0:0:0:0:
448,192,58459,1,0,0:0:0:0:
320,192,58644,1,0,0:0:0:0:
64,192,58829,1,0,0:0:0:0:
192,192,59014,1,0,0:0:0:0:
448,192,59200,1,0,0:0:0:0:
64,192,59385,1,0,0:0:0:0:
320,192,59570,1,0,0:0:0:0:
448,192,59940,1,0,0:0:0:0:
320,192,60126,1,0,0:0:0:0:
192,192,60311,1,0,0:0:0:0:
64,192,60496,1,0,0:0:0:0:
320,192,60681,1,0,0:0:0:0:
192,192,60866,1,0,0:0:0:0:
448,192,61051,1,0,0:0:0:0:
64,192,61422,1,0,0:0:0:0:
192,192,61607,1,0,0:0:0:0:
320,192,61792,1,0,0:0:0:0:
448,192,61977,1,0,0:0:0:0:
192,192,62163,1,0,0:0:0:0:
320,192,62348,1,0,0:0:0:0:
64,192,62533,1,0,0:0:0:0:
448,192,62903,1,0,0:0:0:0:
64,192,63088,1,0,0:0:0:0:
320,192,63274,1,0,0:0:0:0:
192,192,63459,1,0,0:0:0:0:
448,192,63644,1,0,0:0:0:0:
192,192,63829,1,0,0:0:0:0:
320,192,64014,1,0,0:0:0:0:
448,192,64385,1,0,0:0:0:0:
320,192,64570,1,0,0:0:0:0:
192,192,64755,1,0,0:0:0:0:
320,192,64940,1,0,0:0:0:0:
64,192,65126,1,0,0:0:0:0:
192,192,65311,1,0,0:0:0:0:
448,192,65496,1,0,0:0:0:0:
64,192,65866,1,0,0:0:0:0:
192,192,66051,1,0,0:0:0:0:
320,192,66237,1,0,0:0:0:0:
192,192,66422,1,0,0:0:0:0:
448,192,66607,1,0,0:0:0:0:
320,192,66792,1,0,0:0:0:0:
64,192,66977,1,0,0:0:0:0:
448,192,67348,1,0,0:0:0:0:
320,192,67533,1,0,0:0:0:0:
192,192,67718,1,0,0:0:0:0:
64,192,67903,1,0,0:0:0:0:
320,192,68088,1,0,0:0:0:0:
192,192,68274,1,0,0:0:0:0:
448,192,68459,1,0,0:0:0:0:
64,192,68829,1,0,0:0:0:0:
192,192,69014,1,0,0:0:0:0:
320,192,69200,1,0,0:0:0:0:
448,192,69385,128,0,69940:0:0:0:0:
320,192,69755,128,0,69940:0:0:0:0:
64,192,69940,128,0,70126:0:0:0:0:
192,192,70126,1,0,0:0:0:0:
448,192,70126,1,0,0:0:0:0:
64,192,70496,1,0,0:0:0:0:
320,192,70496,1,0,0:0:0:0:
64,192,70866,1,0,0:0:0:0:
448,192,70866,1,0,0:0:0:0:
320,192,71144,1,0,0:0:0:0:
448,192,71144,1,0,0:0:0:0:
192,192,71422,1,0,0:0:0:0:
320,192,71422,1,0,0:0:0:0:
64,192,71607,1,0,0:0:0:0:
192,192,71607,1,0,0:0:0:0:
192,192,71977,1,0,0:0:0:0:
320,192,71977,1,0,0:0:0:0:
192,192,72348,1,0,0:0:0:0:
448,192,72348,1,0,0:0:0:0:
64,192,72626,1,0,0:0:0:0:
192,192,72626,1,0,0:0:0:0:
320,192,72903,1,0,0:0:0:0:
192,192,72903,1,0,0:0:0:0:
320,192,73088,1,0,0:0:0:0:
448,192,73088,1,0,0:0:0:0:
64,192,73459,1,0,0:0:0:0:
320,192,73459,1,0,0:0:0:0:
192,192,73829,1,0,0:0:0:0:
320,192,73829,1,0,0:0:0:0:
64,192,74107,1,0,0:0:0:0:
448,192,74107,1,0,0:0:0:0:
320,192,74385,1,0,0:0:0:0:
448,192,74385,1,0,0:0:0:0:
64,192,74570,1,0,0:0:0:0:
192,192,74570,1,0,0:0:0:0:
192,192,74940,1,0,0:0:0:0:
320,192,74940,1,0,0:0:0:0:
64,192,75311,1,0,0:0:0:0:
192,192,75357,1,0,0:0:0:0:
320,192,75403,1,0,0:0:0:0:
448,192,75496,1,0,0:0:0:0:
320,192,75588,1,0,0:0:0:0:
192,192,75774,1,0,0:0:0:0:
64,192,75959,1,0,0:0:0:0:
320,192,76144,1,0,0:0:0:0:
448,192,76144,1,0,0:0:0:0:
192,192,76329,1,0,0:0:0:0:
64,192,76329,1,0,0:0:0:0:
320,192,76607,1,0,0:0:0:0:
448,192,76607,1,0,0:0:0:0:
192,192,76885,1,0,0:0:0:0:
64,192,76885,1,0,0:0:0:0:
320,192,77163,1,0,0:0:0:0:
448,192,77163,1,0,0:0:0:0:
192,192,77348,1,0,0:0:0:0:
64,192,77348,1,0,0:0:0:0:
448,192,77626,1,0,0:0:0:0:
192,192,77626,1,0,0:0:0:0:
64,192,77811,1,0,0:0:0:0:
320,192,77811,1,0,0:0:0:0:
448,192,77996,1,0,0:0:0:0:
192,192,77996,1,0,0:0:0:0:
64,192,78274,1,0,0:0:0:0:
320,192,78274,1,0,0:0:0:0:
448,192,78551,1,0,0:0:0:0:
192,192,78551,1,0,0:0:0:0:
64,192,78737,1,0,0:0:0:0:
320,192,78737,1,0,0:0:0:0:
192,192,78829,1,0,0:0:0:0:
448,192,78829,1,0,0:0:0:0:
448,192,79107,1,0,0:0:0:0:
192,192,79107,1,0,0:0:0:0:
320,192,79292,1,0,0:0:0:0:
192,192,79292,1,0,0:0:0:0:
64,192,79477,1,0,0:0:0:0:
320,192,79477,1,0,0:0:0:0:
64,192,79663,1,0,0:0:0:0:
192,192,79663,1,0,0:0:0:0:
192,192,79848,1,0,0:0:0:0:
448,192,79848,1,0,0:0:0:0:
320,192,79940,1,0,0:0:0:0:
448,192,80033,1,0,0:0:0:0:
192,192,80033,1,0,0:0:0:0:
320,192,80126,1,0,0:0:0:0:
64,192,80126,1,0,0:0:0:0:
192,192,80218,1,0,0:0:0:0:
320,192,80218,1,0,0:0:0:0:
64,192,80311,1,0,0:0:0:0:
448,192,80311,1,0,0:0:0:0:
192,192,80403,1,0,0:0:0:0:
320,192,80403,1,0,0:0:0:0:
64,192,80496,1,0,0:0:0:0:
192,192,80496,1,0,0:0:0:0:
448,192,80496,1,0,0:0:0:0:
320,192,80588,1,0,0:0:0:0:
448,192,80588,1,0,0:0:0:0:
64,192,80681,1,0,0:0:0:0:
192,192,80681,1,0,0:0:0:0:
320,192,80774,1,0,0:0:0:0:
448,192,80774,1,0,0:0:0:0:
64,192,80774,1,0,0:0:0:0:
64,192,80866,1,0,0:0:0:0:
192,192,80866,1,0,0:0:0:0:
448,192,80959,1,0,0:0:0:0:
192,192,80959,1,0,0:0:0:0:
320,192,81051,1,0,0:0:0:0:
64,192,81051,1,0,0:0:0:0:
448,192,81051,1,0,0:0:0:0:
192,192,81144,1,0,0:0:0:0:
448,192,81144,1,0,0:0:0:0:
448,192,81237,1,0,0:0:0:0:
320,192,81237,1,0,0:0:0:0:
192,192,81237,1,0,0:0:0:0:
64,192,81329,128,0,81422:0:0:0:0:
192,192,81422,128,0,81514:0:0:0:0:
64,192,81514,128,0,81607:0:0:0:0:
320,192,81514,128,0,81607:0:0:0:0:
192,192,81607,128,0,81700:0:0:0:0:
448,192,81607,128,0,81700:0:0:0:0:
64,192,81700,128,0,81792:0:0:0:0:
320,192,81700,128,0,81792:0:0:0:0:
192,192,81792,128,0,81885:0:0:0:0:
64,192,81885,128,0,81977:0:0:0:0:
320,192,81977,1,0,0:0:0:0:
192,192,81977,128,0,82163:0:0:0:0:
448,192,82070,1,0,0:0:0:0:
320,192,82163,1,0,0:0:0:0:
192,192,82255,1,0,0:0:0:0:
64,192,82348,1,0,0:0:0:0:
320,192,82348,1,0,0:0:0:0:
448,192,82348,1,0,0:0:0:0:
192,192,82440,128,0,82533:0:0:0:0:
320,192,82533,1,0,0:0:0:0:
192,192,82626,128,0,82718:0:0:0:0:
320,192,82718,1,0,0:0:0:0:
64,192,82718,1,0,0:0:0:0:
448,192,82718,1,0,0:0:0:0:
192,192,82811,128,0,82903:0:0:0:0:
320,192,82903,128,0,82996:0:0:0:0:
448,192,82996,128,0,83088:0:0:0:0:
64,192,83088,1,0,0:0:0:0:
192,192,83088,1,0,0:0:0:0:
320,192,83088,128,0,83181:0:0:0:0:
448,192,83181,128,0,83274:0:0:0:0:
320,192,83274,128,0,83366:0:0:0:0:
192,192,83366,128,0,83459:0:0:0:0:
320,192,83459,1,0,0:0:0:0:
448,192,83459,1,0,0:0:0:0:
64,192,83459,1,0,0:0:0:0:
192,192,83551,128,0,83644:0:0:0:0:
320,192,83644,1,0,0:0:0:0:
448,192,83737,128,0,83829:0:0:0:0:
64,192,83829,1,0,0:0:0:0:
320,192,83829,1,0,0:0:0:0:
192,192,83829,1,0,0:0:0:0:
448,192,83922,128,0,84014:0:0:0:0:
320,192,84014,1,0,0:0:0:0:
192,192,84107,128,0,84200:0:0:0:0:
320,192,84200,1,0,0:0:0:0:
64,192,84200,1,0,0:0:0:0:
448,192,84200,1,0,0:0:0:0:
192,192,84292,128,0,84385:0:0:0:0:
320,192,84385,128,0,84477:0:0:0:0:
64,192,84477,128,0,84570:0:0:0:0:
192,192,84570,1,0,0:0:0:0:
320,192,84570,1,0,0:0:0:0:
448,192,84570,128,0,84663:0:0:0:0:
64,192,84663,128,0,84755:0:0:0:0:
192,192,84755,128,0,84848:0:0:0:0:
320,192,84848,128,0,84940:0:0:0:0:
192,192,84940,1,0,0:0:0:0:
64,192,84940,1,0,0:0:0:0:
448,192,84940,1,0,0:0:0:0:
320,192,85033,128,0,85126:0:0:0:0:
192,192,85126,1,0,0:0:0:0:
448,192,85218,128,0,85311:0:0:0:0:
192,192,85311,1,0,0:0:0:0:
320,192,85311,1,0,0:0:0:0:
64,192,85311,1,0,0:0:0:0:
448,192,85403,128,0,85496:0:0:0:0:
320,192,85496,1,0,0:0:0:0:
192,192,85588,128,0,85681:0:0:0:0:
320,192,85681,1,0,0:0:0:0:
448,192,85681,1,0,0:0:0:0:
64,192,85681,1,0,0:0:0:0:
192,192,85774,128,0,85866:0:0:0:0:
320,192,85866,128,0,85959:0:0:0:0:
448,192,85959,128,0,86051:0:0:0:0:
192,192,86051,1,0,0:0:0:0:
64,192,86051,1,0,0:0:0:0:
320,192,86051,128,0,86144:0:0:0:0:
192,192,86144,128,0,86237:0:0:0:0:
64,192,86237,128,0,86329:0:0:0:0:
192,192,86329,128,0,86422:0:0:0:0:
64,192,86422,1,0,0:0:0:0:
448,192,86422,1,0,0:0:0:0:
320,192,86422,1,0,0:0:0:0:
192,192,86514,128,0,86607:0:0:0:0:
320,192,86607,1,0,0:0:0:0:
448,192,86700,128,0,86792:0:0:0:0:
320,192,86792,1,0,0:0:0:0:
64,192,86792,1,0,0:0:0:0:
192,192,86792,1,0,0:0:0:0:
448,192,86885,128,0,86977:0:0:0:0:
320,192,86977,1,0,0:0:0:0:
192,192,87070,128,0,87163:0:0:0:0:
448,192,87163,1,0,0:0:0:0:
64,192,87163,1,0,0:0:0:0:
320,192,87163,1,0,0:0:0:0:
192,192,87255,128,0,87348:0:0:0:0:
320,192,87348,1,0,0:0:0:0:
448,192,87440,128,0,87533:0:0:0:0:
192,192,87533,1,0,0:0:0:0:
64,192,87533,1,0,0:0:0:0:
320,192,87533,128,0,87626:0:0:0:0:
448,192,87626,128,0,87718:0:0:0:0:
192,192,87718,128,0,87811:0:0:0:0:
320,192,87811,128,0,87903:0:0:0:0:
192,192,87903,1,0,0:0:0:0:
64,192,87903,1,0,0:0:0:0:
448,192,87903,1,0,0:0:0:0:
320,192,87996,128,0,88088:0:0:0:0:
192,192,88088,1,0,0:0:0:0:
448,192,88181,128,0,88274:0:0:0:0:
64,192,88274,1,0,0:0:0:0:
320,192,88274,1,0,0:0:0:0:
192,192,88274,1,0,0:0:0:0:
448,192,88366,128,0,88459:0:0:0:0:
320,192,88459,1,0,0:0:0:0:
192,192,88551,128,0,88644:0:0:0:0:
320,192,88644,1,0,0:0:0:0:
64,192,88644,1,0,0:0:0:0:
448,192,88644,1,0,0:0:0:0:
448,192,88737,128,0,88829:0:0:0:0:
320,192,88829,128,0,88922:0:0:0:0:
192,192,88922,128,0,89014:0:0:0:0:
320,192,89014,1,0,0:0:0:0:
64,192,89014,128,0,89107:0:0:0:0:
448,192,89014,1,0,0:0:0:0:
192,192,89107,128,0,89200:0:0:0:0:
320,192,89200,128,0,89292:0:0:0:0:
192,192,89292,128,0,89385:0:0:0:0:
320,192,89385,1,0,0:0:0:0:
64,192,89385,1,0,0:0:0:0:
448,192,89385,1,0,0:0:0:0:
192,192,89477,128,0,89570:0:0:0:0:
320,192,89570,1,0,0:0:0:0:
448,192,89663,128,0,89755:0:0:0:0:
64,192,89755,1,0,0:0:0:0:
320,192,89755,1,0,0:0:0:0:
192,192,89755,1,0,0:0:0:0:
448,192,89848,128,0,89940:0:0:0:0:
320,192,89940,1,0,0:0:0:0:
192,192,90033,128,0,90126:0:0:0:0:
64,192,90126,1,0,0:0:0:0:
320,192,90126,1,0,0:0:0:0:
448,192,90126,1,0,0:0:0:0:
192,192,90218,128,0,90311:0:0:0:0:
320,192,90311,128,0,90403:0:0:0:0:
64,192,90403,128,0,90496:0:0:0:0:
448,192,90496,1,0,0:0:0:0:
192,192,90496,1,0,0:0:0:0:
320,192,90496,128,0,90588:0:0:0:0:
64,192,90588,128,0,90681:0:0:0:0:
192,192,90681,128,0,90774:0:0:0:0:
320,192,90774,128,0,90866:0:0:0:0:
192,192,90866,1,0,0:0:0:0:
448,192,90866,1,0,0:0:0:0:
64,192,90866,1,0,0:0:0:0:
320,192,90959,128,0,91051:0:0:0:0:
448,192,91051,1,0,0:0:0:0:
192,192,91144,128,0,91237:0:0:0:0:
320,192,91237,1,0,0:0:0:0:
64,192,91237,1,0,0:0:0:0:
448,192,91237,1,0,0:0:0:0:
192,192,91329,128,0,91422:0:0:0:0:
320,192,91422,1,0,0:0:0:0:
64,192,91514,128,0,91607:0:0:0:0:
192,192,91607,1,0,0:0:0:0:
448,192,91607,1,0,0:0:0:0:
320,192,91607,1,0,0:0:0:0:
64,192,91700,128,0,91792:0:0:0:0:
192,192,91792,128,0,91885:0:0:0:0:
320,192,91885,128,0,91977:0:0:0:0:
192,192,91977,1,0,0:0:0:0:
64,192,91977,1,0,0:0:0:0:
448,192,91977,128,0,92070:0:0:0:0:
320,192,92070,128,0,92163:0:0:0:0:
192,192,92163,128,0,92255:0:0:0:0:
64,192,92255,128,0,92533:0:0:0:0:
192,192,92348,1,0,0:0:0:0:
448,192,92348,1,0,0:0:0:0:
320,192,92348,1,0,0:0:0:0:
192,192,92533,1,0,0:0:0:0:
320,192,92626,128,0,92718:0:0:0:0:
192,192,92718,1,0,0:0:0:0:
64,192,92718,1,0,0:0:0:0:
448,192,92718,128,0,92811:0:0:0:0:
320,192,92811,128,0,92903:0:0:0:0:
192,192,92903,128,0,92996:0:0:0:0:
64,192,92996,128,0,93088:0:0:0:0:
192,192,93088,1,0,0:0:0:0:
448,192,93088,1,0,0:0:0:0:
320,192,93088,128,0,93181:0:0:0:0:
64,192,93181,128,0,93274:0:0:0:0:
192,192,93274,128,0,93366:0:0:0:0:
448,192,93366,128,0,93459:0:0:0:0:
320,192,93459,1,0,0:0:0:0:
192,192,93459,1,0,0:0:0:0:
64,192,93459,1,0,0:0:0:0:
64,192,93644,128,0,93829:0:0:0:0:
192,192,93737,128,0,93829:0:0:0:0:
448,192,93829,128,0,94200:0:0:0:0:
320,192,94200,1,0,0:0:0:0:
192,192,94200,1,0,0:0:0:0:
64,192,94292,1,0,0:0:0:0:
192,192,94385,1,0,0:0:0:0:
320,192,94477,1,0,0:0:0:0:
448,192,94570,1,0,0:0:0:0:
64,192,94570,1,0,0:0:0:0:
192,192,94570,1,0,0:0:0:0:
320,192,94663,1,0,0:0:0:0:
192,192,94755,1,0,0:0:0:0:
64,192,94848,1,0,0:0:0:0:
320,192,94848,1,0,0:0:0:0:
448,192,94848,1,0,0:0:0:0:
192,192,94940,1,0,0:0:0:0:
320,192,95033,1,0,0:0:0:0:
448,192,95126,1,0,0:0:0:0:
192,192,95126,1,0,0:0:0:0:
64,192,95126,1,0,0:0:0:0:
320,192,95218,1,0,0:0:0:0:
192,192,95311,1,0,0:0:0:0:
448,192,95311,1,0,0:0:0:0:
64,192,95311,1,0,0:0:0:0:
320,192,95403,1,0,0:0:0:0:
192,192,95496,1,0,0:0:0:0:
64,192,95588,1,0,0:0:0:0:
192,192,95681,1,0,0:0:0:0:
320,192,95681,1,0,0:0:0:0:
448,192,95774,1,0,0:0:0:0:
320,192,95866,1,0,0:0:0:0:
192,192,95959,1,0,0:0:0:0:
64,192,96051,1,0,0:0:0:0:
320,192,96051,1,0,0:0:0:0:
448,192,96051,1,0,0:0:0:0:
192,192,96144,1,0,0:0:0:0:
320,192,96237,1,0,0:0:0:0:
192,192,96329,1,0,0:0:0:0:
64,192,96329,1,0,0:0:0:0:
448,192,96329,1,0,0:0:0:0:
320,192,96422,1,0,0:0:0:0:
192,192,96514,1,0,0:0:0:0:
64,192,96607,1,0,0:0:0:0:
320,192,96607,1,0,0:0:0:0:
448,192,96607,1,0,0:0:0:0:
192,192,96700,1,0,0:0:0:0:
320,192,96792,1,0,0:0:0:0:
448,192,96792,1,0,0:0:0:0:
64,192,96792,1,0,0:0:0:0:
192,192,96885,1,0,0:0:0:0:
320,192,96977,1,0,0:0:0:0:
448,192,97070,1,0,0:0:0:0:
320,192,97163,1,0,0:0:0:0:
192,192,97163,1,0,0:0:0:0:
64,192,97163,1,0,0:0:0:0:
448,192,97255,1,0,0:0:0:0:
320,192,97348,1,0,0:0:0:0:
192,192,97440,1,0,0:0:0:0:
320,192,97533,1,0,0:0:0:0:
448,192,97533,1,0,0:0:0:0:
64,192,97533,1,0,0:0:0:0:
192,192,97626,1,0,0:0:0:0:
320,192,97718,1,0,0:0:0:0:
192,192,97811,1,0,0:0:0:0:
64,192,97811,1,0,0:0:0:0:
448,192,97811,1,0,0:0:0:0:
320,192,97903,1,0,0:0:0:0:
192,192,97996,1,0,0:0:0:0:
64,192,98088,1,0,0:0:0:0:
320,192,98088,1,0,0:0:0:0:
448,192,98088,1,0,0:0:0:0:
192,192,98181,1,0,0:0:0:0:
320,192,98274,1,0,0:0:0:0:
448,192,98274,1,0,0:0:0:0:
64,192,98274,1,0,0:0:0:0:
192,192,98366,1,0,0:0:0:0:
320,192,98459,1,0,0:0:0:0:
448,192,98551,1,0,0:0:0:0:
320,192,98644,1,0,0:0:0:0:
64,192,98644,1,0,0:0:0:0:
192,192,98644,1,0,0:0:0:0:
448,192,98737,1,0,0:0:0:0:
320,192,98829,1,0,0:0:0:0:
192,192,98922,1,0,0:0:0:0:
320,192,99014,1,0,0:0:0:0:
448,192,99014,1,0,0:0:0:0:
64,192,99014,1,0,0:0:0:0:
64,192,99107,1,0,0:0:0:0:
192,192,99107,1,0,0:0:0:0:
320,192,99200,1,0,0:0:0:0:
192,192,99292,1,0,0:0:0:0:
64,192,99292,1,0,0:0:0:0:
320,192,99385,1,0,0:0:0:0:
448,192,99385,1,0,0:0:0:0:
192,192,99477,1,0,0:0:0:0:
64,192,99477,1,0,0:0:0:0:
320,192,99570,1,0,0:0:0:0:
448,192,99570,1,0,0:0:0:0:
192,192,99663,1,0,0:0:0:0:
320,192,99755,1,0,0:0:0:0:
448,192,99755,1,0,0:0:0:0:
64,192,99755,128,0,100496:0:0:0:0:
320,192,100403,1,0,0:0:0:0:
192,192,100450,1,0,0:0:0:0:
320,192,100496,1,0,0:0:0:0:
448,192,100496,1,0,0:0:0:0:
192,192,100681,1,0,0:0:0:0:
192,192,101422,1,0,0:0:0:0:
320,192,101607,128,0,101700:0:0:0:0:
192,192,101792,1,0,0:0:0:0:
320,192,101792,1,0,0:0:0:0:
64,192,101977,1,0,0:0:0:0:
320,192,101977,1,0,0:0:0:0:
448,192,101977,128,0,102070:0:0:0:0:
320,192,102070,128,0,102163:0:0:0:0:
448,192,102163,128,0,102255:0:0:0:0:
320,192,102255,128,0,102348:0:0:0:0:
64,192,102348,128,0,102440:0:0:0:0:
192,192,102440,128,0,102533:0:0:0:0:
64,192,102533,128,0,102626:0:0:0:0:
192,192,102626,128,0,102718:0:0:0:0:
320,192,102718,1,0,0:0:0:0:
448,192,102718,128,0,103459:0:0:0:0:
64,192,102718,1,0,0:0:0:0:
192,192,103274,1,0,0:0:0:0:
320,192,103459,1,0,0:0:0:0:
64,192,103459,1,0,0:0:0:0:
192,192,104107,1,0,0:0:0:0:
64,192,104477,1,0,0:0:0:0:
192,192,104570,1,0,0:0:0:0:
448,192,104755,1,0,0:0:0:0:
320,192,104940,1,0,0:0:0:0:
448,192,104940,1,0,0:0:0:0:
64,192,104940,1,0,0:0:0:0:
192,192,105033,1,0,0:0:0:0:
320,192,105126,1,0,0:0:0:0:
448,192,105311,1,0,0:0:0:0:
192,192,105311,1,0,0:0:0:0:
64,192,105311,1,0,0:0:0:0:
320,192,105403,1,0,0:0:0:0:
192,192,105496,1,0,0:0:0:0:
64,192,105496,1,0,0:0:0:0:
448,192,105496,1,0,0:0:0:0:
192,192,105681,1,0,0:0:0:0:
320,192,105681,1,0,0:0:0:0:
448,192,105681,1,0,0:0:0:0:
64,192,105866,1,0,0:0:0:0:
192,192,106051,1,0,0:0:0:0:
448,192,106237,1,0,0:0:0:0:
64,192,106792,1,0,0:0:0:0:
192,192,106977,1,0,0:0:0:0:
320,192,107163,1,0,0:0:0:0:
64,192,107718,1,0,0:0:0:0:
320,192,107903,1,0,0:0:0:0:
448,192,108088,1,0,0:0:0:0:
192,192,108644,1,0,0:0:0:0:
320,192,108829,1,0,0:0:0:0:
448,192,109014,1,0,0:0:0:0:
64,192,109570,1,0,0:0:0:0:
192,192,109755,1,0,0:0:0:0:
320,192,109940,1,0,0:0:0:0:
448,192,109940,1,0,0:0:0:0:
192,192,110033,1,0,0:0:0:0:
320,192,110126,1,0,0:0:0:0:
448,192,110126,1,0,0:0:0:0:
64,192,110126,128,0,110311:0:0:0:0:
192,192,110311,128,0,110496:0:0:0:0:
320,192,110496,128,0,110588:0:0:0:0:
448,192,110588,128,0,110681:0:0:0:0:
320,192,110681,128,0,111051:0:0:0:0:
448,192,110866,128,0,111051:0:0:0:0:
64,192,111051,128,0,111237:0:0:0:0:
192,192,111237,128,0,111329:0:0:0:0:
320,192,111329,128,0,111422:0:0:0:0:
448,192,111422,1,0,0:0:0:0:
