osu file format v14

[General]
AudioFilename: Camellia - NITROUS CANNON.mp3
AudioLeadIn: 0
PreviewTime: 24275
Countdown: 0
SampleSet: Normal
StackLeniency: 0.7
Mode: 1
LetterboxInBreaks: 0
WidescreenStoryboard: 0

[Editor]
DistanceSpacing: 1
BeatDivisor: 4
GridSize: 32
TimelineZoom: 3.399999

[Metadata]
Title:NITROUS CANNON
TitleUnicode:NITROUS CANNON
Artist:Camellia
ArtistUnicode:かめりあ
Creator:aabc271
Version:Inner Oni+
Source:beatmania IIDX 25 CANNON BALLERS
Tags:Taiko MACHINEGUN PSYSTYLE CB Car Audi R8 Dyscontrolled Galaxy
BeatmapID:1672559
BeatmapSetID:796496

[Difficulty]
HPDrainRate:5
CircleSize:5
OverallDifficulty:6
ApproachRate:7
SliderMultiplier:1.4
SliderTickRate:1

[Events]
//Background and Video events
0,0,"BG.png",0,115
//Break Periods
//Storyboard Layer 0 (Background)
//Storyboard Layer 1 (Fail)
//Storyboard Layer 2 (Pass)
//Storyboard Layer 3 (Foreground)
//Storyboard Sound Samples

[TimingPoints]
400,355.029585798817,4,1,0,80,1,0
400,-119.047619047619,4,1,0,80,0,0
3240,-100,4,1,0,84,0,0
14601,-83.3333333333333,4,1,0,94,0,0
20281,-80.6451612903226,4,1,0,96,0,0
20370,-80.4828973843058,4,1,0,96,0,0
20459,-80.3212851405622,4,1,0,96,0,0
20547,-80.1603206412826,4,1,0,96,0,0
20636,-80,4,1,0,96,0,0
20725,-79.8403193612774,4,1,0,96,0,0
20814,-79.6812749003984,4,1,0,96,0,0
20991,-78.125,4,1,0,96,0,0
21080,-77.9727095516569,4,1,0,96,0,0
21169,-77.8210116731518,4,1,0,96,0,0
21257,-77.6699029126214,4,1,0,96,0,0
21346,-77.5193798449612,4,1,0,96,0,0
21405,-77.4193548387097,4,1,0,96,0,0
21465,-77.319587628866,4,1,0,96,0,0
21524,-77.2200772200772,4,1,0,96,0,0
21701,-75.7575757575758,4,1,0,97,0,0
21790,-75.6143667296786,4,1,0,97,0,0
21879,-75.4716981132075,4,1,0,97,0,0
21968,-75.3295668549906,4,1,0,97,0,0
22056,-75.187969924812,4,1,0,97,0,0
22145,-75.046904315197,4,1,0,97,0,0
22234,-74.9063670411985,4,1,0,97,0,0
22323,-74.7663551401869,4,1,0,97,0,0
22411,-74.6268656716418,4,1,0,97,0,0
22500,-74.487895716946,4,1,0,97,0,0
22589,-74.3494423791822,4,1,0,97,0,0
22678,-74.2115027829314,4,1,0,97,0,0
22766,-74.0740740740741,4,1,0,97,0,0
22826,-74.0009866798224,4,1,0,97,0,0
22885,-73.8916256157635,4,1,0,97,0,0
22944,-73.8007380073801,4,1,0,97,0,0
23121,-72.463768115942,4,1,0,98,0,0
23210,-72.332730560579,4,1,0,98,0,0
23299,-72.202166064982,4,1,0,98,0,0
23388,-72.072072072072,4,1,0,98,0,0
23476,-71.942446043165,4,1,0,98,0,0
23565,-71.81328545781,4,1,0,98,0,0
23654,-71.68458781362,4,1,0,98,0,0
23743,-71.556350626118,4,1,0,98,0,0
23831,-71.428571428571,4,1,0,98,0,0
23920,-71.301247771836,4,1,0,98,0,0
24009,-71.174377224199,4,1,0,98,0,0
24098,-71.047957371226,4,1,0,98,0,0
24186,-70.921985815603,4,1,0,98,0,0
24246,-70.838252656434,4,1,0,98,0,0
24305,-70.754716981132,4,1,0,98,0,0
24364,-70.671378091878,4,1,0,98,0,0
25607,-62.5,4,1,0,98,0,0
25962,-89.2857142857143,4,1,0,86,0,0
26139,-88.8888888888889,4,1,0,86,0,0
26228,-88.6917960088692,4,1,0,86,0,0
26317,-88.4955752212389,4,1,0,86,0,0
26494,-88.1057268722467,4,1,0,86,0,0
26583,-87.9120879120879,4,1,0,86,0,0
26672,-87.7192982456141,4,1,0,86,0,0
26760,-87.527352297593,4,1,0,86,0,0
26849,-87.3362445414847,4,1,0,86,0,0
27027,-86.9565217391304,4,1,0,86,0,0
27204,-86.5800865800866,4,1,0,86,0,0
27293,-86.3930885529158,4,1,0,86,0,0
27382,-86.2068965517241,4,1,0,86,0,0
27471,-86.0215053763442,4,1,0,86,0,0
27559,-85.8369098712447,4,1,0,86,0,0
27648,-85.6531049250536,4,1,0,86,0,0
27737,-85.4700854700855,4,1,0,86,0,0
27914,-85.1063829787235,4,1,0,86,0,0
28003,-84.9256900212315,4,1,0,86,0,0
28092,-84.7457627118645,4,1,0,86,0,0
28181,-84.5665961945033,4,1,0,86,0,0
28269,-84.3881856540085,4,1,0,86,0,0
28358,-84.2105263157896,4,1,0,86,0,0
28447,-84.0336134453781,4,1,0,86,0,0
28624,-83.6820083682009,4,1,0,86,0,0
28802,-87.719298245614,4,1,0,86,0,0
28979,-87.3362445414847,4,1,0,86,0,0
29068,-87.1459694989107,4,1,0,86,0,0
29157,-86.9565217391304,4,1,0,86,0,0
29334,-86.5800865800866,4,1,0,86,0,0
29423,-86.3930885529158,4,1,0,86,0,0
29512,-86.2068965517241,4,1,0,86,0,0
29601,-86.0215053763442,4,1,0,86,0,0
29689,-85.8369098712447,4,1,0,86,0,0
29867,-85.4700854700855,4,1,0,86,0,0
30044,-85.1063829787235,4,1,0,86,0,0
30133,-84.9256900212315,4,1,0,86,0,0
30222,-84.7457627118644,4,1,0,86,0,0
30311,-84.5665961945033,4,1,0,86,0,0
30400,-84.3881856540085,4,1,0,86,0,0
30488,-84.2105263157896,4,1,0,86,0,0
30577,-84.0336134453781,4,1,0,86,0,0
30755,-83.6820083682009,4,1,0,86,0,0
30843,-83.5073068893529,4,1,0,86,0,0
30932,-83.3333333333333,4,1,0,86,0,0
31021,-83.1600831600833,4,1,0,86,0,0
31110,-82.98755186722,4,1,0,86,0,0
31198,-82.8157349896481,4,1,0,86,0,0
31287,-82.6446280991736,4,1,0,86,0,0
31376,-82.4742268041238,4,1,0,86,0,0
31465,-82.3045267489713,4,1,0,86,0,0
31642,-81.9672131147541,4,1,0,86,0,0
32352,-86.2068965517241,4,1,0,86,0,0
32441,-86.0215053763442,4,1,0,86,0,0
32530,-85.8369098712447,4,1,0,86,0,0
32707,-85.4700854700855,4,1,0,86,0,0
32885,-85.1063829787235,4,1,0,86,0,0
32973,-84.9256900212315,4,1,0,86,0,0
33062,-84.7457627118644,4,1,0,86,0,0
33151,-84.5665961945033,4,1,0,86,0,0
33240,-84.3881856540085,4,1,0,86,0,0
33417,-84.0336134453781,4,1,0,86,0,0
33595,-83.6820083682009,4,1,0,86,0,0
33684,-83.5073068893529,4,1,0,86,0,0
33772,-83.3333333333333,4,1,0,86,0,0
33861,-83.1600831600833,4,1,0,86,0,0
33950,-82.98755186722,4,1,0,86,0,0
34039,-82.8157349896481,4,1,0,86,0,0
34127,-82.6446280991736,4,1,0,86,0,0
34216,-82.4742268041238,4,1,0,86,0,0
34305,-82.3045267489713,4,1,0,86,0,0
34482,-81.9672131147541,4,1,0,86,0,0
36613,-81.9672131147541,4,1,0,66,0,0
37056,-86.2068965517241,4,1,0,88,0,0
37500,-85.8369098712447,4,1,0,88,0,0
37589,-85.6531049250536,4,1,0,88,0,0
37678,-85.4700854700855,4,1,0,88,0,0
38033,-84.7457627118644,4,1,0,88,0,0
38121,-84.5665961945033,4,1,0,88,0,0
38210,-84.3881856540085,4,1,0,88,0,0
38388,-84.0336134453781,4,1,0,88,0,0
38565,-83.6820083682009,4,1,0,88,0,0
38654,-83.5073068893529,4,1,0,88,0,0
38743,-83.3333333333333,4,1,0,88,0,0
38831,-83.1600831600833,4,1,0,88,0,0
38920,-82.98755186722,4,1,0,88,0,0
39098,-82.6446280991736,4,1,0,88,0,0
39275,-82.3045267489713,4,1,0,88,0,0
39364,-82.1355236139632,4,1,0,88,0,0
39453,-81.9672131147541,4,1,0,88,0,0
39542,-81.7995910020451,4,1,0,88,0,0
39630,-81.6326530612246,4,1,0,88,0,0
39719,-81.4663951120164,4,1,0,88,0,0
39808,-81.3008130081301,4,1,0,88,0,0
39985,-80.9716599190285,4,1,0,88,0,0
40163,-80.6451612903226,4,1,0,88,0,0
40873,-84.7457627118644,4,1,0,88,0,0
40962,-84.5665961945033,4,1,0,88,0,0
41050,-84.3881856540085,4,1,0,88,0,0
41228,-84.0336134453781,4,1,0,88,0,0
41405,-83.6820083682009,4,1,0,88,0,0
41494,-83.5073068893529,4,1,0,88,0,0
41583,-83.3333333333333,4,1,0,88,0,0
41672,-83.1600831600833,4,1,0,88,0,0
41760,-82.98755186722,4,1,0,88,0,0
41849,-82.8157349896481,4,1,0,88,0,0
42027,-82.4742268041238,4,1,0,88,0,0
42115,-82.3045267489713,4,1,0,88,0,0
42204,-82.1355236139632,4,1,0,88,0,0
42293,-81.9672131147542,4,1,0,88,0,0
42471,-81.6326530612246,4,1,0,88,0,0
42559,-81.4663951120164,4,1,0,88,0,0
42648,-81.3008130081301,4,1,0,88,0,0
42737,-81.135902636917,4,1,0,88,0,0
42826,-80.9716599190285,4,1,0,88,0,0
43003,-80.6451612903226,4,1,0,88,0,0
43713,-83.3333333333333,4,1,0,88,0,0
43802,-83.1600831600833,4,1,0,88,0,0
43891,-82.98755186722,4,1,0,88,0,0
44068,-82.6446280991736,4,1,0,88,0,0
44246,-82.3045267489713,4,1,0,88,0,0
44334,-82.1355236139632,4,1,0,88,0,0
44423,-81.9672131147542,4,1,0,88,0,0
44601,-81.6326530612246,4,1,0,88,0,0
44778,-81.3008130081301,4,1,0,88,0,0
44956,-80.9716599190285,4,1,0,88,0,0
45044,-80.808080808081,4,1,0,88,0,0
45133,-80.6451612903226,4,1,0,88,0,0
45222,-80.482897384306,4,1,0,88,0,0
45311,-80.3212851405624,4,1,0,88,0,0
45400,-80.1603206412827,4,1,0,88,0,0
45488,-80,4,1,0,88,0,0
45577,-79.8403193612776,4,1,0,88,0,0
45666,-79.6812749003986,4,1,0,88,0,0
45843,-79.3650793650794,4,1,0,88,0,0
47263,-79.3650793650794,4,1,0,76,0,0
48328,-89.2857142857143,4,1,0,66,0,0
48684,-89.2857142857143,4,1,0,66,0,0
49749,-90.9090909090909,4,1,0,66,0,0
50104,-91.743119266055,4,1,0,66,0,0
50459,-92.5925925925926,4,1,0,66,0,0
51169,-93.4579439252336,4,1,0,66,0,0
52589,-94.3396226415094,4,1,0,66,0,0
52944,-94.3396226415094,4,1,0,52,0,0
53743,-94.3396226415094,4,1,0,66,0,0
54364,-89.2857142857143,4,1,0,98,0,1
56849,-89.2857142857143,4,1,0,88,0,0
57204,-87.719298245614,4,1,0,98,0,1
59689,-87.719298245614,4,1,0,88,0,0
60044,-86.2068965517241,4,1,0,98,0,1
62530,-86.2068965517241,4,1,0,88,0,0
62885,-84.7457627118644,4,1,0,98,0,1
64305,-84.7457627118644,4,1,0,90,0,0
65725,-84.7457627118644,4,1,0,60,0,0
67145,-99.009900990099,4,1,0,60,0,0
68565,-119.047619047619,4,1,0,60,0,0
68920,-116.279069767442,4,1,0,60,0,0
69098,-114.942528735632,4,1,0,60,0,0
69453,-112.359550561798,4,1,0,66,0,0
69630,-111.111111111111,4,1,0,68,0,0
69808,-109.89010989011,4,1,0,70,0,0
69985,-108.695652173913,4,1,0,72,0,0
70074,-108.108108108108,4,1,0,73,0,0
70252,-106.951871657754,4,1,0,75,0,0
70340,-106.382978723404,4,1,0,76,0,0
70518,-105.263157894737,4,1,0,78,0,0
70607,-104.712041884817,4,1,0,79,0,0
70784,-103.626943005181,4,1,0,81,0,0
70873,-103.092783505155,4,1,0,82,0,0
70962,-102.564102564103,4,1,0,83,0,0
71050,-102.040816326531,4,1,0,84,0,0
71139,-101.522842639594,4,1,0,85,0,0
71228,-101.010101010101,4,1,0,86,0,0
71405,-100,4,1,0,88,0,0
74246,-99.009900990099,4,1,0,88,0,0
77618,-98.0392156862745,4,1,0,88,0,0
80459,-97.0873786407767,4,1,0,88,0,0
82056,-97.0873786407767,4,1,0,68,0,0
82500,-83.3333333333333,4,1,0,94,0,0
88447,-80.6451612903226,4,1,0,96,0,0
88536,-80.4828973843058,4,1,0,96,0,0
88624,-80.3212851405623,4,1,0,96,0,0
88713,-80.1603206412826,4,1,0,96,0,0
88802,-80,4,1,0,96,0,0
88891,-79.8403193612775,4,1,0,96,0,0
88979,-79.6812749003984,4,1,0,96,0,0
89068,-79.5228628230617,4,1,0,96,0,0
89157,-79.3650793650794,4,1,0,96,0,0
89246,-79.2079207920792,4,1,0,96,0,0
89334,-79.0513833992095,4,1,0,96,0,0
89423,-78.8954635108482,4,1,0,96,0,0
89512,-78.740157480315,4,1,0,96,0,0
89571,-78.6369593709043,4,1,0,96,0,0
89630,-78.5340314136126,4,1,0,96,0,0
89689,-78.4313725490197,4,1,0,96,0,0
89867,-76.3358778625955,4,1,0,97,0,0
89956,-76.1904761904763,4,1,0,97,0,0
90044,-76.045627376426,4,1,0,97,0,0
90133,-75.9013282732449,4,1,0,97,0,0
90222,-75.7575757575759,4,1,0,97,0,0
90311,-75.6143667296787,4,1,0,97,0,0
90400,-75.4716981132077,4,1,0,97,0,0
90488,-75.3295668549907,4,1,0,97,0,0
90577,-75.1879699248121,4,1,0,97,0,0
90666,-75.0469043151971,4,1,0,97,0,0
90755,-74.9063670411986,4,1,0,97,0,0
90843,-74.766355140187,4,1,0,97,0,0
90932,-74.6268656716419,4,1,0,97,0,0
90991,-74.5341614906832,4,1,0,97,0,0
91050,-74.4416873449132,4,1,0,97,0,0
91110,-74.3494423791823,4,1,0,97,0,0
91287,-72.4637681159422,4,1,0,98,0,0
91346,-72.3763570566948,4,1,0,98,0,0
91405,-72.289156626506,4,1,0,98,0,0
91465,-72.2021660649821,4,1,0,98,0,0
91553,-72.0720720720722,4,1,0,98,0,0
91642,-71.9424460431656,4,1,0,98,0,0
91701,-71.8562874251497,4,1,0,98,0,0
91760,-71.7703349282297,4,1,0,98,0,0
91820,-71.6845878136202,4,1,0,98,0,0
91908,-71.5563506261182,4,1,0,98,0,0
91997,-71.4285714285716,4,1,0,98,0,0
92086,-71.3012477718362,4,1,0,98,0,0
92175,-71.1743772241995,4,1,0,98,0,0
92263,-71.0479573712258,4,1,0,98,0,0
92352,-70.921985815603,4,1,0,98,0,0
92411,-70.8382526564345,4,1,0,98,0,0
92471,-70.7547169811321,4,1,0,98,0,0
92530,-70.671378091873,4,1,0,98,0,0
93772,-60.9756097560976,4,1,0,98,0,0
94127,-83.3333333333333,4,1,0,94,0,1
104778,-83.3333333333333,4,1,0,74,0,0
105222,-83.3333333333333,4,1,0,94,0,0
105488,-81.9672131147541,4,1,0,94,0,1
110814,-81.9672131147541,4,1,0,86,0,0
111169,-80.6451612903226,4,1,0,96,0,1
111346,-80.3212851405623,4,1,0,96,0,1
111435,-80.1603206412826,4,1,0,96,0,1
111524,-80,4,1,0,96,0,1
111613,-79.8403193612775,4,1,0,96,0,1
111701,-79.6812749003984,4,1,0,96,0,1
111760,-79.5755968169761,4,1,0,96,0,1
111820,-79.4701986754967,4,1,0,96,0,1
111879,-79.3650793650794,4,1,0,96,0,1
112056,-79.0513833992095,4,1,0,96,0,1
112145,-78.8954635108482,4,1,0,96,0,1
112234,-78.7401574803149,4,1,0,96,0,1
112323,-78.5854616895875,4,1,0,96,0,1
112411,-78.4313725490197,4,1,0,96,0,1
112589,-78.125,4,1,0,97,0,1
112766,-77.8210116731518,4,1,0,97,0,1
112855,-77.6699029126214,4,1,0,97,0,1
112944,-77.5193798449612,4,1,0,97,0,1
113033,-77.3694390715668,4,1,0,97,0,1
113121,-77.2200772200772,4,1,0,97,0,1
113181,-77.120822622108,4,1,0,97,0,1
113240,-77.0218228498074,4,1,0,97,0,1
113299,-76.923076923077,4,1,0,97,0,1
113476,-76.6283524904215,4,1,0,97,0,1
113565,-76.4818355640536,4,1,0,97,0,1
113654,-76.3358778625954,4,1,0,97,0,1
113743,-76.1904761904763,4,1,0,97,0,1
113831,-76.045627376426,4,1,0,97,0,1
113920,-75.9013282732449,4,1,0,97,0,1
114009,-75.7575757575758,4,1,0,98,0,1
114068,-75.6620428751576,4,1,0,98,0,1
114127,-75.5667506297229,4,1,0,98,0,1
114186,-75.4716981132077,4,1,0,98,0,1
114275,-75.3295668549907,4,1,0,98,0,1
114364,-75.187969924812,4,1,0,98,0,1
114453,-75.0469043151971,4,1,0,98,0,1
114542,-74.9063670411986,4,1,0,98,0,1
114630,-74.766355140187,4,1,0,98,0,1
114719,-74.6268656716418,4,1,0,98,0,1
114778,-74.5341614906832,4,1,0,98,0,1
114837,-74.4416873449132,4,1,0,98,0,1
114897,-74.3494423791823,4,1,0,98,0,1
114985,-74.2115027829315,4,1,0,98,0,1
115074,-74.0740740740741,4,1,0,98,0,1
115163,-73.9371534195935,4,1,0,98,0,1
115252,-73.8007380073802,4,1,0,98,0,1
115340,-73.6648250460406,4,1,0,98,0,1
115429,-73.5294117647059,4,1,0,86,0,0
116849,-73.5294117647059,4,1,0,98,0,1
119334,-73.5294117647059,4,1,0,88,0,0
119689,-72.463768115942,4,1,0,98,0,1
121110,-72.463768115942,4,1,0,90,0,0

[HitObjects]
256,192,2885,5,0,0:0:0:0:
256,192,3240,5,12,0:0:0:0:
256,192,3417,1,8,0:0:0:0:
256,192,3595,5,0,0:0:0:0:
256,192,3772,1,0,0:0:0:0:
256,192,4127,1,0,0:0:0:0:
256,192,4305,5,8,0:0:0:0:
256,192,4571,1,8,0:0:0:0:
256,192,4660,5,0,0:0:0:0:
256,192,4837,1,0,0:0:0:0:
256,192,5015,5,8,0:0:0:0:
256,192,5192,5,0,0:0:0:0:
256,192,5281,5,8,0:0:0:0:
256,192,5370,5,0,0:0:0:0:
256,192,5547,1,0,0:0:0:0:
256,192,5725,1,0,0:0:0:0:
256,192,5902,5,8,0:0:0:0:
256,192,6080,1,8,0:0:0:0:
256,192,6257,1,8,0:0:0:0:
256,192,6435,5,0,0:0:0:0:
256,192,6613,1,0,0:0:0:0:
256,192,6968,1,0,0:0:0:0:
256,192,7145,1,0,0:0:0:0:
256,192,7323,5,8,0:0:0:0:
256,192,7500,1,8,0:0:0:0:
256,192,7678,5,0,0:0:0:0:
256,192,7855,1,0,0:0:0:0:
256,192,8121,1,0,0:0:0:0:
256,192,8210,5,8,0:0:0:0:
256,192,8388,5,0,0:0:0:0:
256,192,8476,5,8,0:0:0:0:
256,192,8565,5,0,0:0:0:0:
256,192,8743,5,8,0:0:0:0:
256,192,8920,1,8,0:0:0:0:
256,192,9098,5,0,0:0:0:0:
256,192,9275,5,8,0:0:0:0:
256,192,9364,1,8,0:0:0:0:
256,192,9630,1,8,0:0:0:0:
256,192,9808,5,0,0:0:0:0:
256,192,9897,5,8,0:0:0:0:
256,192,10074,5,0,0:0:0:0:
256,192,10163,5,8,0:0:0:0:
256,192,10252,5,0,0:0:0:0:
256,192,10340,5,8,0:0:0:0:
256,192,10518,5,0,0:0:0:0:
256,192,10695,5,8,0:0:0:0:
256,192,10784,1,8,0:0:0:0:
256,192,11050,1,8,0:0:0:0:
256,192,11228,5,0,0:0:0:0:
256,192,11317,5,8,0:0:0:0:
256,192,11494,5,0,0:0:0:0:
256,192,11583,5,8,0:0:0:0:
256,192,11672,1,8,0:0:0:0:
256,192,11760,5,0,0:0:0:0:
256,192,11938,1,0,0:0:0:0:
256,192,12115,5,8,0:0:0:0:
256,192,12204,1,8,0:0:0:0:
256,192,12471,1,8,0:0:0:0:
256,192,12648,5,0,0:0:0:0:
256,192,12737,5,8,0:0:0:0:
256,192,12914,5,0,0:0:0:0:
256,192,13003,5,8,0:0:0:0:
256,192,13092,1,8,0:0:0:0:
256,192,13181,5,0,0:0:0:0:
256,192,13358,5,8,0:0:0:0:
256,192,13536,5,0,0:0:0:0:
256,192,13624,5,8,0:0:0:0:
256,192,13802,1,8,0:0:0:0:
256,192,13891,5,0,0:0:0:0:
256,192,14601,5,12,0:0:0:0:
256,192,14778,5,0,0:0:0:0:
256,192,14956,5,8,0:0:0:0:
256,192,15133,5,0,0:0:0:0:
256,192,15192,1,0,0:0:0:0:
256,192,15252,1,0,0:0:0:0:
256,192,15311,5,8,0:0:0:0:
256,192,15488,5,0,0:0:0:0:
256,192,15577,5,8,0:0:0:0:
256,192,15755,1,8,0:0:0:0:
256,192,15843,5,0,0:0:0:0:
256,192,16021,5,8,0:0:0:0:
256,192,16198,5,0,0:0:0:0:
256,192,16287,5,8,0:0:0:0:
256,192,16465,5,0,0:0:0:0:
256,192,16553,5,8,0:0:0:0:
256,192,16613,1,8,0:0:0:0:
256,192,16672,1,8,0:0:0:0:
256,192,16731,5,0,0:0:0:0:
256,192,16908,5,8,0:0:0:0:
256,192,16997,5,0,0:0:0:0:
256,192,17175,5,8,0:0:0:0:
256,192,17263,5,0,0:0:0:0:
256,192,17441,5,8,0:0:0:0:
256,192,17618,5,0,0:0:0:0:
256,192,17796,5,8,0:0:0:0:
256,192,17973,5,0,0:0:0:0:
256,192,18033,1,0,0:0:0:0:
256,192,18092,1,0,0:0:0:0:
256,192,18151,5,8,0:0:0:0:
256,192,18328,5,0,0:0:0:0:
256,192,18417,5,8,0:0:0:0:
256,192,18595,1,8,0:0:0:0:
256,192,18684,5,0,0:0:0:0:
256,192,18861,5,8,0:0:0:0:
256,192,19039,5,0,0:0:0:0:
256,192,19127,5,8,0:0:0:0:
256,192,19305,1,8,0:0:0:0:
256,192,19394,5,0,0:0:0:0:
256,192,19453,1,0,0:0:0:0:
256,192,19512,1,0,0:0:0:0:
256,192,19571,5,8,0:0:0:0:
256,192,19749,1,8,0:0:0:0:
256,192,19837,5,0,0:0:0:0:
256,192,19926,5,8,0:0:0:0:
256,192,19985,1,8,0:0:0:0:
256,192,20044,1,8,0:0:0:0:
256,192,20104,5,0,0:0:0:0:
256,192,20281,5,8,0:0:0:0:
256,192,20370,1,8,0:0:0:0:
256,192,20459,5,0,0:0:0:0:
256,192,20547,1,0,0:0:0:0:
256,192,20636,5,8,0:0:0:0:
256,192,20725,5,0,0:0:0:0:
256,192,20814,1,0,0:0:0:0:
256,192,20991,5,8,0:0:0:0:
256,192,21080,1,8,0:0:0:0:
256,192,21169,5,0,0:0:0:0:
256,192,21257,5,8,0:0:0:0:
256,192,21346,5,0,0:0:0:0:
256,192,21405,1,0,0:0:0:0:
256,192,21465,1,0,0:0:0:0:
256,192,21524,5,8,0:0:0:0:
256,192,21701,5,0,0:0:0:0:
256,192,21790,1,0,0:0:0:0:
256,192,21879,5,8,0:0:0:0:
256,192,21968,5,0,0:0:0:0:
256,192,22056,5,8,0:0:0:0:
256,192,22145,1,8,0:0:0:0:
256,192,22234,5,0,0:0:0:0:
256,192,22323,1,0,0:0:0:0:
256,192,22411,5,8,0:0:0:0:
256,192,22500,1,8,0:0:0:0:
256,192,22589,5,0,0:0:0:0:
256,192,22678,5,8,0:0:0:0:
256,192,22766,1,8,0:0:0:0:
256,192,22826,5,0,0:0:0:0:
256,192,22885,1,0,0:0:0:0:
256,192,22944,1,0,0:0:0:0:
256,192,23121,5,8,0:0:0:0:
256,192,23210,1,8,0:0:0:0:
256,192,23299,5,0,0:0:0:0:
256,192,23388,5,8,0:0:0:0:
256,192,23476,1,8,0:0:0:0:
256,192,23565,1,8,0:0:0:0:
256,192,23654,5,0,0:0:0:0:
256,192,23743,5,8,0:0:0:0:
256,192,23831,1,8,0:0:0:0:
256,192,23920,5,0,0:0:0:0:
256,192,24009,5,8,0:0:0:0:
256,192,24098,1,8,0:0:0:0:
256,192,24186,5,0,0:0:0:0:
256,192,24246,1,0,0:0:0:0:
256,192,24305,1,0,0:0:0:0:
256,192,24364,5,8,0:0:0:0:
256,192,25607,1,12,0:0:0:0:
256,192,25962,5,4,0:0:0:0:
256,192,26139,5,8,0:0:0:0:
256,192,26228,1,8,0:0:0:0:
256,192,26317,5,0,0:0:0:0:
256,192,26494,5,8,0:0:0:0:
256,192,26583,1,8,0:0:0:0:
256,192,26672,5,0,0:0:0:0:
256,192,26760,5,8,0:0:0:0:
256,192,26849,5,0,0:0:0:0:
256,192,27027,5,8,0:0:0:0:
256,192,27204,5,0,0:0:0:0:
256,192,27293,5,8,0:0:0:0:
256,192,27382,5,0,0:0:0:0:
256,192,27471,1,0,0:0:0:0:
256,192,27559,5,8,0:0:0:0:
256,192,27648,5,0,0:0:0:0:
256,192,27737,5,8,0:0:0:0:
256,192,27914,5,0,0:0:0:0:
256,192,28003,5,8,0:0:0:0:
256,192,28092,5,0,0:0:0:0:
256,192,28181,5,8,0:0:0:0:
256,192,28269,5,0,0:0:0:0:
256,192,28358,5,8,0:0:0:0:
256,192,28447,1,8,0:0:0:0:
256,192,28624,1,8,0:0:0:0:
256,192,28802,5,0,0:0:0:0:
256,192,28979,1,0,0:0:0:0:
256,192,29068,1,0,0:0:0:0:
256,192,29157,5,8,0:0:0:0:
256,192,29334,5,0,0:0:0:0:
256,192,29423,1,0,0:0:0:0:
256,192,29512,5,8,0:0:0:0:
256,192,29601,1,8,0:0:0:0:
256,192,29689,5,0,0:0:0:0:
256,192,29867,5,8,0:0:0:0:
256,192,30044,5,0,0:0:0:0:
256,192,30133,5,8,0:0:0:0:
256,192,30222,5,0,0:0:0:0:
256,192,30311,5,8,0:0:0:0:
256,192,30400,1,8,0:0:0:0:
256,192,30488,5,0,0:0:0:0:
256,192,30577,5,8,0:0:0:0:
256,192,30755,5,0,0:0:0:0:
256,192,30843,5,8,0:0:0:0:
256,192,30932,5,0,0:0:0:0:
256,192,31021,5,8,0:0:0:0:
256,192,31110,1,8,0:0:0:0:
256,192,31198,1,8,0:0:0:0:
256,192,31287,1,8,0:0:0:0:
256,192,31376,5,0,0:0:0:0:
256,192,31465,5,8,0:0:0:0:
256,192,31642,5,0,0:0:0:0:
256,192,31820,1,0,0:0:0:0:
256,192,31997,1,0,0:0:0:0:
256,192,32352,1,0,0:0:0:0:
256,192,32441,5,8,0:0:0:0:
256,192,32530,5,0,0:0:0:0:
256,192,32707,5,8,0:0:0:0:
256,192,32885,5,0,0:0:0:0:
256,192,32973,5,8,0:0:0:0:
256,192,33062,5,0,0:0:0:0:
256,192,33151,5,8,0:0:0:0:
256,192,33240,1,8,0:0:0:0:
256,192,33417,1,8,0:0:0:0:
256,192,33595,5,0,0:0:0:0:
256,192,33684,5,8,0:0:0:0:
256,192,33772,5,0,0:0:0:0:
256,192,33861,5,8,0:0:0:0:
256,192,33950,1,8,0:0:0:0:
256,192,34039,5,0,0:0:0:0:
256,192,34127,5,8,0:0:0:0:
256,192,34216,5,0,0:0:0:0:
256,192,34305,5,8,0:0:0:0:
256,192,34482,1,8,0:0:0:0:
256,192,34571,1,8,0:0:0:0:
256,192,34660,5,0,0:0:0:0:
256,192,34749,5,8,0:0:0:0:
256,192,34926,5,0,0:0:0:0:
256,192,35015,1,0,0:0:0:0:
256,192,35192,5,8,0:0:0:0:
256,192,35281,1,8,0:0:0:0:
256,192,35370,5,0,0:0:0:0:
256,192,35459,5,8,0:0:0:0:
256,192,35636,1,8,0:0:0:0:
256,192,35725,5,0,0:0:0:0:
256,192,35902,5,8,0:0:0:0:
256,192,35947,1,8,0:0:0:0:
256,192,35991,1,8,0:0:0:0:
256,192,36169,1,8,0:0:0:0:
256,192,36214,1,8,0:0:0:0:
256,192,36258,1,8,0:0:0:0:
256,192,36435,1,8,0:0:0:0:
256,192,36480,1,8,0:0:0:0:
256,192,36524,1,8,0:0:0:0:
256,192,36613,12,0,36968,0:0:0:0:
256,192,37323,5,4,0:0:0:0:
256,192,37500,1,0,0:0:0:0:
256,192,37589,1,0,0:0:0:0:
256,192,37678,5,8,0:0:0:0:
256,192,38033,5,0,0:0:0:0:
256,192,38121,5,8,0:0:0:0:
256,192,38210,5,0,0:0:0:0:
256,192,38388,5,8,0:0:0:0:
256,192,38565,5,0,0:0:0:0:
256,192,38654,5,8,0:0:0:0:
256,192,38743,5,0,0:0:0:0:
256,192,38831,5,8,0:0:0:0:
256,192,38920,1,8,0:0:0:0:
256,192,39098,1,8,0:0:0:0:
256,192,39275,5,0,0:0:0:0:
256,192,39364,5,8,0:0:0:0:
256,192,39453,1,8,0:0:0:0:
256,192,39542,1,8,0:0:0:0:
256,192,39630,5,0,0:0:0:0:
256,192,39719,5,8,0:0:0:0:
256,192,39808,5,0,0:0:0:0:
256,192,39985,5,8,0:0:0:0:
256,192,40163,5,0,0:0:0:0:
256,192,40252,1,0,0:0:0:0:
256,192,40429,1,0,0:0:0:0:
256,192,40518,5,8,0:0:0:0:
256,192,40873,5,0,0:0:0:0:
256,192,40962,5,8,0:0:0:0:
256,192,41050,1,8,0:0:0:0:
256,192,41228,1,8,0:0:0:0:
256,192,41405,5,0,0:0:0:0:
256,192,41494,5,8,0:0:0:0:
256,192,41583,5,0,0:0:0:0:
256,192,41672,1,0,0:0:0:0:
256,192,41760,5,8,0:0:0:0:
256,192,41849,1,8,0:0:0:0:
256,192,42026,5,0,0:0:0:0:
256,192,42115,5,8,0:0:0:0:
256,192,42204,1,8,0:0:0:0:
256,192,42293,5,0,0:0:0:0:
256,192,42471,5,8,0:0:0:0:
256,192,42559,1,8,0:0:0:0:
256,192,42648,5,0,0:0:0:0:
256,192,42737,5,8,0:0:0:0:
256,192,42826,1,8,0:0:0:0:
256,192,43003,5,0,0:0:0:0:
256,192,43181,1,0,0:0:0:0:
256,192,43358,5,8,0:0:0:0:
256,192,43713,5,0,0:0:0:0:
256,192,43802,5,8,0:0:0:0:
256,192,43891,5,0,0:0:0:0:
256,192,44068,5,8,0:0:0:0:
256,192,44246,5,0,0:0:0:0:
256,192,44334,5,8,0:0:0:0:
256,192,44423,5,0,0:0:0:0:
256,192,44601,1,0,0:0:0:0:
256,192,44778,5,8,0:0:0:0:
256,192,44956,5,0,0:0:0:0:
256,192,45044,5,8,0:0:0:0:
256,192,45133,1,8,0:0:0:0:
256,192,45222,1,8,0:0:0:0:
256,192,45311,1,8,0:0:0:0:
256,192,45400,5,0,0:0:0:0:
256,192,45488,5,8,0:0:0:0:
256,192,45577,5,0,0:0:0:0:
256,192,45666,1,0,0:0:0:0:
256,192,45843,1,0,0:0:0:0:
256,192,45932,5,8,0:0:0:0:
256,192,46021,5,0,0:0:0:0:
256,192,46110,1,0,0:0:0:0:
256,192,46198,5,8,0:0:0:0:
256,192,46376,5,0,0:0:0:0:
256,192,46465,5,8,0:0:0:0:
256,192,46642,1,8,0:0:0:0:
256,192,46820,5,0,0:0:0:0:
256,192,46908,5,8,0:0:0:0:
256,192,47086,1,8,0:0:0:0:
256,192,47175,1,8,0:0:0:0:
256,192,47263,5,0,0:0:0:0:
256,192,48328,5,8,0:0:0:0:
256,192,48417,1,8,0:0:0:0:
256,192,48506,1,8,0:0:0:0:
256,192,48684,5,4,0:0:0:0:
256,192,48861,1,4,0:0:0:0:
256,192,49039,5,8,0:0:0:0:
256,192,49749,1,8,0:0:0:0:
256,192,50459,1,8,0:0:0:0:
256,192,51169,1,8,0:0:0:0:
256,192,51257,5,0,0:0:0:0:
256,192,51524,1,4,0:0:0:0:
256,192,51701,1,4,0:0:0:0:
256,192,51879,5,8,0:0:0:0:
256,192,52589,1,8,0:0:0:0:
256,192,52944,12,0,53654,0:0:0:0:
256,192,54009,5,0,0:0:0:0:
256,192,54098,1,0,0:0:0:0:
256,192,54186,5,8,0:0:0:0:
256,192,54364,5,0,0:0:0:0:
256,192,54453,5,8,0:0:0:0:
256,192,54542,1,8,0:0:0:0:
256,192,54630,5,0,0:0:0:0:
256,192,54719,5,8,0:0:0:0:
256,192,54808,1,8,0:0:0:0:
256,192,54897,5,0,0:0:0:0:
256,192,54985,5,8,0:0:0:0:
256,192,55074,1,8,0:0:0:0:
256,192,55163,5,0,0:0:0:0:
256,192,55252,5,8,0:0:0:0:
256,192,55340,1,8,0:0:0:0:
256,192,55429,5,0,0:0:0:0:
256,192,55518,5,8,0:0:0:0:
256,192,55607,5,0,0:0:0:0:
256,192,55695,5,8,0:0:0:0:
256,192,55784,1,8,0:0:0:0:
256,192,55873,5,0,0:0:0:0:
256,192,55962,5,8,0:0:0:0:
256,192,56050,1,8,0:0:0:0:
256,192,56139,5,0,0:0:0:0:
256,192,56228,5,8,0:0:0:0:
256,192,56317,1,8,0:0:0:0:
256,192,56405,5,0,0:0:0:0:
256,192,56494,1,0,0:0:0:0:
256,192,56583,5,8,0:0:0:0:
256,192,56672,5,0,0:0:0:0:
256,192,56760,5,8,0:0:0:0:
256,192,56849,1,8,0:0:0:0:
256,192,57204,5,0,0:0:0:0:
256,192,57293,5,8,0:0:0:0:
256,192,57382,1,8,0:0:0:0:
256,192,57471,5,0,0:0:0:0:
256,192,57559,5,8,0:0:0:0:
256,192,57648,1,8,0:0:0:0:
256,192,57737,5,0,0:0:0:0:
256,192,57826,5,8,0:0:0:0:
256,192,57914,1,8,0:0:0:0:
256,192,58003,5,0,0:0:0:0:
256,192,58092,5,8,0:0:0:0:
256,192,58181,1,8,0:0:0:0:
256,192,58269,5,0,0:0:0:0:
256,192,58358,5,8,0:0:0:0:
256,192,58447,5,0,0:0:0:0:
256,192,58536,1,0,0:0:0:0:
256,192,58624,5,8,0:0:0:0:
256,192,58713,5,0,0:0:0:0:
256,192,58802,1,0,0:0:0:0:
256,192,58891,5,8,0:0:0:0:
256,192,58979,5,0,0:0:0:0:
256,192,59068,5,8,0:0:0:0:
256,192,59157,5,0,0:0:0:0:
256,192,59246,1,0,0:0:0:0:
256,192,59334,5,8,0:0:0:0:
256,192,59423,1,8,0:0:0:0:
256,192,59512,5,0,0:0:0:0:
256,192,59601,5,8,0:0:0:0:
256,192,59689,5,0,0:0:0:0:
256,192,60044,1,0,0:0:0:0:
256,192,60133,5,8,0:0:0:0:
256,192,60222,1,8,0:0:0:0:
256,192,60310,5,0,0:0:0:0:
256,192,60399,5,8,0:0:0:0:
256,192,60488,1,8,0:0:0:0:
256,192,60577,5,0,0:0:0:0:
256,192,60665,5,8,0:0:0:0:
256,192,60754,1,8,0:0:0:0:
256,192,60843,5,0,0:0:0:0:
256,192,60932,5,8,0:0:0:0:
256,192,61020,1,8,0:0:0:0:
256,192,61109,5,0,0:0:0:0:
256,192,61198,5,8,0:0:0:0:
256,192,61287,5,0,0:0:0:0:
256,192,61375,5,8,0:0:0:0:
256,192,61464,1,8,0:0:0:0:
256,192,61553,5,0,0:0:0:0:
256,192,61642,5,8,0:0:0:0:
256,192,61730,1,8,0:0:0:0:
256,192,61819,5,0,0:0:0:0:
256,192,61908,5,8,0:0:0:0:
256,192,61997,1,8,0:0:0:0:
256,192,62085,5,0,0:0:0:0:
256,192,62174,1,0,0:0:0:0:
256,192,62263,5,8,0:0:0:0:
256,192,62352,5,0,0:0:0:0:
256,192,62440,5,8,0:0:0:0:
256,192,62529,1,8,0:0:0:0:
256,192,62589,1,8,0:0:0:0:
256,192,62648,1,8,0:0:0:0:
256,192,62707,5,0,0:0:0:0:
256,192,62885,1,0,0:0:0:0:
256,192,62973,5,8,0:0:0:0:
256,192,63062,1,8,0:0:0:0:
256,192,63151,5,0,0:0:0:0:
256,192,63240,5,8,0:0:0:0:
256,192,63328,1,8,0:0:0:0:
256,192,63417,5,0,0:0:0:0:
256,192,63506,1,0,0:0:0:0:
256,192,63595,1,0,0:0:0:0:
256,192,63684,5,8,0:0:0:0:
256,192,63772,1,8,0:0:0:0:
256,192,63861,5,0,0:0:0:0:
256,192,63950,5,8,0:0:0:0:
256,192,64039,1,8,0:0:0:0:
256,192,64127,5,0,0:0:0:0:
256,192,64216,1,0,0:0:0:0:
256,192,64305,5,8,0:0:0:0:
256,192,64482,5,0,0:0:0:0:
256,192,64660,1,0,0:0:0:0:
256,192,64748,1,0,0:0:0:0:
256,192,64837,1,0,0:0:0:0:
256,192,65015,5,8,0:0:0:0:
256,192,65370,1,8,0:0:0:0:
256,192,65459,1,8,0:0:0:0:
256,192,65547,1,8,0:0:0:0:
256,192,65725,5,4,0:0:0:0:
256,192,68565,5,8,0:0:0:0:
256,192,68920,1,8,0:0:0:0:
256,192,69098,5,0,0:0:0:0:
256,192,69453,1,0,0:0:0:0:
256,192,69630,5,8,0:0:0:0:
256,192,69808,5,0,0:0:0:0:
256,192,69985,5,8,0:0:0:0:
256,192,70074,5,0,0:0:0:0:
256,192,70252,1,0,0:0:0:0:
256,192,70340,5,8,0:0:0:0:
256,192,70518,5,0,0:0:0:0:
256,192,70607,5,8,0:0:0:0:
256,192,70784,1,8,0:0:0:0:
256,192,70873,5,0,0:0:0:0:
256,192,70962,5,8,0:0:0:0:
256,192,71050,1,8,0:0:0:0:
256,192,71139,5,0,0:0:0:0:
256,192,71228,1,0,0:0:0:0:
256,192,71405,5,12,0:0:0:0:
256,192,71583,5,0,0:0:0:0:
256,192,71672,1,0,0:0:0:0:
256,192,71760,5,8,0:0:0:0:
256,192,71938,5,0,0:0:0:0:
256,192,72027,5,8,0:0:0:0:
256,192,72204,1,8,0:0:0:0:
256,192,72293,5,0,0:0:0:0:
256,192,72471,5,8,0:0:0:0:
256,192,72648,5,0,0:0:0:0:
256,192,72737,5,8,0:0:0:0:
256,192,72826,1,8,0:0:0:0:
256,192,72914,5,0,0:0:0:0:
256,192,73092,1,0,0:0:0:0:
256,192,73181,5,8,0:0:0:0:
256,192,73358,5,0,0:0:0:0:
256,192,73447,5,8,0:0:0:0:
256,192,73624,5,0,0:0:0:0:
256,192,73713,5,8,0:0:0:0:
256,192,73802,5,0,0:0:0:0:
256,192,73891,5,8,0:0:0:0:
256,192,73979,1,8,0:0:0:0:
256,192,74068,5,0,0:0:0:0:
256,192,74246,1,0,0:0:0:0:
256,192,74334,5,8,0:0:0:0:
256,192,74423,5,0,0:0:0:0:
256,192,74601,5,8,0:0:0:0:
256,192,74778,5,0,0:0:0:0:
256,192,74867,5,8,0:0:0:0:
256,192,75044,1,8,0:0:0:0:
256,192,75133,5,0,0:0:0:0:
256,192,75311,5,8,0:0:0:0:
256,192,75488,5,0,0:0:0:0:
256,192,75577,5,8,0:0:0:0:
256,192,75666,1,8,0:0:0:0:
256,192,75755,5,0,0:0:0:0:
256,192,75843,1,0,0:0:0:0:
256,192,76021,1,0,0:0:0:0:
256,192,76198,1,0,0:0:0:0:
256,192,76287,5,8,0:0:0:0:
256,192,76465,1,8,0:0:0:0:
256,192,76553,1,8,0:0:0:0:
256,192,76731,1,8,0:0:0:0:
256,192,76820,1,8,0:0:0:0:
256,192,76908,5,0,0:0:0:0:
256,192,76997,1,0,0:0:0:0:
256,192,77086,5,8,0:0:0:0:
256,192,77175,5,0,0:0:0:0:
256,192,77263,5,8,0:0:0:0:
256,192,77352,5,0,0:0:0:0:
256,192,77441,1,0,0:0:0:0:
256,192,77618,1,0,0:0:0:0:
256,192,77707,5,8,0:0:0:0:
256,192,77885,1,8,0:0:0:0:
256,192,77973,1,8,0:0:0:0:
256,192,78151,5,0,0:0:0:0:
256,192,78328,1,0,0:0:0:0:
256,192,78417,5,8,0:0:0:0:
256,192,78506,1,8,0:0:0:0:
256,192,78595,5,0,0:0:0:0:
256,192,78684,1,0,0:0:0:0:
256,192,78772,5,8,0:0:0:0:
256,192,78861,5,0,0:0:0:0:
256,192,79039,1,0,0:0:0:0:
256,192,79127,5,8,0:0:0:0:
256,192,79305,1,8,0:0:0:0:
256,192,79394,5,0,0:0:0:0:
256,192,79571,1,0,0:0:0:0:
256,192,79660,5,8,0:0:0:0:
256,192,79749,5,0,0:0:0:0:
256,192,79837,5,8,0:0:0:0:
256,192,79926,1,8,0:0:0:0:
256,192,80015,5,0,0:0:0:0:
256,192,80104,5,8,0:0:0:0:
256,192,80192,5,0,0:0:0:0:
256,192,80281,1,0,0:0:0:0:
256,192,80459,1,0,0:0:0:0:
256,192,80547,5,8,0:0:0:0:
256,192,80725,1,8,0:0:0:0:
256,192,80814,1,8,0:0:0:0:
256,192,80991,5,0,0:0:0:0:
256,192,81169,1,0,0:0:0:0:
256,192,81257,1,0,0:0:0:0:
256,192,81346,5,8,0:0:0:0:
256,192,81435,1,8,0:0:0:0:
256,192,81613,5,0,0:0:0:0:
256,192,81701,5,8,0:0:0:0:
256,192,81879,5,0,0:0:0:0:
256,192,81968,5,8,0:0:0:0:
256,192,82056,12,0,82411,0:0:0:0:
256,192,82766,5,12,0:0:0:0:
256,192,82944,1,8,0:0:0:0:
256,192,83121,5,0,0:0:0:0:
256,192,83299,5,8,0:0:0:0:
256,192,83358,1,8,0:0:0:0:
256,192,83417,1,8,0:0:0:0:
256,192,83476,5,0,0:0:0:0:
256,192,83654,5,8,0:0:0:0:
256,192,83743,5,0,0:0:0:0:
256,192,83920,5,8,0:0:0:0:
256,192,84009,5,0,0:0:0:0:
256,192,84186,5,8,0:0:0:0:
256,192,84364,5,0,0:0:0:0:
256,192,84453,5,8,0:0:0:0:
256,192,84630,1,8,0:0:0:0:
256,192,84719,5,0,0:0:0:0:
256,192,84778,1,0,0:0:0:0:
256,192,84837,1,0,0:0:0:0:
256,192,84897,5,8,0:0:0:0:
256,192,85074,5,0,0:0:0:0:
256,192,85163,5,8,0:0:0:0:
256,192,85340,5,0,0:0:0:0:
256,192,85429,5,8,0:0:0:0:
256,192,85607,1,8,0:0:0:0:
256,192,85784,1,8,0:0:0:0:
256,192,85962,5,0,0:0:0:0:
256,192,86139,5,8,0:0:0:0:
256,192,86198,1,8,0:0:0:0:
256,192,86257,1,8,0:0:0:0:
256,192,86317,5,0,0:0:0:0:
256,192,86494,5,8,0:0:0:0:
256,192,86583,5,0,0:0:0:0:
256,192,86760,1,0,0:0:0:0:
256,192,86849,5,8,0:0:0:0:
256,192,87027,1,8,0:0:0:0:
256,192,87204,1,8,0:0:0:0:
256,192,87293,5,0,0:0:0:0:
256,192,87471,1,0,0:0:0:0:
256,192,87559,1,0,0:0:0:0:
256,192,87618,1,0,0:0:0:0:
256,192,87678,1,0,0:0:0:0:
256,192,87737,5,8,0:0:0:0:
256,192,87914,5,0,0:0:0:0:
256,192,88003,5,8,0:0:0:0:
256,192,88092,1,8,0:0:0:0:
256,192,88151,1,8,0:0:0:0:
256,192,88210,1,8,0:0:0:0:
256,192,88269,5,0,0:0:0:0:
256,192,88447,5,8,0:0:0:0:
256,192,88536,1,8,0:0:0:0:
256,192,88624,5,0,0:0:0:0:
256,192,88713,1,0,0:0:0:0:
256,192,88802,5,8,0:0:0:0:
256,192,88891,5,0,0:0:0:0:
256,192,88979,1,0,0:0:0:0:
256,192,89068,1,0,0:0:0:0:
256,192,89157,5,8,0:0:0:0:
256,192,89246,1,8,0:0:0:0:
256,192,89334,5,0,0:0:0:0:
256,192,89423,5,8,0:0:0:0:
256,192,89512,5,0,0:0:0:0:
256,192,89571,1,0,0:0:0:0:
256,192,89630,1,0,0:0:0:0:
256,192,89689,5,8,0:0:0:0:
256,192,89867,5,0,0:0:0:0:
256,192,89956,1,0,0:0:0:0:
256,192,90044,5,8,0:0:0:0:
256,192,90133,5,0,0:0:0:0:
256,192,90222,5,8,0:0:0:0:
256,192,90311,1,8,0:0:0:0:
256,192,90400,5,0,0:0:0:0:
256,192,90488,1,0,0:0:0:0:
256,192,90577,5,8,0:0:0:0:
256,192,90666,1,8,0:0:0:0:
256,192,90755,5,0,0:0:0:0:
256,192,90843,5,8,0:0:0:0:
256,192,90932,1,8,0:0:0:0:
256,192,90991,1,8,0:0:0:0:
256,192,91050,1,8,0:0:0:0:
256,192,91110,5,0,0:0:0:0:
256,192,91287,5,8,0:0:0:0:
256,192,91346,1,8,0:0:0:0:
256,192,91405,1,8,0:0:0:0:
256,192,91465,1,8,0:0:0:0:
256,192,91553,5,0,0:0:0:0:
256,192,91642,5,8,0:0:0:0:
256,192,91701,1,8,0:0:0:0:
256,192,91760,1,8,0:0:0:0:
256,192,91820,5,0,0:0:0:0:
256,192,91908,1,0,0:0:0:0:
256,192,91997,5,8,0:0:0:0:
256,192,92086,1,8,0:0:0:0:
256,192,92175,5,0,0:0:0:0:
256,192,92263,5,8,0:0:0:0:
256,192,92352,5,0,0:0:0:0:
256,192,92411,1,0,0:0:0:0:
256,192,92471,1,0,0:0:0:0:
256,192,92530,5,8,0:0:0:0:
256,192,93772,1,12,0:0:0:0:
256,192,94127,1,12,0:0:0:0:
256,192,94305,1,8,0:0:0:0:
256,192,94394,5,0,0:0:0:0:
256,192,94482,1,0,0:0:0:0:
256,192,94571,5,8,0:0:0:0:
256,192,94749,5,0,0:0:0:0:
256,192,94926,1,0,0:0:0:0:
256,192,95015,5,8,0:0:0:0:
256,192,95192,5,0,0:0:0:0:
256,192,95370,5,8,0:0:0:0:
256,192,95547,1,8,0:0:0:0:
256,192,95636,1,8,0:0:0:0:
256,192,95725,5,0,0:0:0:0:
256,192,95814,1,0,0:0:0:0:
256,192,95991,1,0,0:0:0:0:
256,192,96080,1,0,0:0:0:0:
256,192,96169,5,8,0:0:0:0:
256,192,96346,5,0,0:0:0:0:
256,192,96435,5,8,0:0:0:0:
256,192,96524,5,0,0:0:0:0:
256,192,96613,5,8,0:0:0:0:
256,192,96701,5,0,0:0:0:0:
256,192,96790,1,0,0:0:0:0:
256,192,96968,1,0,0:0:0:0:
256,192,97056,5,8,0:0:0:0:
256,192,97145,1,8,0:0:0:0:
256,192,97234,5,0,0:0:0:0:
256,192,97411,1,0,0:0:0:0:
256,192,97589,5,8,0:0:0:0:
256,192,97766,5,0,0:0:0:0:
256,192,97855,5,8,0:0:0:0:
256,192,98033,5,0,0:0:0:0:
256,192,98210,5,8,0:0:0:0:
256,192,98388,1,8,0:0:0:0:
256,192,98476,1,8,0:0:0:0:
256,192,98565,5,0,0:0:0:0:
256,192,98654,1,0,0:0:0:0:
256,192,98831,1,0,0:0:0:0:
256,192,98920,1,0,0:0:0:0:
256,192,99009,5,8,0:0:0:0:
256,192,99186,5,0,0:0:0:0:
256,192,99275,5,8,0:0:0:0:
256,192,99364,5,0,0:0:0:0:
256,192,99453,5,8,0:0:0:0:
256,192,99542,1,8,0:0:0:0:
256,192,99630,5,0,0:0:0:0:
256,192,99719,1,0,0:0:0:0:
256,192,99808,5,8,0:0:0:0:
256,192,99897,5,0,0:0:0:0:
256,192,99985,5,8,0:0:0:0:
256,192,100074,5,0,0:0:0:0:
256,192,100163,5,8,0:0:0:0:
256,192,100252,5,0,0:0:0:0:
256,192,100429,1,0,0:0:0:0:
256,192,100607,1,0,0:0:0:0:
256,192,100695,5,8,0:0:0:0:
256,192,100873,5,0,0:0:0:0:
256,192,101050,1,0,0:0:0:0:
256,192,101139,5,8,0:0:0:0:
256,192,101228,1,8,0:0:0:0:
256,192,101317,5,0,0:0:0:0:
256,192,101405,5,8,0:0:0:0:
256,192,101494,5,0,0:0:0:0:
256,192,101583,5,8,0:0:0:0:
256,192,101672,5,0,0:0:0:0:
256,192,101849,5,8,0:0:0:0:
256,192,102027,1,8,0:0:0:0:
256,192,102115,5,0,0:0:0:0:
256,192,102293,1,0,0:0:0:0:
256,192,102382,5,8,0:0:0:0:
256,192,102471,5,0,0:0:0:0:
256,192,102559,5,8,0:0:0:0:
256,192,102648,1,8,0:0:0:0:
256,192,102737,5,0,0:0:0:0:
256,192,102826,5,8,0:0:0:0:
256,192,102914,5,0,0:0:0:0:
256,192,103092,1,0,0:0:0:0:
256,192,103181,5,8,0:0:0:0:
256,192,103358,5,0,0:0:0:0:
256,192,103447,1,0,0:0:0:0:
256,192,103536,5,8,0:0:0:0:
256,192,103624,5,0,0:0:0:0:
256,192,103802,1,0,0:0:0:0:
256,192,103891,5,8,0:0:0:0:
256,192,104068,5,0,0:0:0:0:
256,192,104113,1,0,0:0:0:0:
256,192,104157,1,0,0:0:0:0:
256,192,104334,5,8,0:0:0:0:
256,192,104379,1,8,0:0:0:0:
256,192,104423,1,8,0:0:0:0:
256,192,104601,1,8,0:0:0:0:
256,192,104645,5,8,0:0:0:0:
256,192,104689,1,8,0:0:0:0:
256,192,104778,12,0,105133,0:0:0:0:
256,192,105488,5,12,0:0:0:0:
256,192,105666,1,8,0:0:0:0:
256,192,105755,5,0,0:0:0:0:
256,192,105843,1,0,0:0:0:0:
256,192,105932,5,8,0:0:0:0:
256,192,106021,5,0,0:0:0:0:
256,192,106110,5,8,0:0:0:0:
256,192,106287,5,0,0:0:0:0:
256,192,106376,5,8,0:0:0:0:
256,192,106465,5,0,0:0:0:0:
256,192,106553,1,0,0:0:0:0:
256,192,106731,5,8,0:0:0:0:
256,192,106908,1,8,0:0:0:0:
256,192,106997,1,8,0:0:0:0:
256,192,107086,5,0,0:0:0:0:
256,192,107175,1,0,0:0:0:0:
256,192,107352,1,0,0:0:0:0:
256,192,107530,5,8,0:0:0:0:
256,192,107707,5,0,0:0:0:0:
256,192,107796,5,8,0:0:0:0:
256,192,107885,5,0,0:0:0:0:
256,192,107973,5,8,0:0:0:0:
256,192,108062,1,8,0:0:0:0:
256,192,108151,5,0,0:0:0:0:
256,192,108240,1,0,0:0:0:0:
256,192,108328,1,0,0:0:0:0:
256,192,108417,5,8,0:0:0:0:
256,192,108506,1,8,0:0:0:0:
256,192,108595,5,0,0:0:0:0:
256,192,108772,1,0,0:0:0:0:
256,192,108950,5,8,0:0:0:0:
256,192,109127,5,0,0:0:0:0:
256,192,109216,5,8,0:0:0:0:
256,192,109305,5,0,0:0:0:0:
256,192,109394,1,0,0:0:0:0:
256,192,109571,5,8,0:0:0:0:
256,192,109749,1,8,0:0:0:0:
256,192,109837,1,8,0:0:0:0:
256,192,109926,5,0,0:0:0:0:
256,192,110015,1,0,0:0:0:0:
256,192,110192,1,0,0:0:0:0:
256,192,110281,5,8,0:0:0:0:
256,192,110370,5,0,0:0:0:0:
256,192,110459,1,0,0:0:0:0:
256,192,110547,5,8,0:0:0:0:
256,192,110636,5,0,0:0:0:0:
256,192,110725,5,8,0:0:0:0:
256,192,110814,1,8,0:0:0:0:
256,192,110902,1,8,0:0:0:0:
256,192,110991,5,0,0:0:0:0:
256,192,111169,5,12,0:0:0:0:
256,192,111346,1,8,0:0:0:0:
256,192,111435,5,0,0:0:0:0:
256,192,111524,5,8,0:0:0:0:
256,192,111613,5,0,0:0:0:0:
256,192,111701,1,0,0:0:0:0:
256,192,111760,1,0,0:0:0:0:
256,192,111820,1,0,0:0:0:0:
256,192,111879,5,8,0:0:0:0:
256,192,112056,1,8,0:0:0:0:
256,192,112145,5,0,0:0:0:0:
256,192,112234,1,0,0:0:0:0:
256,192,112323,5,8,0:0:0:0:
256,192,112411,1,8,0:0:0:0:
256,192,112589,1,8,0:0:0:0:
256,192,112766,1,8,0:0:0:0:
256,192,112855,5,0,0:0:0:0:
256,192,112944,5,8,0:0:0:0:
256,192,113033,5,0,0:0:0:0:
256,192,113121,1,0,0:0:0:0:
256,192,113181,1,0,0:0:0:0:
256,192,113240,5,8,0:0:0:0:
256,192,113299,1,8,0:0:0:0:
256,192,113476,1,8,0:0:0:0:
256,192,113565,5,0,0:0:0:0:
256,192,113654,1,0,0:0:0:0:
256,192,113743,5,8,0:0:0:0:
256,192,113831,5,0,0:0:0:0:
256,192,113920,5,8,0:0:0:0:
256,192,114009,1,8,0:0:0:0:
256,192,114068,5,0,0:0:0:0:
256,192,114127,1,0,0:0:0:0:
256,192,114186,5,8,0:0:0:0:
256,192,114275,5,0,0:0:0:0:
256,192,114364,5,8,0:0:0:0:
256,192,114453,5,0,0:0:0:0:
256,192,114542,1,0,0:0:0:0:
256,192,114630,5,8,0:0:0:0:
256,192,114719,5,0,0:0:0:0:
256,192,114778,1,0,0:0:0:0:
256,192,114837,1,0,0:0:0:0:
256,192,114897,5,8,0:0:0:0:
256,192,114985,5,0,0:0:0:0:
256,192,115074,1,0,0:0:0:0:
256,192,115163,5,8,0:0:0:0:
256,192,115252,5,0,0:0:0:0:
256,192,115340,5,8,0:0:0:0:
256,192,115429,5,0,0:0:0:0:
256,192,115607,1,0,0:0:0:0:
256,192,115784,5,8,0:0:0:0:
256,192,115873,1,8,0:0:0:0:
256,192,115962,1,8,0:0:0:0:
256,192,116050,5,0,0:0:0:0:
256,192,116228,5,8,0:0:0:0:
256,192,116405,5,0,0:0:0:0:
256,192,116494,1,0,0:0:0:0:
256,192,116583,5,8,0:0:0:0:
256,192,116672,1,8,0:0:0:0:
256,192,116760,5,0,0:0:0:0:
256,192,116849,1,0,0:0:0:0:
256,192,116938,5,8,0:0:0:0:
256,192,117027,1,8,0:0:0:0:
256,192,117115,5,0,0:0:0:0:
256,192,117204,5,8,0:0:0:0:
256,192,117293,1,8,0:0:0:0:
256,192,117382,5,0,0:0:0:0:
256,192,117471,5,8,0:0:0:0:
256,192,117559,1,8,0:0:0:0:
256,192,117648,5,0,0:0:0:0:
256,192,117737,5,8,0:0:0:0:
256,192,117826,1,8,0:0:0:0:
256,192,117914,5,0,0:0:0:0:
256,192,118003,5,8,0:0:0:0:
256,192,118092,5,0,0:0:0:0:
256,192,118181,5,8,0:0:0:0:
256,192,118269,1,8,0:0:0:0:
256,192,118358,5,0,0:0:0:0:
256,192,118447,5,8,0:0:0:0:
256,192,118536,1,8,0:0:0:0:
256,192,118624,5,0,0:0:0:0:
256,192,118713,5,8,0:0:0:0:
256,192,118802,1,8,0:0:0:0:
256,192,118891,5,0,0:0:0:0:
256,192,118979,1,0,0:0:0:0:
256,192,119068,5,8,0:0:0:0:
256,192,119157,5,0,0:0:0:0:
256,192,119246,5,8,0:0:0:0:
256,192,119334,1,8,0:0:0:0:
256,192,119689,5,0,0:0:0:0:
256,192,119778,5,8,0:0:0:0:
256,192,119867,1,8,0:0:0:0:
256,192,119956,5,0,0:0:0:0:
256,192,120044,5,8,0:0:0:0:
256,192,120133,1,8,0:0:0:0:
256,192,120222,5,0,0:0:0:0:
256,192,120311,5,8,0:0:0:0:
256,192,120400,1,8,0:0:0:0:
256,192,120488,5,0,0:0:0:0:
256,192,120577,1,0,0:0:0:0:
256,192,120666,5,8,0:0:0:0:
256,192,120755,5,0,0:0:0:0:
256,192,120843,1,0,0:0:0:0:
256,192,120932,5,8,0:0:0:0:
256,192,121021,1,8,0:0:0:0:
256,192,121110,1,8,0:0:0:0:
256,192,121287,5,0,0:0:0:0:
256,192,121465,1,0,0:0:0:0:
256,192,121553,1,0,0:0:0:0:
256,192,121642,1,0,0:0:0:0:
256,192,121820,5,8,0:0:0:0:
256,192,122175,1,8,0:0:0:0:
256,192,122263,1,8,0:0:0:0:
256,192,122352,1,8,0:0:0:0:
256,192,122530,5,4,0:0:0:0:
