osu file format v14

[General]
AudioFilename: INSECTICIDE.mp3
AudioLeadIn: 0
PreviewTime: 86501
Countdown: 0
SampleSet: Soft
StackLeniency: 0.7
Mode: 3
LetterboxInBreaks: 0
SpecialStyle: 0
WidescreenStoryboard: 1

[Editor]
DistanceSpacing: 2
BeatDivisor: 4
GridSize: 8
TimelineZoom: 2.799999

[Metadata]
Title:INSECTICIDE
TitleUnicode:INSECTICIDE
Artist:Camellia
ArtistUnicode:Camellia
Creator:-BANGKE-
Version:BASIC
Source:SOUND VOLTEX II -infinite infection-
Tags:Steel Chronicle The Original Soundtrack -LOST NIRVANA- BEMANI KONAMI SDVX sherrysina Fresh Chicken かめりあ
BeatmapID:929444
BeatmapSetID:430319

[Difficulty]
HPDrainRate:7
CircleSize:4
OverallDifficulty:6
ApproachRate:5
SliderMultiplier:1.4
SliderTickRate:1

[Events]
//Background and Video events
0,0,"kewan.jpg",0,0
//Break Periods
//Storyboard Layer 0 (Background)
//Storyboard Layer 1 (Fail)
//Storyboard Layer 2 (Pass)
//Storyboard Layer 3 (Foreground)
//Storyboard Sound Samples

[TimingPoints]
1175,301.507537688442,4,2,1,40,1,0
87707,-100,4,2,1,40,0,1
103687,-100,4,2,1,40,0,0
107004,-100,4,2,1,40,0,1
116652,-100,4,2,1,40,0,0

[HitObjects]
64,192,1175,5,2,0:0:0:0:
192,192,1325,1,0,0:0:0:0:
320,192,1476,1,0,0:0:0:0:
448,192,1627,1,0,0:0:0:0:
64,192,1928,1,0,0:0:0:0:
448,192,2230,1,0,0:0:0:0:
192,192,2531,1,0,0:0:0:0:
320,192,2833,1,0,0:0:0:0:
64,192,3134,1,0,0:0:0:0:
448,192,3587,1,2,0:0:0:0:
320,192,3737,1,0,0:0:0:0:
192,192,3888,1,0,0:0:0:0:
64,192,4039,1,0,0:0:0:0:
448,192,4340,1,0,0:0:0:0:
64,192,4642,1,0,0:0:0:0:
320,192,4943,1,0,0:0:0:0:
192,192,5245,1,0,0:0:0:0:
448,192,5396,1,0,0:0:0:0:
64,192,5546,1,0,0:0:0:0:
320,192,5697,1,0,0:0:0:0:
64,192,5999,1,2,0:0:0:0:
192,192,6149,1,0,0:0:0:0:
320,192,6300,1,0,0:0:0:0:
448,192,6451,1,0,0:0:0:0:
320,192,6752,1,0,0:0:0:0:
64,192,7054,1,0,0:0:0:0:
448,192,7355,1,0,0:0:0:0:
192,192,7657,1,0,0:0:0:0:
320,192,7958,1,0,0:0:0:0:
64,192,8411,1,2,0:0:0:0:
192,192,8561,1,0,0:0:0:0:
320,192,8712,1,0,0:0:0:0:
448,192,8863,1,0,0:0:0:0:
192,192,9164,1,0,0:0:0:0:
320,192,9466,1,0,0:0:0:0:
64,192,9617,1,2,0:0:0:0:
448,192,9918,1,2,0:0:0:0:
192,192,10069,1,2,0:0:0:0:
320,192,10370,1,2,0:0:0:0:
64,192,10521,1,2,0:0:0:0:
448,192,10823,1,2,0:0:0:0:
448,192,11275,1,2,0:0:0:0:
320,192,11727,1,8,0:0:0:0:
64,192,12029,1,2,0:0:0:0:
64,192,12481,1,2,0:0:0:0:
192,192,12933,1,8,0:0:0:0:
320,192,13235,1,2,0:0:0:0:
320,192,13687,1,2,0:0:0:0:
64,192,14139,1,8,0:0:0:0:
192,192,14441,1,2,0:0:0:0:
192,192,14893,1,2,0:0:0:0:
448,192,15345,1,8,0:0:0:0:
320,192,15647,1,2,0:0:0:0:
320,192,16099,1,2,0:0:0:0:
192,192,16551,1,8,0:0:0:0:
64,192,16853,1,2,0:0:0:0:
64,192,17305,1,2,0:0:0:0:
320,192,17757,1,8,0:0:0:0:
192,192,18059,1,2,0:0:0:0:
192,192,18511,1,2,0:0:0:0:
448,192,18963,1,8,0:0:0:0:
64,192,19265,1,2,0:0:0:0:
320,192,19566,128,2,20471:0:0:0:0:
64,192,20471,1,2,0:0:0:0:
192,192,20772,1,2,0:0:0:0:
448,192,21074,1,2,0:0:0:0:
64,192,21376,1,2,0:0:0:0:
320,192,21677,1,2,0:0:0:0:
192,192,21979,1,2,0:0:0:0:
448,192,22280,1,2,0:0:0:0:
64,192,22582,128,2,22883:0:0:0:0:
320,192,22883,1,2,0:0:0:0:
448,192,23185,1,2,0:0:0:0:
64,192,23486,1,2,0:0:0:0:
192,192,23788,1,2,0:0:0:0:
448,192,24089,1,2,0:0:0:0:
320,192,24391,1,2,0:0:0:0:
64,192,24692,1,2,0:0:0:0:
192,192,24918,1,2,0:0:0:0:
320,192,25144,1,2,0:0:0:0:
448,192,25295,128,2,26501:0:0:0:0:
64,192,26501,128,2,27707:0:0:0:0:
320,192,27707,128,2,28913:0:0:0:0:
192,192,28913,1,2,0:0:0:0:
64,192,29215,1,0,0:0:0:0:
192,192,29365,1,0,0:0:0:0:
320,192,29516,128,0,29893:0:0:0:0:
448,192,29893,128,4,30119:0:0:0:0:
64,192,30119,128,4,30421:1:0:0:0:
192,192,30119,1,2,0:0:0:0:
64,192,30571,128,2,30873:0:0:0:0:
192,192,31024,128,2,31325:0:0:0:0:
448,192,31325,1,2,0:0:0:0:
64,192,31627,1,2,0:0:0:0:
320,192,31928,1,2,0:0:0:0:
192,192,32230,1,2,0:0:0:0:
448,192,32531,128,2,32833:0:0:0:0:
448,192,32984,128,2,33285:0:0:0:0:
320,192,33436,128,2,33737:0:0:0:0:
64,192,33737,1,2,0:0:0:0:
448,192,34039,1,2,0:0:0:0:
192,192,34340,1,2,0:0:0:0:
320,192,34642,1,2,0:0:0:0:
448,192,34943,1,4,1:0:0:0:
192,192,34943,128,2,35245:0:0:0:0:
192,192,35396,128,2,35697:0:0:0:0:
320,192,35848,128,2,36149:0:0:0:0:
64,192,36149,1,2,0:0:0:0:
448,192,36451,1,2,0:0:0:0:
192,192,36752,1,2,0:0:0:0:
320,192,37054,1,2,0:0:0:0:
64,192,37355,128,2,37657:0:0:0:0:
448,192,37657,1,2,0:0:0:0:
192,192,37808,128,2,38109:0:0:0:0:
320,192,38109,1,2,0:0:0:0:
448,192,38260,128,2,38561:0:0:0:0:
64,192,38561,1,2,0:0:0:0:
320,192,38712,128,2,39014:0:0:0:0:
192,192,39014,1,2,0:0:0:0:
64,192,39164,128,2,39466:0:0:0:0:
448,192,39466,1,2,0:0:0:0:
192,192,39767,128,2,40069:0:0:0:0:
320,192,39767,1,4,1:0:0:0:
192,192,40220,128,2,40521:0:0:0:0:
320,192,40672,128,2,40973:0:0:0:0:
64,192,40973,1,2,0:0:0:0:
448,192,41275,1,2,0:0:0:0:
320,192,41577,1,2,0:0:0:0:
192,192,41878,1,2,0:0:0:0:
64,192,42180,128,2,42481:0:0:0:0:
448,192,42481,1,2,0:0:0:0:
192,192,42707,1,2,0:0:0:0:
320,192,42933,1,2,0:0:0:0:
64,192,43159,1,2,0:0:0:0:
448,192,43386,1,2,0:0:0:0:
192,192,43612,1,2,0:0:0:0:
320,192,43838,1,2,0:0:0:0:
64,192,43989,128,2,44290:0:0:0:0:
448,192,44290,128,2,44592:0:0:0:0:
192,192,44592,128,2,44893:0:0:0:0:
64,192,44592,1,4,1:0:0:0:
192,192,45044,128,2,45345:0:0:0:0:
448,192,45496,128,8,45798:0:0:0:0:
320,192,45496,1,2,0:0:0:0:
64,192,45798,128,2,46099:0:0:0:0:
64,192,46250,128,2,46551:0:0:0:0:
320,192,46702,128,2,47004:0:0:0:0:
192,192,46702,1,8,0:0:0:0:
448,192,47004,128,2,47305:0:0:0:0:
64,192,47305,1,2,0:0:0:0:
192,192,47607,128,8,47908:0:0:0:0:
320,192,47908,128,0,48210:0:0:0:0:
64,192,48210,128,2,48813:0:0:0:0:
192,192,48813,128,8,49114:0:0:0:0:
448,192,49114,128,0,49416:0:0:0:0:
64,192,49416,1,4,1:0:0:0:
320,192,49416,1,2,0:0:0:0:
192,192,49717,1,8,0:0:0:0:
448,192,50169,1,2,0:0:0:0:
64,192,50320,1,8,0:0:0:0:
320,192,50622,1,2,0:0:0:0:
192,192,50923,1,8,0:0:0:0:
64,192,51376,1,2,0:0:0:0:
320,192,51526,1,8,0:0:0:0:
448,192,51828,1,2,0:0:0:0:
192,192,52129,1,8,0:0:0:0:
320,192,52582,1,2,0:0:0:0:
64,192,52732,1,8,0:0:0:0:
448,192,53034,1,2,0:0:0:0:
320,192,53335,1,8,0:0:0:0:
64,192,53788,1,2,0:0:0:0:
320,192,53938,1,8,0:0:0:0:
192,192,54240,1,2,0:0:0:0:
448,192,54541,1,8,0:0:0:0:
320,192,54994,1,2,0:0:0:0:
64,192,55144,1,8,0:0:0:0:
192,192,55446,1,2,0:0:0:0:
320,192,55747,1,8,0:0:0:0:
448,192,56200,1,2,0:0:0:0:
192,192,56350,1,8,0:0:0:0:
64,192,56652,1,2,0:0:0:0:
320,192,56953,1,8,0:0:0:0:
192,192,57406,1,2,0:0:0:0:
448,192,57556,1,8,0:0:0:0:
64,192,57858,128,4,58159:1:0:0:0:
192,192,57858,1,2,0:0:0:0:
448,192,58159,128,0,58762:0:0:0:0:
192,192,58461,1,8,0:0:0:0:
320,192,58762,128,0,59064:0:0:0:0:
64,192,59064,1,2,0:0:0:0:
192,192,59215,1,2,0:0:0:0:
320,192,59365,1,2,0:0:0:0:
448,192,59667,1,8,0:0:0:0:
64,192,59818,1,2,0:0:0:0:
320,192,59968,1,2,0:0:0:0:
192,192,60119,1,2,0:0:0:0:
448,192,60270,128,2,60722:0:0:0:0:
64,192,60722,1,8,0:0:0:0:
320,192,61024,1,2,0:0:0:0:
192,192,61174,1,8,0:0:0:0:
448,192,61476,1,2,0:0:0:0:
320,192,61627,1,2,0:0:0:0:
192,192,61778,1,2,0:0:0:0:
64,192,61928,1,2,0:0:0:0:
448,192,62079,1,2,0:0:0:0:
192,192,62381,1,8,0:0:0:0:
320,192,62531,1,2,0:0:0:0:
64,192,62682,1,2,0:0:0:0:
448,192,62833,1,2,0:0:0:0:
192,192,62984,128,0,63285:0:0:0:0:
320,192,63285,1,8,0:0:0:0:
64,192,63436,1,2,0:0:0:0:
448,192,63587,1,2,0:0:0:0:
192,192,63737,1,2,0:0:0:0:
320,192,63888,128,0,64114:0:0:0:0:
64,192,64114,1,8,0:0:0:0:
192,192,64340,1,8,0:0:0:0:
320,192,64491,1,2,0:0:0:0:
448,192,64642,1,2,0:0:0:0:
64,192,64793,1,2,0:0:0:0:
192,192,65094,1,8,0:0:0:0:
448,192,65245,1,2,0:0:0:0:
64,192,65396,1,2,0:0:0:0:
320,192,65546,1,2,0:0:0:0:
192,192,65697,128,0,66149:0:0:0:0:
448,192,66149,1,8,0:0:0:0:
320,192,66300,1,2,0:0:0:0:
192,192,66451,1,2,0:0:0:0:
64,192,66602,128,0,66903:0:0:0:0:
448,192,66903,1,2,0:0:0:0:
192,192,67054,1,2,0:0:0:0:
320,192,67205,1,2,0:0:0:0:
64,192,67355,1,2,0:0:0:0:
448,192,67506,1,2,0:0:0:0:
192,192,67808,1,8,0:0:0:0:
448,192,67958,1,2,0:0:0:0:
64,192,68109,1,2,0:0:0:0:
320,192,68260,1,2,0:0:0:0:
192,192,68561,1,8,0:0:0:0:
448,192,68712,1,2,0:0:0:0:
64,192,68863,1,2,0:0:0:0:
320,192,69014,1,2,0:0:0:0:
192,192,69315,1,8,0:0:0:0:
448,192,69466,1,2,0:0:0:0:
64,192,69617,1,2,0:0:0:0:
320,192,69767,1,2,0:0:0:0:
192,192,69918,128,2,70220:0:0:0:0:
448,192,70220,1,2,0:0:0:0:
320,192,70370,1,2,0:0:0:0:
192,192,70521,1,2,0:0:0:0:
64,192,70823,1,8,0:0:0:0:
320,192,70973,1,2,0:0:0:0:
192,192,71124,1,2,0:0:0:0:
448,192,71275,1,2,0:0:0:0:
192,192,71577,1,8,0:0:0:0:
448,192,71727,1,2,0:0:0:0:
64,192,71878,1,2,0:0:0:0:
320,192,72029,1,2,0:0:0:0:
448,192,72330,1,8,0:0:0:0:
192,192,72481,1,2,0:0:0:0:
320,192,72632,1,2,0:0:0:0:
64,192,72783,1,2,0:0:0:0:
448,192,72933,1,2,0:0:0:0:
192,192,73084,1,2,0:0:0:0:
320,192,73235,128,2,77757:0:0:0:0:
64,192,73235,1,4,1:0:0:0:
64,192,77757,128,0,78059:0:0:0:0:
448,192,78059,1,2,0:0:0:0:
192,192,78360,1,0,0:0:0:0:
320,192,78662,1,0,0:0:0:0:
64,192,78963,1,0,0:0:0:0:
448,192,79265,1,0,0:0:0:0:
192,192,79566,1,0,0:0:0:0:
320,192,79868,1,0,0:0:0:0:
64,192,80169,1,0,0:0:0:0:
448,192,80471,1,2,0:0:0:0:
320,192,80622,1,2,0:0:0:0:
192,192,80772,1,2,0:0:0:0:
64,192,81074,1,0,0:0:0:0:
448,192,81376,1,0,0:0:0:0:
192,192,81677,1,0,0:0:0:0:
320,192,81979,1,0,0:0:0:0:
64,192,82280,1,0,0:0:0:0:
192,192,82582,128,2,82883:0:0:0:0:
448,192,82883,1,2,0:0:0:0:
64,192,83185,1,2,0:0:0:0:
320,192,83486,1,2,0:0:0:0:
192,192,83788,1,2,0:0:0:0:
448,192,84089,1,2,0:0:0:0:
64,192,84391,1,2,0:0:0:0:
320,192,84692,1,2,0:0:0:0:
192,192,84994,1,2,0:0:0:0:
448,192,85295,1,2,0:0:0:0:
320,192,85597,1,2,0:0:0:0:
192,192,85898,1,2,0:0:0:0:
64,192,86200,1,2,0:0:0:0:
320,192,86501,1,2,0:0:0:0:
448,192,86501,1,4,1:0:0:0:
192,192,86803,1,0,0:0:0:0:
448,192,86953,1,0,0:0:0:0:
64,192,87104,128,0,87481:0:0:0:0:
320,192,87481,128,4,87707:0:0:0:0:
192,192,87707,1,2,0:0:0:0:
64,192,87707,1,4,1:0:0:0:
448,192,88009,1,2,0:0:0:0:
64,192,88310,1,2,0:0:0:0:
320,192,88612,1,2,0:0:0:0:
192,192,88913,1,2,0:0:0:0:
448,192,89215,1,2,0:0:0:0:
64,192,89516,1,2,0:0:0:0:
320,192,89818,1,2,0:0:0:0:
192,192,90119,1,2,0:0:0:0:
448,192,90421,1,2,0:0:0:0:
320,192,90722,1,2,0:0:0:0:
192,192,91024,1,2,0:0:0:0:
64,192,91325,1,2,0:0:0:0:
192,192,91627,1,2,0:0:0:0:
320,192,91928,1,2,0:0:0:0:
448,192,92230,1,2,0:0:0:0:
192,192,92531,1,2,0:0:0:0:
320,192,92833,1,2,0:0:0:0:
448,192,93134,1,2,0:0:0:0:
64,192,93436,1,2,0:0:0:0:
320,192,93737,1,2,0:0:0:0:
192,192,94039,1,2,0:0:0:0:
448,192,94340,1,2,0:0:0:0:
64,192,94642,1,2,0:0:0:0:
192,192,94943,1,2,0:0:0:0:
320,192,95245,1,2,0:0:0:0:
64,192,95546,1,2,0:0:0:0:
448,192,95848,1,2,0:0:0:0:
192,192,96149,1,2,0:0:0:0:
320,192,96451,1,2,0:0:0:0:
64,192,96752,1,2,0:0:0:0:
192,192,96903,1,2,0:0:0:0:
320,192,97054,128,2,97355:0:0:0:0:
64,192,97355,1,2,0:0:0:0:
448,192,97355,1,4,1:0:0:0:
192,192,97657,1,8,0:0:0:0:
320,192,97958,1,2,0:0:0:0:
64,192,98260,1,8,0:0:0:0:
448,192,98561,1,2,0:0:0:0:
192,192,98863,1,8,0:0:0:0:
320,192,99164,1,2,0:0:0:0:
448,192,99466,1,8,0:0:0:0:
64,192,99767,1,2,0:0:0:0:
192,192,100069,1,8,0:0:0:0:
320,192,100370,1,2,0:0:0:0:
64,192,100672,1,8,0:0:0:0:
448,192,100973,1,2,0:0:0:0:
192,192,101275,1,8,0:0:0:0:
320,192,101577,1,2,0:0:0:0:
64,192,101878,1,8,0:0:0:0:
192,192,102180,128,2,102481:0:0:0:0:
320,192,102481,1,4,1:0:0:0:
448,192,102481,1,2,0:0:0:0:
64,192,102783,1,0,0:0:0:0:
448,192,103084,1,8,0:0:0:0:
192,192,103386,1,0,0:0:0:0:
448,192,103687,1,8,0:0:0:0:
64,192,103838,1,2,0:0:0:0:
320,192,104064,1,2,0:0:0:0:
192,192,104290,1,2,0:0:0:0:
448,192,104592,1,2,0:0:0:0:
64,192,104818,1,2,0:0:0:0:
320,192,105044,1,2,0:0:0:0:
192,192,105195,1,2,0:0:0:0:
448,192,105421,1,2,0:0:0:0:
64,192,105647,1,2,0:0:0:0:
320,192,105798,128,2,106401:0:0:0:0:
192,192,106401,128,2,106702:0:0:0:0:
448,192,106702,128,8,107004:0:0:0:0:
64,192,107004,128,2,108813:0:0:0:0:
320,192,107004,1,4,1:0:0:0:
448,192,108813,1,2,0:0:0:0:
192,192,109114,1,2,0:0:0:0:
320,192,109114,1,8,0:0:0:0:
64,192,109416,1,2,0:0:0:0:
448,192,109416,128,0,111225:0:0:0:0:
64,192,111225,1,2,0:0:0:0:
192,192,111526,1,2,0:0:0:0:
320,192,111526,1,8,0:0:0:0:
320,192,111828,128,4,113637:1:0:0:0:
448,192,111828,1,2,0:0:0:0:
64,192,113637,1,2,0:0:0:0:
320,192,113938,1,2,0:0:0:0:
448,192,113938,1,8,0:0:0:0:
192,192,114240,128,0,116049:0:0:0:0:
64,192,114240,1,2,0:0:0:0:
448,192,116049,1,2,0:0:0:0:
320,192,116350,1,2,0:0:0:0:
64,192,116350,1,8,0:0:0:0:
192,192,116652,1,2,0:0:0:0:
448,192,116652,1,4,1:0:0:0:
320,192,116803,1,0,0:0:0:0:
64,192,116953,1,0,0:0:0:0:
448,192,117104,1,0,0:0:0:0:
192,192,117406,1,0,0:0:0:0:
320,192,117707,1,0,0:0:0:0:
64,192,118009,1,0,0:0:0:0:
448,192,118310,1,0,0:0:0:0:
192,192,118612,1,0,0:0:0:0:
448,192,119064,1,2,0:0:0:0:
320,192,119215,1,0,0:0:0:0:
192,192,119365,1,0,0:0:0:0:
64,192,119516,1,0,0:0:0:0:
448,192,119818,1,0,0:0:0:0:
192,192,120119,1,0,0:0:0:0:
320,192,120421,1,0,0:0:0:0:
64,192,120722,1,0,0:0:0:0:
448,192,120873,1,0,0:0:0:0:
192,192,121024,1,0,0:0:0:0:
320,192,121174,1,0,0:0:0:0:
64,192,121476,1,2,0:0:0:0:
192,192,121627,1,0,0:0:0:0:
320,192,121778,1,0,0:0:0:0:
448,192,121928,1,0,0:0:0:0:
192,192,122230,1,0,0:0:0:0:
320,192,122531,1,0,0:0:0:0:
64,192,122833,1,0,0:0:0:0:
448,192,123134,1,0,0:0:0:0:
192,192,123436,1,0,0:0:0:0:
448,192,123888,1,2,0:0:0:0:
320,192,124039,1,0,0:0:0:0:
192,192,124190,1,0,0:0:0:0:
64,192,124340,1,0,0:0:0:0:
448,192,124642,1,0,0:0:0:0:
192,192,124943,1,0,0:0:0:0:
320,192,125245,1,0,0:0:0:0:
64,192,125546,1,0,0:0:0:0:
448,192,125697,1,0,0:0:0:0:
192,192,125848,1,0,0:0:0:0:
320,192,125999,128,0,128712:0:0:0:0:
64,192,128486,128,0,128712:0:0:0:0:
