osu file format v14

[General]
AudioFilename: 05 Fastest Crash.mp3
AudioLeadIn: 0
PreviewTime: 66287
Countdown: 0
SampleSet: Normal
StackLeniency: 0.7
Mode: 0
LetterboxInBreaks: 0
WidescreenStoryboard: 0

[Editor]
DistanceSpacing: 0.5
BeatDivisor: 4
GridSize: 4
TimelineZoom: 2.999999

[Metadata]
Title:Fastest Crash
TitleUnicode:Fastest Crash
Artist:Camellia
ArtistUnicode:かめりあ
Creator:sukiNathan
Version:Hyper
Source:
Tags:oya masaya cametek RLC kevincela -kevincela- toybot mikii 大箭将也 hardcore dubstep かめるかめりあ
BeatmapID:735378
BeatmapSetID:331025

[Difficulty]
HPDrainRate:5
CircleSize:4
OverallDifficulty:7
ApproachRate:8
SliderMultiplier:1.6
SliderTickRate:1

[Events]
//Background and Video events
0,0,"bg.jpg",0,0
//Break Periods
2,89344,92965
2,144201,152394
//Storyboard Layer 0 (Background)
//Storyboard Layer 1 (Fail)
//Storyboard Layer 2 (Pass)
//Storyboard Layer 3 (Foreground)
//Storyboard Sound Samples

[TimingPoints]
2287,285.714285714286,4,2,1,80,1,0
11429,-153.846153846154,4,2,1,55,0,0
20572,-100,4,2,1,65,0,0
29715,-100,4,1,1,80,0,0
48001,-100,4,2,1,80,0,0
66287,-100,4,2,1,80,0,1
84572,-100,4,2,1,80,0,0
93715,-100,4,1,1,80,0,0
101858,-100,4,2,0,80,0,0
102858,-100,4,2,1,80,0,0
105715,-100,4,1,1,80,0,0
106001,-100,4,2,1,80,0,0
107715,-100,4,1,1,80,0,0
108001,-100,4,2,1,80,0,0
110287,-100,4,1,1,80,0,0
110858,-100,4,2,1,80,0,0
112144,-100,4,1,1,80,0,0
112429,-100,4,2,1,80,0,0
114858,-100,4,1,1,80,0,0
115144,-100,4,2,1,80,0,0
116858,-100,4,1,1,80,0,0
117144,-100,4,2,1,80,0,0
119429,-100,4,1,1,80,0,0
119715,-100,4,2,1,80,0,0
121144,-100,4,1,1,80,0,0
121429,-100,4,2,1,80,0,0
122858,-100,4,1,1,80,0,0
123429,-100,4,2,1,80,0,0
124001,-100,4,1,1,80,0,0
124287,-100,4,2,1,80,0,0
125144,-100,4,1,1,80,0,0
125715,-100,4,2,1,80,0,0
126001,-100,4,1,1,80,0,0
126287,-100,4,2,1,80,0,0
127429,-100,4,1,1,80,0,0
127715,-100,4,2,1,80,0,0
128572,-100,4,1,1,80,0,0
129144,-100,4,2,1,80,0,0
130287,-100,4,1,1,80,0,0
130572,-100,4,2,1,80,0,0
130858,-100,4,1,1,80,0,0
131144,-100,4,2,1,80,0,0
132001,-100,4,1,1,80,0,0
132572,-100,4,2,1,80,0,0
133144,-100,4,1,1,80,0,0
133429,-100,4,2,1,80,0,0
134287,-100,4,1,1,80,0,0
134858,-100,4,1,1,80,0,0
135144,-100,4,2,1,80,0,0
136572,-100,4,1,1,80,0,0
136858,-100,4,2,1,80,0,0
144001,-100,4,2,0,5,0,0
148572,-100,4,2,1,50,0,0
153144,-100,4,1,1,20,0,0
157429,-100,4,2,2,100,0,0
157715,-100,4,2,1,80,0,1
176001,-100,4,2,0,80,0,0
176287,-100,4,2,1,80,0,1
194287,-100,4,2,1,80,0,0
221715,-100,4,1,1,80,0,0
229715,-100,4,2,1,80,0,0

[Colours]
Combo1 : 255,94,55
Combo2 : 173,255,95
Combo3 : 255,88,100
Combo4 : 17,254,176

[HitObjects]
64,56,11429,6,0,L|56:176,1,103.999995239258,2|0,0:2|0:0,0:0:0:0:
60,240,11858,2,0,P|136:216|220:248,1,155.999992858887,2|0,0:2|0:0,0:0:0:0:
260,296,12429,1,0,0:0:0:0:
260,296,12572,6,0,P|320:324|368:308,1,103.999995239258,2|0,0:2|0:0,0:0:0:0:
320,240,13001,2,0,L|324:76,1,155.999992858887,2|0,0:2|0:0,0:0:0:0:
264,32,13572,1,0,0:0:0:0:
264,32,13715,6,0,L|136:24,1,103.999995239258,2|0,0:2|0:0,0:0:0:0:
84,40,14144,2,0,P|68:80|128:172,1,155.999992858887,2|0,0:2|0:0,0:0:0:0:
192,200,14715,1,0,0:0:0:0:
192,200,14858,6,0,L|192:324,1,103.999995239258,2|0,0:2|0:0,0:0:0:0:
268,324,15287,2,0,B|312:344|312:344|432:344,1,155.999992858887,2|0,0:2|0:0,0:0:0:0:
472,288,15858,1,0,0:0:0:0:
472,288,16001,6,0,B|484:248|484:248|484:176,1,103.999995239258,2|0,0:2|0:0,0:0:0:0:
420,128,16429,2,0,L|252:136,1,155.999992858887,2|0,0:2|0:0,0:0:0:0:
216,200,17001,1,0,0:0:0:0:
216,200,17144,6,0,L|224:308,1,103.999995239258,2|0,0:2|0:0,0:0:0:0:
156,344,17572,2,0,P|52:352|0:316,1,155.999992858887,2|0,0:2|0:0,0:0:0:0:
20,248,18144,1,0,0:0:0:0:
20,248,18287,6,0,L|28:132,1,103.999995239258,2|0,0:2|0:0,0:0:0:0:
76,84,18715,2,0,P|128:104|232:60,1,155.999992858887,2|0,0:2|0:0,0:0:0:0:
284,28,19287,1,0,0:0:0:0:
284,28,19429,6,0,L|400:32,1,103.999995239258,2|0,0:0|0:0,0:0:0:0:
440,92,19858,2,0,B|452:175|452:175|432:248,1,155.999992858887,2|0,0:0|0:0,0:0:0:0:
396,320,20429,1,0,0:0:0:0:
280,328,20572,6,0,P|220:320|120:364,1,160,4|0,1:0|0:0,0:0:0:0:
84,284,21001,2,0,L|80:104,1,160,4|0,1:2|0:0,0:0:0:0:
76,44,21429,1,0,0:0:0:0:
76,44,21715,6,0,B|152:28|152:28|248:52,1,160,4|0,1:0|0:0,0:0:0:0:
200,124,22144,2,0,B|284:128|284:128|376:92,1,160,4|0,1:2|0:0,0:0:0:0:
412,44,22572,1,0,0:0:0:0:
412,44,22858,6,0,P|432:100|376:184,1,160,4|0,1:0|0:0,0:0:0:0:
312,220,23287,2,0,P|224:236|176:304,1,160,4|0,1:2|0:0,0:0:0:0:
180,368,23715,1,0,0:0:0:0:
180,368,24001,6,0,B|56:360|56:360|36:320,1,160,4|0,1:0|0:0,0:0:0:0:
41,247,24429,2,0,B|165:255|165:255|180:286,1,160,4|0,1:2|0:0,0:0:0:0:
248,328,24858,2,0,L|344:336,1,80,0|0,0:0|0:0,0:0:0:0:
408,340,25144,2,0,L|509:337,1,80,4|0,1:0|0:0,1:0:0:0:
480,257,25429,1,8,0:0:0:0:
469,181,25572,2,0,L|469:81,1,80,4|2,1:2|0:2,0:0:0:0:
372,120,25858,2,0,L|192:120,1,160,8|0,0:0|0:0,0:0:0:0:
100,128,26287,6,0,P|33:69|63:8,1,160,4|8,1:0|0:0,0:0:0:0:
168,12,26715,1,4,1:2:0:0:
168,12,27001,1,8,0:0:0:0:
248,32,27144,2,0,L|304:40,3,40
328,48,27429,6,0,B|356:120|356:120|336:216,1,160,4|8,1:0|0:0,0:0:0:0:
320,280,27858,2,0,B|247:308|247:308|166:291,1,160,4|8,1:2|0:0,0:0:0:0:
94,255,28287,1,0,1:0:0:0:
82,263,28358,1,0,1:0:0:0:
70,275,28429,1,0,1:0:0:0:
62,287,28501,1,0,1:0:0:0:
54,299,28572,5,4,1:0:0:0:
132,56,29429,1,2,0:0:0:0:
132,56,29715,6,0,L|300:48,1,160,4|0,0:0|0:0,0:0:0:0:
368,76,30144,1,0,0:0:0:0:
368,76,30287,2,0,L|372:188,1,80,0|0,0:0|0:0,0:0:0:0:
376,236,30572,2,0,L|480:232,1,80,0|0,0:0|0:0,0:0:0:0:
464,312,30858,6,0,L|280:320,1,160,0|0,0:0|0:0,0:0:0:0:
232,284,31287,1,0,0:0:0:0:
232,284,31429,2,0,L|228:188,1,80,0|0,0:0|0:0,0:0:0:0:
168,148,31715,2,0,L|56:152,1,80,0|0,0:0|0:0,0:0:0:0:
88,151,31929,1,0,0:0:0:0:
88,151,32001,6,0,P|22:132|18:25,1,160,2|2,0:2|0:2,0:0:0:0:
84,36,32429,2,0,L|196:36,1,80,2|0,0:2|0:0,0:0:0:0:
224,88,32715,2,0,P|248:140|248:172,1,80,2|0,0:2|0:0,0:0:0:0:
196,224,33001,1,2,0:2:0:0:
120,252,33144,6,0,P|96:304|96:336,2,80,0|2|0,0:0|0:2|0:0,0:0:0:0:
172,312,33572,2,0,P|228:328|276:324,1,80,2|2,0:2|0:2,0:0:0:0:
312,372,33858,1,2,0:2:0:0:
400,316,34001,2,0,L|408:236,1,80,0|2,0:2|2:0,0:0:0:0:
416,156,34287,6,0,P|412:100|328:36,1,160
280,100,34715,1,0,0:0:0:0:
280,100,34858,2,0,P|220:104|176:96,1,80,0|0,0:0|0:0,0:0:0:0:
132,56,35144,2,0,P|92:51|52:54,1,80,0|0,0:0|0:0,0:0:0:0:
88,137,35429,6,0,L|80:313,1,160
148,350,35858,1,0,0:0:0:0:
148,350,36001,2,0,P|192:366|232:366,1,80
297,350,36287,2,0,P|357:350|397:366,1,80
375,355,36501,1,0,0:0:0:0:
376,356,36572,6,0,L|400:180,1,160,2|2,0:2|0:2,0:0:0:0:
440,128,37001,2,0,L|348:112,1,80,2|0,0:2|0:0,0:0:0:0:
304,172,37287,2,0,L|200:156,1,80,2|0,0:2|0:0,0:0:0:0:
148,144,37572,1,2,0:2:0:0:
68,148,37715,6,0,B|56:108|56:108|64:44,1,80,0|2,0:0|0:2,0:0:0:0:
132,32,38001,2,0,B|160:64|160:64|284:68,1,160,0|0,0:0|0:0,0:0:0:0:
352,40,38429,1,0,0:0:0:0:
448,56,38572,2,0,B|467:91|467:91|448:164,1,80,0|2,0:0|2:0,0:0:0:0:
420,208,38858,6,0,L|240:208,1,160,4|0,0:0|0:0,0:0:0:0:
248,288,39287,1,0,0:0:0:0:
248,288,39429,2,0,L|340:288,1,80,0|0,0:0|0:0,0:0:0:0:
268,372,39715,2,0,L|188:372,1,80
128,312,40001,6,0,P|102:243|113:147,1,160
172,108,40429,1,0,0:0:0:0:
172,108,40572,2,0,P|228:116|264:112,1,80,0|0,0:0|0:0,0:0:0:0:
300,48,40858,2,0,P|339:46|379:54,1,80,0|0,0:0|0:0,0:0:0:0:
379,54,41072,1,0,0:0:0:0:
379,54,41144,6,0,P|395:107|376:224,1,160,0|0,0:0|0:0,0:0:0:0:
320,260,41572,1,0,0:0:0:0:
320,260,41715,2,0,L|228:264,1,80,0|0,0:0|0:0,0:0:0:0:
168,344,42001,2,0,L|88:347,1,80
80,256,42287,6,0,L|80:156,2,80
172,200,42715,1,0,0:0:0:0:
172,200,42787,1,0,0:0:0:0:
172,200,42858,2,0,L|172:92,1,80,0|0,0:0|0:0,0:0:0:0:
184,40,43144,1,0,0:0:0:0:
184,40,43429,6,0,P|260:55|310:116,1,160,4|0,0:0|0:0,0:0:0:0:
383,150,43858,1,0,0:0:0:0:
383,150,44001,2,0,L|463:154,1,80,0|0,0:0|0:0,0:0:0:0:
460,236,44287,1,0,0:0:0:0:
460,236,44572,6,0,L|280:228,1,160,4|0,0:0|0:0,0:0:0:0:
228,192,45001,1,0,0:0:0:0:
228,192,45144,2,0,P|188:185|148:183,1,80,0|0,0:0|0:0,0:0:0:0:
84,228,45429,1,0,0:0:0:0:
84,228,45715,6,0,P|72:172|88:48,1,160,4|0,0:0|0:0,0:0:0:0:
160,72,46144,1,0,0:0:0:0:
160,72,46287,2,0,P|216:80|260:76,1,80,0|2,0:0|2:0,0:0:0:0:
325,83,46572,2,0,P|364:82|404:90,1,80,0|2,0:0|2:0,0:0:0:0:
374,177,46858,6,0,L|382:225,7,40,4|0|0|0|0|0|0|0,0:0|0:0|0:0|0:0|0:0|0:0|0:0|0:0,0:0:0:0:
379,252,47429,2,0,L|367:344,1,80
291,335,47715,1,0,0:0:0:0:
279,327,47787,1,0,0:0:0:0:
267,319,47858,1,0,0:0:0:0:
255,311,47929,1,0,0:0:0:0:
244,300,48001,6,0,P|208:236|212:148,1,160,4|0,1:0|1:0,0:0:0:0:
292,152,48429,1,0,0:0:0:0:
292,152,48572,2,0,P|344:160|384:160,1,80,0|0,1:0|0:0,0:0:0:0:
376,80,48858,2,0,P|324:72|284:72,1,80,0|0,1:0|0:0,0:0:0:0:
220,92,49144,6,0,P|156:112|64:88,1,160,0|0,1:0|1:0,0:0:0:0:
20,156,49572,1,0,0:0:0:0:
20,156,49715,2,0,L|16:256,1,80,0|0,1:0|0:0,0:0:0:0:
60,304,50001,1,0,1:0:0:0:
60,304,50287,6,0,P|138:273|228:304,1,160,2|0,1:1|1:0,0:0:0:0:
273,342,50715,2,0,L|325:362,2,40,2|0|0,0:1|0:0|1:1,0:0:0:0:
308,236,51001,2,0,L|364:84,1,160,2|0,0:1|0:0,0:0:0:0:
436,120,51429,5,0,1:0:0:0:
436,120,51572,1,0,0:0:0:0:
468,192,51715,2,0,L|440:280,1,80,2|0,1:1|0:0,0:0:0:0:
387,327,52001,2,0,P|311:319|280:328,1,80,2|0,1:1|0:0,0:0:0:0:
230,333,52287,1,4,1:2:0:0:
230,333,52715,5,0,1:0:0:0:
148,336,52858,2,0,L|30:338,1,80,0|0,1:0|0:0,0:0:0:0:
32,264,53144,2,0,L|32:156,1,80,0|0,1:0|0:0,0:0:0:0:
104,148,53429,2,0,L|104:36,1,80,0|0,1:0|0:0,0:0:0:0:
184,60,53715,6,0,P|224:76|352:44,1,160,0|0,1:0|1:0,0:0:0:0:
412,84,54144,1,0,0:0:0:0:
412,84,54287,2,0,L|428:176,1,80,0|0,1:0|0:0,0:0:0:0:
488,212,54572,2,0,L|504:304,1,80,0|0,1:0|0:0,0:0:0:0:
444,344,54858,6,0,P|360:340|272:348,1,160,2|0,1:1|1:0,0:0:0:0:
204,348,55287,2,0,L|144:360,2,40,2|0|0,0:1|0:0|1:0,0:0:0:0:
280,264,55572,2,0,P|296:184|292:96,1,160,2|0,0:1|0:1,0:0:0:0:
220,68,56001,6,0,L|168:64,3,40,0|0|0|0,1:0|0:0|0:0|0:0,0:0:0:0:
140,60,56287,2,0,L|40:52,1,80,4|0,1:2|0:0,0:0:0:0:
52,132,56572,2,0,L|131:138,1,80,0|4,1:2|1:2,0:0:0:0:
212,148,56858,1,0,0:0:0:0:
212,148,57144,6,0,P|208:220|216:332,1,160,4|0,1:0|1:0,0:0:0:0:
280,352,57572,1,0,0:0:0:0:
280,352,57715,2,0,P|352:368|392:368,1,80,0|0,1:0|0:0,0:0:0:0:
408,304,58001,2,0,P|447:309|485:320,1,80,0|0,1:0|0:0,0:0:0:0:
492,240,58287,6,0,P|496:116|488:72,1,160,0|0,1:0|1:0,0:0:0:0:
420,44,58715,1,0,0:0:0:0:
420,44,58858,2,0,L|324:48,1,80,0|0,1:0|0:0,0:0:0:0:
280,100,59144,2,0,L|164:104,1,80,0|0,1:0|0:0,0:0:0:0:
120,96,59429,6,0,P|56:112|84:208,1,160,2|0,1:1|1:0,0:0:0:0:
128,236,59858,2,0,L|120:284,2,40,2|0|0,0:1|0:0|1:0,0:0:0:0:
228,188,60144,2,0,B|284:176|284:176|420:200,1,160,2|0,0:1|0:0,0:0:0:0:
424,264,60572,5,0,1:0:0:0:
424,264,60715,1,0,0:0:0:0:
352,304,60858,2,0,L|244:288,1,80,2|0,1:1|0:0,0:0:0:0:
192,292,61144,2,0,P|120:300|40:356,1,160,2|0,1:1|1:0,0:0:0:0:
20,272,61572,1,0,0:0:0:0:
20,272,61715,6,0,L|24:104,1,160,2|0,0:2|1:0,0:0:0:0:
92,68,62144,2,0,P|136:96|244:88,1,160,2|0,0:2|0:0,0:0:0:0:
300,36,62572,2,0,L|396:36,1,80,0|0,1:0|0:0,0:0:0:0:
440,92,62858,6,0,L|448:264,1,160,2|0,1:2|1:0,0:0:0:0:
384,300,63287,2,0,L|192:320,1,160,2|0,0:2|0:0,0:0:0:0:
216,236,63715,2,0,L|304:228,1,80,0|0,1:0|0:0,0:0:0:0:
376,220,64001,6,0,B|380:136|380:136|344:64,1,160,2|0,1:1|1:0,0:0:0:0:
268,72,64429,2,0,L|268:128,2,40,2|0|0,0:1|0:0|1:0,0:0:0:0:
160,40,64715,6,0,B|76:44|76:44|24:100,1,160,2|0,0:1|0:0,0:0:0:0:
76,160,65144,2,0,L|68:220,3,40,2|0|0|0,1:0|0:0|1:0|0:0,0:0:0:0:
72,240,65429,2,0,L|80:344,1,80,0|2,1:0|1:0,0:0:0:0:
160,360,65715,2,0,P|208:356|252:364,1,80,0|0,1:0|1:0,0:0:0:0:
332,360,66001,1,0,1:0:0:0:
348,360,66072,1,0,1:0:0:0:
364,360,66144,1,0,1:0:0:0:
380,360,66215,1,0,1:0:0:0:
396,356,66287,6,0,L|416:188,1,160,6|2,1:1|1:2,0:0:0:0:
480,152,66715,1,2,0:1:0:0:
480,152,66858,2,0,L|488:56,1,80,0|2,1:0|0:2,0:0:0:0:
408,56,67144,1,2,1:2:0:0:
332,34,67287,1,2,0:2:0:0:
332,34,67358,1,0,0:0:0:0:
332,34,67429,6,0,P|276:52|172:48,1,160,2|2,1:1|1:2,0:0:0:0:
96,56,67858,1,2,0:1:0:0:
96,56,68001,2,0,L|84:160,1,80,0|2,1:2|0:2,0:0:0:0:
76,214,68287,1,0,1:0:0:0:
116,288,68429,1,2,0:2:0:0:
116,288,68501,1,0,0:0:0:0:
116,288,68572,6,0,P|196:288|272:324,1,160,2|2,1:1|1:2,0:0:0:0:
340,352,69001,1,2,0:1:0:0:
340,352,69144,2,0,P|416:364|448:360,1,80,0|2,1:0|0:2,0:0:0:0:
496,344,69429,2,0,P|501:296|500:236,1,80,2|2,1:2|0:2,0:0:0:0:
416,196,69715,6,0,P|392:112|400:32,1,160,2|2,1:1|1:2,0:0:0:0:
319,59,70144,1,2,0:1:0:0:
240,60,70287,2,0,P|164:60|132:56,1,80,0|2,1:0|1:2,0:0:0:0:
88,24,70572,2,0,P|20:24|-20:28,1,80,2|2,1:2|0:2,0:0:0:0:
4,132,70858,6,0,L|0:224,1,80,2|2,1:1|1:2,0:0:0:0:
88,180,71144,2,0,L|88:272,1,80,2|2,1:2|1:1,0:0:0:0:
56,340,71429,2,0,P|107:349|139:352,1,80,0|2,1:0|0:2,0:0:0:0:
216,348,71715,1,2,1:2:0:0:
180,273,71858,1,2,0:2:0:0:
180,273,71929,1,0,0:0:0:0:
180,273,72001,6,0,L|348:280,1,160,2|2,1:1|1:2,0:0:0:0:
420,292,72429,1,2,0:1:0:0:
420,292,72572,2,0,L|516:296,1,80,0|2,1:0|0:2,0:0:0:0:
476,216,72858,1,2,1:2:0:0:
496,144,73001,1,2,0:2:0:0:
496,144,73072,1,0,0:0:0:0:
496,144,73144,6,0,P|492:60|424:28,1,160,2|2,1:1|1:2,0:0:0:0:
360,56,73572,1,2,0:1:0:0:
360,56,73715,2,0,P|296:56|256:48,1,80,0|2,1:0|0:2,0:0:0:0:
204,40,74001,2,0,L|200:156,1,80,2|2,1:2|0:2,0:0:0:0:
204,228,74287,6,0,P|188:292|88:324,1,160,2|2,1:1|1:2,0:0:0:0:
48,276,74715,1,2,0:1:0:0:
32,196,74858,2,0,L|24:104,1,80,0|2,1:0|1:2,0:0:0:0:
104,100,75144,2,0,L|112:180,1,80,2|2,1:2|1:2,0:0:0:0:
184,80,75429,6,0,P|284:68|368:80,1,160,6|2,1:1|1:2,0:0:0:0:
408,128,75858,1,2,0:1:0:0:
408,128,76001,2,0,L|428:216,1,80,0|2,1:0|0:2,0:0:0:0:
448,288,76287,2,0,L|340:312,1,80,2|2,1:2|0:2,0:0:0:0:
264,272,76572,6,0,P|184:260|96:304,1,160,2|2,1:1|1:2,0:0:0:0:
36,316,77001,1,2,0:1:0:0:
36,316,77144,2,0,L|16:216,1,80,0|2,1:0|0:2,0:0:0:0:
60,172,77429,1,2,1:2:0:0:
42,97,77572,1,2,0:2:0:0:
42,97,77644,1,0,0:0:0:0:
42,97,77715,6,0,P|128:104|204:80,1,160,2|2,1:1|1:2,0:0:0:0:
248,148,78144,1,2,0:1:0:0:
248,148,78287,2,0,L|348:156,1,80,0|2,1:0|0:2,0:0:0:0:
408,176,78572,1,2,1:2:0:0:
393,255,78715,1,2,0:2:0:0:
393,255,78787,1,0,0:0:0:0:
393,255,78858,6,0,P|307:262|231:238,1,160,2|2,1:1|1:2,0:0:0:0:
165,204,79287,1,2,0:1:0:0:
159,283,79429,2,0,L|153:388,1,80,0|2,1:0|1:2,0:0:0:0:
64,344,79715,2,0,L|70:261,1,80,2|2,1:2|0:2,0:0:0:0:
72,152,80001,6,0,P|76:92|100:64,1,80,2|2,1:1|1:2,0:0:0:0:
160,128,80287,2,0,P|172:165|164:204,1,80,2|2,1:2|1:1,0:0:0:0:
159,283,80572,2,0,L|326:297,1,160,0|2,1:0|1:2,0:0:0:0:
397,310,81001,1,2,0:2:0:0:
468,224,81144,6,0,L|480:43,1,160,2|2,1:1|1:2,0:0:0:0:
391,48,81572,1,2,0:1:0:0:
391,48,81715,2,0,L|281:40,1,80,0|2,1:0|0:2,0:0:0:0:
292,120,82001,2,0,L|182:112,1,80,2|2,1:2|0:2,0:0:0:0:
100,104,82287,6,0,P|60:156|69:275,1,160,2|2,1:1|1:2,0:0:0:0:
101,316,82715,1,2,0:1:0:0:
101,316,82858,2,0,P|148:318|196:311,1,80,0|2,1:0|0:2,0:0:0:0:
259,286,83144,1,2,1:2:0:0:
321,338,83287,1,2,0:2:0:0:
321,338,83358,1,0,0:0:0:0:
321,338,83429,6,0,L|484:333,1,160,2|2,1:1|1:2,0:0:0:0:
481,252,83858,1,2,0:1:0:0:
471,172,84001,2,0,L|455:55,1,80,0|2,1:0|1:2,0:0:0:0:
379,90,84287,1,2,1:2:0:0:
379,90,84429,1,2,1:2:0:0:
344,196,84572,5,4,1:0:0:0:
256,192,84644,12,0,89144,0:0:0:0:
84,63,93715,6,0,L|73:241,1,160,4|0,0:0|0:0,0:0:0:0:
61,302,94144,1,0,0:0:0:0:
61,302,94287,2,0,L|172:308,1,80,0|0,0:0|0:0,0:0:0:0:
220,314,94572,1,0,0:0:0:0:
220,314,94858,6,0,L|226:226,1,80,0|0,0:0|0:0,0:0:0:0:
288,184,95144,2,0,P|350:191|393:185,1,80,0|0,0:0|0:0,0:0:0:0:
434,145,95429,2,0,P|443:75|439:42,1,80,0|0,0:0|0:0,0:0:0:0:
367,37,95715,1,0,0:0:0:0:
367,37,96001,6,0,B|327:45|327:45|266:38,1,80,0|0,0:0|0:0,0:0:0:0:
213,10,96287,2,0,B|171:4|171:4|115:20,1,80,0|0,0:0|0:0,0:0:0:0:
81,73,96572,2,0,L|75:179,1,80,0|0,0:0|0:0,0:0:0:0:
144,196,96858,2,0,L|140:291,1,80,0|0,0:0|0:0,0:0:0:0:
131,356,97144,5,0,0:0:0:0:
131,356,97429,1,0,0:0:0:0:
131,356,97715,1,0,0:0:0:0:
205,326,97858,1,0,0:0:0:0:
275,363,98001,1,0,0:0:0:0:
275,363,98287,6,0,L|393:365,1,80,4|0,0:0|0:0,0:0:0:0:
448,343,98572,2,0,L|450:241,1,80,0|0,0:0|0:0,0:0:0:0:
484,172,98858,2,0,L|486:65,1,80,0|0,0:0|0:0,0:0:0:0:
388,86,99144,1,0,0:0:0:0:
388,86,99287,1,0,0:0:0:0:
294,67,99429,6,0,P|250:64|200:68,1,80
178,155,99715,2,0,P|222:158|272:154,1,80,0|0,0:0|0:0,0:0:0:0:
353,143,100001,2,0,L|365:241,1,80,0|0,0:0|0:0,0:0:0:0:
268,244,100287,1,0,0:0:0:0:
268,244,100429,1,0,0:0:0:0:
332,296,100572,6,0,L|340:340,2,40
256,324,100858,2,0,L|248:368,2,40
192,272,101144,2,0,L|176:308,2,40
268,244,101429,1,0,0:0:0:0:
271,228,101501,1,0,0:0:0:0:
273,212,101572,1,0,0:0:0:0:
275,196,101644,1,0,0:0:0:0:
276,180,101715,5,0,0:0:0:0:
239,307,102858,6,0,L|43:286,1,160,4|2,1:0|2:2,0:0:0:0:
53,213,103287,1,2,3:2:0:0:
71,135,103429,2,0,P|102:86|205:79,1,160,8|2,0:0|3:2,0:0:0:0:
240,142,103858,1,2,3:2:0:0:
312,176,104001,5,0,1:0:0:0:
396,115,104144,2,0,P|444:112|500:180,1,120,2|0,0:2|2:0,0:0:0:0:
494,157,104429,1,0,1:0:0:0:
512,261,104572,2,0,B|474:302|403:282|403:282|384:314|384:314|309:296|270:347,1,280,8|0,0:0|0:2,0:0:0:0:
233,352,105144,6,0,P|176:358|105:336,1,120,0|0,1:0|3:0,0:0:0:0:
89,308,105429,2,0,L|98:205,1,80,2|2,3:2|3:2,0:0:0:0:
190,169,105715,2,0,L|202:-7,1,160,8|2,2:0|3:2,0:0:0:0:
280,20,106144,1,2,3:2:0:0:
384,52,106287,6,0,L|469:54,1,80,0|0,1:0|0:0,0:0:0:0:
408,128,106572,1,0,1:0:0:0:
408,128,106644,1,0,1:0:0:0:
408,128,106715,1,0,1:0:0:0:
368,212,106858,2,0,P|416:209|472:280,1,120,8|0,0:0|0:0,0:0:0:0:
480,296,107144,2,0,P|458:356|400:380,1,120,2|0,0:2|0:0,0:0:0:0:
401,340,107429,6,0,P|326:329|237:356,1,160,0|2,1:0|2:2,0:0:0:0:
165,355,107858,1,2,2:0:0:0:
89,329,108001,2,0,L|6:330,1,80,8|2,0:0|3:2,0:0:0:0:
1,249,108287,2,0,L|80:248,1,80,2|2,3:2|3:2,0:0:0:0:
160,280,108572,1,0,1:0:0:0:
210,181,108715,6,0,P|254:154|344:160,1,120,0|0,1:0|0:0,0:0:0:0:
320,151,109001,1,0,1:0:0:0:
420,192,109144,2,0,P|477:143|363:33,1,280,8|0,0:0|0:2,0:0:0:0:
327,42,109715,6,0,L|188:44,1,120,0|0,1:0|3:0,0:0:0:0:
172,68,110001,2,0,L|66:69,1,80,2|2,3:2|3:2,0:0:0:0:
169,152,110287,2,0,L|335:151,1,160,8|2,1:2|2:2,0:0:0:0:
391,200,110715,1,2,2:2:0:0:
432,268,110858,6,0,P|441:326|431:361,1,80,0|0,1:0|0:0,0:0:0:0:
356,344,111144,2,0,L|309:343,3,40,0|0|0|0,1:0|1:0|1:0|0:0,0:0:0:0:
276,333,111429,2,0,L|179:336,1,80,8|2,3:2|3:2,0:0:0:0:
108,344,111715,2,0,P|52:321|32:256,1,120,2|0,3:2|0:0,0:0:0:0:
38,231,112001,6,0,P|84:173|177:175,1,160,4|2,1:0|3:2,0:0:0:0:
219,227,112429,1,2,3:2:0:0:
285,270,112572,2,0,P|334:270|369:251,1,80,8|2,0:0|3:2,0:0:0:0:
423,205,112858,2,0,P|459:163|473:115,1,80,2|2,3:2|3:2,0:0:0:0:
432,60,113144,5,0,1:0:0:0:
324,71,113287,2,0,L|180:84,1,120,0|0,1:0|2:0,0:0:0:0:
204,81,113572,1,0,1:0:0:0:
108,130,113715,2,0,P|120:302|218:323,1,280,8|0,1:0|0:0,0:0:0:0:
245,335,114287,6,0,B|288:349|288:349|380:322,1,120,0|0,1:0|3:0,0:0:0:0:
382,291,114572,2,0,B|422:288|422:288|460:301,1,80,2|2,3:2|3:2,0:0:0:0:
487,193,114858,2,0,B|477:142|477:142|495:87|495:87|480:24,1,160,8|2,2:0|3:2,0:0:0:0:
412,84,115287,1,2,3:2:0:0:
328,32,115429,6,0,P|272:32|232:43,1,80,0|0,1:0|0:0,0:0:0:0:
216,128,115715,1,0,1:0:0:0:
216,128,115787,1,0,1:0:0:0:
216,128,115858,1,0,1:0:0:0:
148,73,116001,2,0,P|92:73|48:120,1,120,8|0,0:0|0:0,0:0:0:0:
43,154,116287,2,0,L|36:288,1,120,2|0,3:2|0:0,0:0:0:0:
48,312,116572,6,0,P|107:310|206:352,1,160,0|2,1:0|3:2,0:0:0:0:
278,362,117001,1,2,3:2:0:0:
358,364,117144,2,0,P|426:369|454:368,1,80,8|2,0:0|3:2,0:0:0:0:
494,311,117429,2,0,P|504:255|504:204,1,80,2|2,3:2|3:2,0:0:0:0:
484,144,117715,1,0,1:0:0:0:
400,204,117858,6,0,P|323:207|251:187,1,120,0|0,1:0|2:0,0:0:0:0:
281,198,118144,1,0,1:0:0:0:
184,140,118287,2,0,P|157:206|310:284,1,280,8|0,1:0|0:2,0:0:0:0:
344,282,118858,6,0,L|484:274,1,120,0|0,1:0|3:0,0:0:0:0:
464,316,119144,2,0,L|352:324,1,80,2|2,3:2|3:2,0:0:0:0:
272,324,119429,2,0,B|217:308|217:308|117:328,1,160,8|2,1:0|2:2,0:0:0:0:
54,275,119858,1,2,3:2:0:0:
48,172,120001,6,0,L|47:77,1,80,0|0,1:0|3:0,0:0:0:0:
47,92,120215,1,0,3:0:0:0:
47,92,120287,2,0,P|88:74|128:77,1,80,0|0,3:0|3:0,0:0:0:0:
156,164,120572,2,0,L|263:171,1,80,0|0,3:0|3:0,0:0:0:0:
314,102,120858,1,0,3:0:0:0:
373,155,121001,1,0,3:0:0:0:
388,76,121144,6,0,P|335:27|252:53,1,160,4|2,1:0|2:2,0:0:0:0:
314,102,121572,1,2,2:2:0:0:
295,179,121715,2,0,L|288:280,1,80,8|0,0:0|0:0,0:0:0:0:
264,344,122001,2,0,L|363:357,1,80,2|2,3:2|3:2,0:0:0:0:
432,380,122287,1,0,1:0:0:0:
467,283,122429,6,0,B|483:227|483:227|480:144,1,120,0|0,1:0|2:0,0:0:0:0:
480,165,122715,1,0,1:0:0:0:
412,80,122858,2,0,B|352:60|308:79|308:79|287:94|287:94|264:80|264:80|212:104|136:72,1,280,8|0,1:0|2:0,0:0:0:0:
104,64,123429,6,0,L|95:186,1,120,0|0,1:0|3:0,0:0:0:0:
91,222,123715,2,0,L|84:313,1,80,2|2,3:2|3:2,0:0:0:0:
164,372,124001,2,0,P|212:360|320:376,1,160,8|2,2:0|3:2,0:0:0:0:
316,288,124429,1,2,3:2:0:0:
408,352,124572,6,0,P|469:366|503:366,1,80,0|0,1:0|0:0,0:0:0:0:
462,279,124858,1,0,1:0:0:0:
462,279,124929,1,0,1:0:0:0:
462,279,125001,1,0,1:0:0:0:
472,176,125144,2,0,P|460:94|401:65,1,120,8|0,2:0|2:0,0:0:0:0:
392,72,125429,2,0,P|329:85|289:134,1,120,2|0,2:2|2:0,0:0:0:0:
275,165,125715,6,0,P|205:176|103:140,1,160,0|2,1:0|2:2,0:0:0:0:
129,71,126144,1,2,2:0:0:0:
53,98,126287,2,0,P|32:147|40:185,1,80,8|2,0:0|3:2,0:0:0:0:
97,223,126572,2,0,P|118:272|110:310,1,80,2|2,3:2|3:2,0:0:0:0:
50,345,126858,5,0,1:0:0:0:
125,370,127001,2,0,L|264:376,1,120,0|0,1:0|2:0,0:0:0:0:
244,375,127287,1,0,1:0:0:0:
344,373,127429,2,0,B|336:330|383:278|383:278|350:251|350:251|396:198|364:128,1,280,8|0,1:0|0:2,0:0:0:0:
368,93,128001,6,0,L|463:94,1,80,0|0,1:0|0:0,0:0:0:0:
454,181,128287,1,2,3:2:0:0:
454,181,128429,1,2,3:2:0:0:
342,182,128572,2,0,P|264:173|203:255,1,160,8|0,1:0|1:0,0:0:0:0:
145,277,129001,1,2,3:2:0:0:
72,193,129144,6,0,L|54:81,1,80,0|0,1:0|0:0,0:0:0:0:
124,67,129429,2,0,L|174:68,3,40,0|0|0|0,1:0|1:0|1:0|0:0,0:0:0:0:
202,56,129715,2,0,L|301:49,1,80,8|2,0:0|3:2,0:0:0:0:
355,82,130001,2,0,L|469:95,1,80,2|0,3:2|0:0,0:0:0:0:
480,196,130287,6,0,B|506:271|506:271|474:372,1,160,4|2,1:0|3:2,0:0:0:0:
408,276,130715,1,2,3:2:0:0:
328,271,130858,2,0,P|261:274|236:286,1,80,8|2,1:0|3:2,0:0:0:0:
228,356,131144,2,0,P|189:366|149:363,1,80,2|2,3:2|3:2,0:0:0:0:
60,344,131429,5,0,1:0:0:0:
32,263,131572,2,0,L|35:118,1,120,0|0,1:0|2:0,0:0:0:0:
34,143,131858,1,0,1:0:0:0:
67,43,132001,2,0,B|128:66|186:30|186:30|215:48|215:48|265:9|339:43,1,280,8|0,1:0|2:0,0:0:0:0:
368,52,132572,6,0,L|492:56,1,120,0|0,1:0|3:0,0:0:0:0:
512,88,132858,2,0,L|512:192,1,80,2|2,3:2|3:2,0:0:0:0:
400,188,133144,2,0,P|312:164|256:212,1,160,8|2,2:0|3:2,0:0:0:0:
336,244,133572,1,2,3:2:0:0:
408,268,133715,6,0,P|468:260|496:268,1,80,0|0,1:0|0:0,0:0:0:0:
452,340,134001,1,0,1:0:0:0:
452,340,134072,1,0,1:0:0:0:
452,340,134144,1,0,1:0:0:0:
376,352,134287,2,0,P|316:360|252:336,1,120,8|0,2:0|2:0,0:0:0:0:
256,300,134572,2,0,P|216:294|132:332,1,120,2|0,2:2|2:0,0:0:0:0:
104,336,134858,6,0,P|96:260|160:208,1,160,0|2,1:0|2:2,0:0:0:0:
240,197,135287,1,2,2:2:0:0:
324,208,135429,2,0,L|408:216,1,80,8|2,0:0|3:2,0:0:0:0:
480,192,135715,2,0,L|488:92,1,80,2|2,3:2|3:2,0:0:0:0:
452,32,136001,5,0,1:0:0:0:
360,84,136144,2,0,P|296:100|228:96,1,120,0|0,1:0|2:0,0:0:0:0:
242,98,136429,1,0,1:0:0:0:
140,56,136572,2,0,P|42:79|112:208,1,280,8|0,1:0|0:0,0:0:0:0:
98,207,137144,5,4,1:0:0:0:
176,184,137287,1,0,3:0:0:0:
176,184,137358,1,0,3:0:0:0:
176,184,137429,2,0,L|256:192,1,80,0|0,3:0|3:0,0:0:0:0:
304,256,137715,2,0,P|356:264|392:248,1,80,0|0,3:0|3:0,0:0:0:0:
452,219,138001,2,0,P|460:271|444:307,1,80,0|0,3:0|3:0,0:0:0:0:
384,340,138287,6,0,L|384:384,4,40,0|0|0|0|0,3:0|3:0|3:0|3:0|3:0,0:0:0:0:
304,352,138715,2,0,L|260:340,5,40,0|0|0|0|0|0,3:0|3:0|3:0|3:0|3:0|3:0,0:0:0:0:
228,332,139144,2,0,L|144:308,1,80,0|0,3:0|3:0,0:0:0:0:
76,284,139429,5,4,1:0:0:0:
256,192,139572,12,0,144001,0:0:0:0:
256,192,153144,12,0,156501,0:0:0:0:
388,88,157429,5,8,1:0:0:0:
388,88,157715,6,0,P|326:67|228:72,1,160,6|0,1:1|1:0,0:0:0:0:
208,148,158144,1,2,0:1:0:0:
180,224,158287,2,0,L|156:324,1,80,0|2,1:0|0:0,0:0:0:0:
224,348,158572,2,0,L|336:376,1,80,2|2,1:1|0:0,0:0:0:0:
404,328,158858,6,0,P|460:316|504:324,1,80,4|2,1:2|0:0,0:0:0:0:
484,244,159144,2,0,L|492:136,1,80,2|2,1:1|0:0,0:0:0:0:
448,96,159429,2,0,P|392:84|348:92,1,80,2|2,1:1|0:0,0:0:0:0:
300,128,159715,2,0,P|284:128|260:124,3,40,0|0|2|0,1:0|0:0|0:0|0:0,0:0:0:0:
220,112,160001,6,0,P|160:108|48:128,1,160,2|0,1:1|1:0,0:0:0:0:
36,196,160429,1,2,0:1:0:0:
32,276,160572,2,0,P|24:324|24:364,1,80,0|2,1:0|0:0,0:0:0:0:
104,352,160858,2,0,P|168:352|208:360,1,80,2|2,1:1|0:0,0:0:0:0:
256,268,161144,6,0,L|264:164,1,80,4|2,1:2|0:0,0:0:0:0:
340,252,161429,2,0,L|332:344,1,80,2|2,1:1|0:0,0:0:0:0:
412,344,161715,2,0,L|428:176,1,160,2|0,1:1|1:0,0:0:0:0:
440,104,162144,1,2,0:0:0:0:
440,104,162215,1,0,0:0:0:0:
440,104,162287,6,0,P|368:88|332:104,1,80,2|2,1:1|0:0,0:0:0:0:
328,160,162572,1,0,1:0:0:0:
272,104,162715,2,0,P|232:103|196:119,1,80,2|0,0:1|1:0,0:0:0:0:
184,200,163001,1,2,0:0:0:0:
120,156,163144,2,0,L|104:64,1,80,2|2,1:1|0:0,0:0:0:0:
24,144,163429,6,0,L|12:244,1,80,4|2,1:2|0:0,0:0:0:0:
20,312,163715,2,0,P|68:332|116:332,1,80,2|2,1:1|0:0,0:0:0:0:
172,272,164001,2,0,P|211:277|247:294,1,80,2|2,1:1|0:0,0:0:0:0:
312,344,164287,2,0,L|408:356,1,80,2|2,1:1|0:0,0:0:0:0:
464,276,164572,6,0,L|476:92,1,160,2|0,1:1|1:0,0:0:0:0:
384,164,165001,2,0,P|336:176|228:128,1,160,2|2,0:1|0:0,0:0:0:0:
160,120,165429,2,0,L|154:199,1,80,2|2,1:1|0:0,0:0:0:0:
44,179,165715,6,0,L|88:19,1,160,2|2,1:1|1:1,0:0:0:0:
168,32,166144,2,0,L|360:36,1,160,2|2,0:1|0:0,0:0:0:0:
408,40,166572,2,0,L|408:88,3,40,0|0|2|0,1:0|0:0|0:0|0:0,0:0:0:0:
408,120,166858,6,0,P|400:172|320:236,1,160,2|0,1:0|1:0,0:0:0:0:
240,252,167287,2,0,B|224:348,1,80,2|0,0:1|1:0,0:0:0:0:
148,320,167572,1,2,0:0:0:0:
68,320,167715,2,0,B|54:241,1,80,2|2,1:0|0:0,0:0:0:0:
48,132,168001,6,0,B|76:80|76:80|196:84,1,160,4|2,1:2|1:0,0:0:0:0:
174,174,168429,1,2,0:0:0:0:
268,120,168572,2,0,L|276:24,1,80,2|2,1:0|0:0,0:0:0:0:
356,48,168858,2,0,L|452:56,1,80,0|2,1:0|0:0,0:0:0:0:
484,156,169144,6,0,P|504:216|496:320,1,160,2|0,1:0|1:0,0:0:0:0:
412,296,169572,2,0,P|352:296|308:312,1,80,2|0,0:1|1:0,0:0:0:0:
288,368,169858,1,2,0:0:0:0:
260,272,170001,2,0,L|256:164,1,80,2|2,1:0|0:0,0:0:0:0:
164,268,170287,6,0,P|124:275|4:256,1,160,4|2,1:2|1:0,0:0:0:0:
12,176,170715,1,2,0:0:0:0:
28,96,170858,2,0,P|48:44|64:20,1,80,2|2,1:0|0:0,0:0:0:0:
112,88,171144,1,0,1:0:0:0:
176,44,171287,1,2,0:0:0:0:
176,44,171358,1,0,0:0:0:0:
176,44,171429,6,0,L|344:60,1,160,2|0,1:0|1:0,0:0:0:0:
404,104,171858,2,0,B|444:148|444:148|436:264,1,160,2|2,0:1|0:0,0:0:0:0:
440,340,172287,2,0,L|344:332,1,80,2|2,1:0|0:0,0:0:0:0:
252,304,172572,6,0,P|180:296|72:320,1,160,4|2,1:2|1:0,0:0:0:0:
96,228,173001,1,2,0:0:0:0:
96,228,173072,1,0,0:0:0:0:
96,228,173144,2,0,L|104:132,1,80,2|2,1:0|0:0,0:0:0:0:
120,68,173429,2,0,P|164:84|200:84,1,80,2|2,1:0|0:0,0:0:0:0:
300,48,173715,6,0,P|360:40|468:68,1,160,2|0,1:0|1:0,0:0:0:0:
468,144,174144,2,0,L|480:308,1,160,2|2,0:1|0:0,0:0:0:0:
388,320,174572,2,0,L|328:328,3,40,2|0|2|0,1:0|0:0|0:0|0:0,0:0:0:0:
308,332,174858,6,0,L|212:344,2,80,4|4|0,1:0|1:2|1:0,0:0:0:0:
312,236,175287,1,4,1:2:0:0:
312,236,175572,1,4,1:2:0:0:
364,156,175715,1,0,1:2:0:0:
268,152,175858,1,4,1:2:0:0:
174,132,176001,6,0,L|78:136,1,80,0|0,0:0|0:0,0:0:0:0:
25,182,176287,1,4,1:0:0:0:
20,292,176429,2,0,L|12:388,1,80,2|0,0:1|1:0,0:0:0:0:
100,360,176715,1,2,0:0:0:0:
148,296,176858,2,0,P|216:292|260:300,1,80,2|2,1:0|0:0,0:0:0:0:
324,356,177144,6,0,L|328:268,1,80,4|2,1:2|0:0,0:0:0:0:
408,268,177429,2,0,L|404:360,1,80,2|2,1:0|0:0,0:0:0:0:
484,364,177715,2,0,L|487:284,1,80,2|2,1:0|0:0,0:0:0:0:
492,204,178001,1,0,1:0:0:0:
432,152,178144,1,2,0:0:0:0:
432,152,178215,1,0,0:0:0:0:
432,152,178287,6,0,P|372:140|268:160,1,160,2|0,1:0|1:0,0:0:0:0:
244,232,178715,2,0,L|144:232,1,80,2|0,0:1|1:0,0:0:0:0:
88,196,179001,1,2,0:0:0:0:
88,196,179072,1,0,0:0:0:0:
88,196,179144,2,0,L|92:96,1,80,2|2,1:0|0:0,0:0:0:0:
152,24,179429,6,0,P|200:20|244:28,1,80,4|2,1:2|0:0,0:0:0:0:
276,92,179715,2,0,P|296:144|300:188,1,80,2|2,1:0|0:0,0:0:0:0:
316,248,180001,2,0,L|420:252,1,80,2|2,1:0|0:0,0:0:0:0:
396,332,180287,2,0,L|300:328,1,80,0|2,1:0|0:0,0:0:0:0:
208,304,180572,6,0,P|156:296|44:336,1,160,2|0,1:0|1:0,0:0:0:0:
64,236,181001,2,0,P|56:188|60:140,1,80,2|0,0:1|1:0,0:0:0:0:
72,76,181287,1,2,0:0:0:0:
152,80,181429,2,0,P|200:88|240:84,1,80,2|2,1:0|0:0,0:0:0:0:
340,56,181715,6,0,P|380:56|436:172,1,160,4|2,1:2|1:0,0:0:0:0:
396,228,182144,1,2,0:0:0:0:
316,228,182287,2,0,P|244:224|216:208,1,80,2|2,1:0|0:0,0:0:0:0:
160,232,182572,2,0,L|148:344,1,80,2|2,1:0|0:0,0:0:0:0:
40,312,182858,6,0,L|40:144,1,160,2|0,1:0|1:0,0:0:0:0:
48,72,183287,2,0,P|88:24|168:96,1,160,2|2,0:1|0:0,0:0:0:0:
204,132,183715,2,0,P|256:124|296:100,1,80,2|2,1:0|0:0,0:0:0:0:
368,40,184001,6,0,P|392:112|360:196,1,160,2|2,1:0|1:0,0:0:0:0:
324,260,184429,2,0,P|324:312|424:308,1,160,2|2,0:1|0:0,0:0:0:0:
456,256,184858,2,0,L|460:200,3,40,0|0|2|0,1:0|0:0|0:0|0:0,0:0:0:0:
460,176,185144,6,0,L|464:12,1,160,2|0,1:0|1:0,0:0:0:0:
388,44,185572,2,0,P|324:52|288:48,1,80,2|0,0:1|1:0,0:0:0:0:
252,108,185858,1,2,0:0:0:0:
196,52,186001,2,0,P|156:51|116:59,1,80,2|2,1:0|0:0,0:0:0:0:
36,140,186287,6,0,L|32:308,1,160,4|2,1:2|1:0,0:0:0:0:
112,340,186715,1,2,0:0:0:0:
172,288,186858,2,0,P|220:288|260:300,1,80,2|2,1:0|0:0,0:0:0:0:
312,348,187144,2,0,L|404:352,1,80,0|2,1:0|0:0,0:0:0:0:
488,304,187429,6,0,P|508:252|500:144,1,160,2|0,1:0|1:0,0:0:0:0:
417,161,187858,2,0,P|360:163|309:149,1,80,2|0,0:1|1:0,0:0:0:0:
272,104,188144,1,2,0:0:0:0:
200,64,188287,2,0,P|160:62|120:70,1,80,2|2,1:0|0:0,0:0:0:0:
40,148,188572,6,0,L|32:344,1,160,4|2,1:2|1:0,0:0:0:0:
136,332,189001,1,2,0:0:0:0:
160,256,189144,2,0,L|164:144,1,80,2|2,1:0|0:0,0:0:0:0:
228,132,189429,1,0,1:0:0:0:
248,208,189572,1,2,0:0:0:0:
248,208,189644,1,0,0:0:0:0:
248,208,189715,6,0,L|408:216,1,160,2|0,1:0|1:0,0:0:0:0:
420,136,190144,2,0,L|260:128,1,160,2|2,0:1|0:0,0:0:0:0:
180,124,190572,2,0,L|168:36,1,80,2|2,1:0|0:0,0:0:0:0:
100,88,190858,6,0,L|92:192,1,80,4|2,1:2|0:0,0:0:0:0:
93,248,191144,2,0,P|132:255|171:247,1,80,2|2,1:0|0:0,0:0:0:0:
248,244,191429,2,0,L|348:248,1,80,2|2,1:0|0:0,0:0:0:0:
376,312,191715,2,0,P|414:320|454:313,1,80,2|2,1:0|0:0,0:0:0:0:
512,220,192001,6,0,P|516:80|504:44,1,160,2|0,1:0|1:0,0:0:0:0:
420,112,192429,2,0,P|364:128|248:112,1,160,2|2,0:1|0:0,0:0:0:0:
184,112,192858,2,0,L|144:108,3,40,2|0|0|0,1:0|1:0|1:0|1:0,0:0:0:0:
104,104,193144,6,0,L|12:96,1,80,4|4,1:0|1:2,0:0:0:0:
12,184,193429,1,0,1:0:0:0:
40,272,193572,2,0,L|119:278,1,80,4|0,1:2|0:0,0:0:0:0:
208,312,193858,1,4,1:2:0:0:
232,226,194001,1,6,1:2:0:0:
235,209,194072,1,0,0:0:0:0:
238,193,194144,1,6,1:2:0:0:
237,175,194215,1,0,0:0:0:0:
232,160,194287,6,0,P|296:132|372:188,1,160,4|0,1:0|1:0,0:0:0:0:
296,212,194715,1,0,0:0:0:0:
332,284,194858,2,0,P|404:308|424:308,1,80,0|0,1:0|0:0,0:0:0:0:
452,240,195144,2,0,L|460:128,1,80,2|0,1:2|0:0,0:0:0:0:
416,60,195429,6,0,B|384:28|384:28|268:24,1,160,4|0,1:2|1:0,0:0:0:0:
260,112,195858,2,0,B|228:144|228:144|112:148,1,160,0|0,0:0|0:0,0:0:0:0:
43,108,196287,2,0,P|35:164|43:192,1,80,2|0,1:2|0:0,0:0:0:0:
20,296,196572,6,0,P|84:288|176:340,1,160,4|0,1:2|1:0,0:0:0:0:
240,356,197001,1,0,0:0:0:0:
320,368,197144,2,0,L|424:372,1,80,0|0,1:0|0:0,0:0:0:0:
452,312,197429,2,0,P|452:252|436:212,1,80,2|0,1:2|0:0,0:0:0:0:
340,200,197715,6,0,P|340:140|380:28,1,160,4|0,1:2|1:0,0:0:0:0:
292,24,198144,2,0,P|220:36|124:16,1,160,2|0,0:2|0:2,0:0:0:0:
64,44,198572,1,2,1:2:0:0:
64,44,198858,6,0,L|52:228,1,160,4|0,1:2|1:0,0:0:0:0:
48,284,199287,1,0,3:2:0:0:
120,252,199429,2,0,P|184:252|208:264,1,80,0|0,1:0|0:0,0:0:0:0:
268,300,199715,2,0,L|324:316,3,40,2|2|2|2,1:2|0:2|0:2|0:2,0:0:0:0:
344,324,200001,6,0,L|424:348,1,80,2|2,1:2|0:2,0:0:0:0:
488,280,200287,2,0,P|508:212|508:184,1,80,0|2,1:2|0:2,0:0:0:0:
472,112,200572,2,0,P|428:108|376:120,1,80,2|2,1:2|0:2,0:0:0:0:
340,196,200858,2,0,P|300:202|260:197,1,80,2|0,1:2|0:2,0:0:0:0:
216,112,201144,6,0,L|224:20,2,80,2|0|2,1:2|0:2|1:2,0:0:0:0:
140,168,201572,2,0,L|133:247,2,80,2|0|2,0:2|1:2|0:2,0:0:0:0:
44,156,202001,2,0,L|32:268,1,80,2|0,1:2|0:2,0:0:0:0:
20,332,202287,6,0,L|128:344,1,80,2|2,1:2|0:2,0:0:0:0:
168,296,202572,1,0,1:0:0:0:
212,364,202715,1,2,0:2:0:0:
272,312,202858,2,0,L|360:328,1,80,0|2,1:0|0:2,0:0:0:0:
432,320,203144,2,0,P|448:276|452:232,1,80,2|0,1:2|0:0,0:0:0:0:
452,132,203429,6,0,P|436:90|328:104,1,160,4|0,1:2|1:0,0:0:0:0:
312,168,203858,1,0,0:0:0:0:
232,184,204001,2,0,P|184:184|144:160,1,80,0|0,1:0|0:0,0:0:0:0:
99,113,204287,2,0,P|79:149|79:197,1,80,2|0,1:2|0:0,0:0:0:0:
160,264,204572,6,0,L|340:292,1,160,4|0,1:2|1:0,0:0:0:0:
272,360,205001,2,0,L|192:348,1,80,0|0,0:0|1:0,0:0:0:0:
112,336,205287,1,0,0:0:0:0:
40,304,205429,2,0,P|28:248|24:208,1,80,2|0,1:2|0:0,0:0:0:0:
28,112,205715,6,0,B|70:74|70:74|186:86,1,160,4|0,1:2|1:0,0:0:0:0:
216,180,206144,1,0,0:0:0:0:
260,112,206287,2,0,L|356:116,1,80,0|0,1:0|0:0,0:0:0:0:
420,120,206572,1,2,1:2:0:0:
420,120,206858,6,0,L|420:296,1,160,4|0,1:2|1:0,0:0:0:0:
356,330,207287,2,0,B|315:354|315:354|176:347,1,160,2|0,0:2|0:0,0:0:0:0:
123,339,207715,1,2,1:2:0:0:
123,339,208001,6,0,P|55:348|20:249,1,160,4|0,1:2|1:0,0:0:0:0:
8,197,208429,1,0,0:0:0:0:
17,117,208572,2,0,P|26:56|45:29,1,80,0|0,1:0|0:0,0:0:0:0:
115,46,208858,2,0,L|171:42,3,40,2|2|2|2,1:2|0:2|0:2|0:2,0:0:0:0:
195,45,209144,6,0,L|303:51,1,80,2|2,1:2|0:2,0:0:0:0:
359,95,209429,2,0,L|354:191,1,80,0|2,1:2|0:2,0:0:0:0:
265,213,209715,2,0,L|269:133,1,80,2|2,1:2|0:2,0:0:0:0:
179,168,210001,2,0,L|99:163,1,80,2|0,1:2|0:2,0:0:0:0:
3,151,210287,5,2,1:2:0:0:
3,151,210429,1,2,0:2:0:0:
16,246,210572,2,0,L|18:358,1,80,4|0,1:2|0:0,0:0:0:0:
105,286,210858,1,2,1:2:0:0:
189,332,211001,2,0,P|236:337|274:327,1,80,4|0,0:2|1:0,0:0:0:0:
348,276,211287,1,2,0:2:0:0:
430,324,211429,6,0,P|441:268|432:232,1,80,4|0,1:2|0:0,0:0:0:0:
422,199,211644,1,0,1:0:0:0:
422,199,211715,2,0,L|414:148,3,40,2|0|4|0,1:2|1:0|1:2|1:0,0:0:0:0:
405,120,212001,2,0,L|390:35,1,80,0|2,1:0|1:2,0:0:0:0:
316,71,212287,2,0,P|241:82|205:78,1,80,4|2,1:2|1:2,0:0:0:0:
132,44,212572,6,0,P|57:67|79:148,1,160,4|0,1:0|1:0,0:0:0:0:
146,141,213001,1,0,0:0:0:0:
100,206,213144,2,0,L|89:313,1,80,0|0,1:0|0:0,0:0:0:0:
171,294,213429,2,0,L|276:304,1,80,2|0,1:2|0:0,0:0:0:0:
360,320,213715,6,0,P|392:251|392:143,1,160,4|0,1:2|1:0,0:0:0:0:
352,85,214144,2,0,P|374:42|477:89,1,160,2|0,0:2|0:0,0:0:0:0:
491,136,214572,2,0,L|498:225,1,80,2|0,1:2|0:0,0:0:0:0:
472,324,214858,6,0,L|312:334,1,160,4|0,1:2|1:0,0:0:0:0:
280,249,215287,1,0,0:0:0:0:
225,307,215429,2,0,L|117:323,1,80,0|0,1:0|0:0,0:0:0:0:
69,291,215715,2,0,P|50:245|54:199,1,80,2|0,1:2|0:0,0:0:0:0:
156,176,216001,2,0,P|210:184|319:138,1,160,4|0,1:2|1:0,0:0:0:0:
272,64,216429,6,0,P|193:58|120:91,1,160,2|0,0:2|0:0,0:0:0:0:
46,152,216858,1,2,1:2:0:0:
46,152,217144,6,0,L|44:256,1,80,4|0,1:2|0:0,0:0:0:0:
38,311,217429,2,0,L|141:317,1,80,0|0,1:0|3:0,0:0:0:0:
189,278,217715,2,0,L|299:285,1,80,0|0,1:0|3:0,0:0:0:0:
349,286,218001,2,0,L|404:288,3,40,2|2|2|2,1:2|0:2|0:2|0:2,0:0:0:0:
422,265,218287,6,0,P|443:194|435:157,1,80,2|2,1:2|0:2,0:0:0:0:
369,126,218572,2,0,P|351:161|348:201,1,80,0|2,1:2|0:2,0:0:0:0:
342,298,218858,2,0,L|245:295,1,80,2|2,1:2|0:2,0:0:0:0:
181,241,219144,2,0,L|185:126,1,80,2|2,1:2|0:2,0:0:0:0:
136,77,219429,6,0,P|77:74|41:90,2,80,2|0|2,1:2|0:2|1:2,0:0:0:0:
232,80,219858,2,0,P|291:83|327:67,2,80,2|0|2,0:2|1:2|0:2,0:0:0:0:
183,161,220287,2,0,L|181:241,1,80,2|0,1:2|0:2,0:0:0:0:
172,336,220572,6,0,L|269:344,1,80,2|2,1:2|0:2,0:0:0:0:
337,298,220858,2,0,P|397:280|432:282,1,80,0|2,1:0|0:2,0:0:0:0:
493,225,221144,2,0,P|501:175|495:128,1,80,0|2,1:0|0:2,0:0:0:0:
416,96,221429,2,0,P|408:135|410:175,1,80,2|0,1:2|0:0,0:0:0:0:
416,288,221715,6,0,L|327:285,1,80,4|0,0:2|0:0,0:0:0:0:
254,273,222001,2,0,L|238:165,1,80,0|0,0:0|0:0,0:0:0:0:
167,223,222287,2,0,L|79:232,1,80,0|0,0:0|0:0,0:0:0:0:
45,163,222572,2,0,P|31:87|34:66,1,80,2|0,0:2|0:0,0:0:0:0:
132,40,222858,6,0,P|175:48|300:30,1,160,4|0,0:2|0:0,0:0:0:0:
368,16,223287,2,0,P|418:17|474:123,1,160
457,180,223715,2,0,L|471:285,1,80,2|0,0:2|0:0,0:0:0:0:
368,312,224001,6,0,P|306:307|259:315,1,80,4|0,0:2|0:0,0:0:0:0:
216,360,224287,2,0,P|158:365|109:359,1,80
108,288,224572,2,0,L|104:181,1,80
183,246,224858,2,0,L|282:238,1,80,2|0,0:2|0:0,0:0:0:0:
372,216,225144,6,0,P|405:145|328:108,1,160,4|0,0:2|0:0,0:0:0:0:
266,128,225572,2,0,P|188:137|97:113,1,160,2|0,0:2|0:0,0:0:0:0:
35,86,226001,1,2,0:2:0:0:
35,86,226287,6,0,L|32:197,1,80,4|0,0:2|0:0,0:0:0:0:
102,231,226572,2,0,L|100:328,1,80
196,299,226858,2,0,P|274:296|308:306,1,80,0|2,0:0|0:2,0:0:0:0:
360,342,227144,2,0,L|441:346,1,80
492,265,227429,6,0,P|495:225|489:185,1,80,4|0,0:2|0:0,0:0:0:0:
392,179,227715,2,0,L|311:183,1,80
217,163,228001,2,0,L|209:60,1,80,0|2,0:0|0:2,0:0:0:0:
117,56,228287,2,0,L|36:60,1,80
29,155,228572,6,0,P|26:243|29:266,1,80,4|0,0:2|0:0,0:0:0:0:
121,242,228858,2,0,P|124:154|121:131,1,80
132,65,229144,2,0,L|213:69,1,80
298,27,229429,2,0,L|379:31,1,80,2|2,0:2|0:2,0:0:0:0:
430,113,229715,6,0,L|433:170,6,40,0|0|0|0|0|0|0,1:0|0:0|0:0|0:0|1:0|0:0|0:0,0:0:0:0:
418,191,230215,1,0,0:0:0:0:
418,191,230287,2,0,L|415:248,7,40,0|0|0|0|0|0|0|0,0:0|0:0|0:0|0:0|1:0|0:0|0:0|0:0,0:0:0:0:
407,269,230858,6,0,P|348:264|235:284,1,160,4|0,1:0|0:0,0:0:0:0:
197,341,231287,2,0,L|27:334,1,160,4|0,1:2|0:0,0:0:0:0:
6,260,231715,1,0,0:0:0:0:
6,260,232001,6,0,P|39:217|133:268,1,160,4|0,1:0|0:0,0:0:0:0:
180,306,232429,2,0,P|245:304|304:232,1,160,4|0,1:2|0:0,0:0:0:0:
339,163,232858,2,0,L|420:168,1,80,0|0,0:0|0:0,0:0:0:0:
432,56,233144,6,0,L|267:48,1,160,4|0,1:0|0:0,0:0:0:0:
191,75,233572,2,0,B|141:134|141:134|143:222,1,160,4|0,1:2|0:0,0:0:0:0:
164,294,234001,1,0,0:0:0:0:
164,294,234287,6,0,L|328:307,1,160,4|0,1:0|0:0,0:0:0:0:
399,282,234715,2,0,B|434:212|434:212|427:117,1,160,4|0,1:2|0:0,0:0:0:0:
385,62,235144,2,0,P|334:57|289:71,1,80,0|0,0:0|0:0,0:0:0:0:
264,168,235429,6,0,L|156:172,1,80,4|0,1:0|0:0,0:0:0:0:
136,108,235715,1,8,0:0:0:0:
100,184,235858,2,0,L|12:188,1,80,4|2,1:2|0:2,0:0:0:0:
86,282,236144,2,0,L|270:291,1,160,8|0,0:0|0:0,0:0:0:0:
342,230,236572,6,0,P|356:188|354:48,1,160,4|8,1:0|0:0,0:0:0:0:
281,51,237001,2,0,P|231:55|124:30,1,160,4|8,1:2|0:0,0:0:0:0:
52,66,237429,2,0,L|48:110,3,40
56,146,237715,6,0,P|105:139|213:160,1,160,4|8,1:0|0:0,0:0:0:0:
232,239,238144,2,0,L|408:250,1,160,4|8,1:2|0:0,0:0:0:0:
449,189,238572,1,0,1:0:0:0:
449,173,238644,1,0,1:0:0:0:
449,157,238715,1,0,1:0:0:0:
449,141,238787,1,0,1:0:0:0:
449,125,238858,5,4,1:0:0:0:
256,192,239001,12,0,240001,3:0:0:0:
