osu file format v14

[General]
AudioFilename: audioex.mp3
AudioLeadIn: 0
PreviewTime: 311796
Countdown: 0
SampleSet: Soft
StackLeniency: 0.7
Mode: 3
LetterboxInBreaks: 0
SpecialStyle: 0
WidescreenStoryboard: 0

[Editor]
DistanceSpacing: 1
BeatDivisor: 8
GridSize: 32
TimelineZoom: 3.379999

[Metadata]
Title:Exit This Earth's Atomosphere (Camellia's 'PLANETARY//200STEP' Remix)
TitleUnicode:Exit This Earth's Atomosphere (Camellia's 'PLANETARY//200STEP' Remix)
Artist:Camellia
ArtistUnicode:かめりあ
Creator:remixes00000
Version:Exit This Earth's AtomoSVhere
Source:
Tags:atmosphere electronic planet shaper cametek remix summary & vips 02 dnb drum and bass
BeatmapID:1745600
BeatmapSetID:833343

[Difficulty]
HPDrainRate:9
CircleSize:4
OverallDifficulty:8
ApproachRate:5
SliderMultiplier:1.4
SliderTickRate:1

[Events]
//Background and Video events
0,0,"images.png",0,0
//Break Periods
2,151196,157296
//Storyboard Layer 0 (Background)
//Storyboard Layer 1 (Fail)
//Storyboard Layer 2 (Pass)
//Storyboard Layer 3 (Foreground)
//Storyboard Sound Samples

[TimingPoints]
996,300,4,2,1,5,1,0
47946,-1000,4,2,1,5,0,0
49446,-1000,4,2,1,5,0,0
49896,-1000,4,2,1,5,0,0
50121,-50,4,2,1,5,0,0
50196,-100,4,2,1,5,0,0
52746,-1000,4,2,1,5,0,0
54096,-1000,4,2,1,5,0,0
54321,-50,4,2,1,5,0,0
54396,-100,4,2,1,5,0,0
64596,-100,4,2,1,50,0,0
73933,-1000,4,2,1,50,0,0
74046,-50,4,2,1,50,0,0
74196,-100,4,2,1,50,0,0
84096,-1000,4,2,1,50,0,0
86121,-28.5714285714286,4,2,1,50,0,0
86196,-100,4,2,1,50,0,0
97896,-1000,4,2,1,50,0,0
97971,-1000,4,2,1,50,0,0
98046,-50,4,2,1,50,0,0
98196,-100,4,2,1,50,0,0
100296,-1000,4,2,1,50,0,0
100371,-1000,4,2,1,50,0,0
100446,-50,4,2,1,50,0,0
100596,-90.9090909090909,4,2,1,50,0,0
101496,-1000,4,2,1,50,0,0
101571,-1000,4,2,1,50,0,0
101646,-50,4,2,1,50,0,0
101796,-86.9565217391304,4,2,1,50,0,0
102696,-1000,4,2,1,50,0,0
102771,-1000,4,2,1,50,0,0
102921,-25,4,2,1,50,0,0
102996,-83.3333333333333,4,2,1,50,0,0
103596,-80,4,2,1,50,0,0
104196,-76.9230769230769,4,2,1,50,0,0
104796,-74.0740740740741,4,2,1,50,0,0
105396,-100,4,2,1,50,0,0
107796,-1000,4,2,1,50,0,1
107871,-1000,4,2,1,50,0,1
107946,-66.6666666666667,4,2,1,50,0,1
108096,-100,4,2,1,50,0,1
109746,-66.6666666666667,4,2,1,50,0,1
109783,-133.333333333333,4,2,1,50,0,1
109821,-66.6666666666667,4,2,1,50,0,1
109858,-133.333333333333,4,2,1,50,0,1
109896,-66.6666666666667,4,2,1,50,0,1
109933,-133.333333333333,4,2,1,50,0,1
109971,-66.6666666666667,4,2,1,50,0,1
110008,-133.333333333333,4,2,1,50,0,1
110046,-66.6666666666667,4,2,1,50,0,1
110083,-133.333333333333,4,2,1,50,0,1
110121,-66.6666666666667,4,2,1,50,0,1
110158,-133.333333333333,4,2,1,50,0,1
110196,-100,4,2,1,50,0,1
112596,-1000,4,2,1,50,0,1
112671,-1000,4,2,1,50,0,1
112746,-66.6666666666667,4,2,1,50,0,1
112896,-100,4,2,1,50,0,1
114696,-66.6666666666667,4,2,1,50,0,1
114733,-133.333333333333,4,2,1,50,0,1
114771,-66.6666666666667,4,2,1,50,0,1
114808,-133.333333333333,4,2,1,50,0,1
114846,-66.6666666666667,4,2,1,50,0,1
114883,-133.333333333333,4,2,1,50,0,1
114921,-66.6666666666667,4,2,1,50,0,1
114958,-133.333333333333,4,2,1,50,0,1
114996,-100,4,2,1,50,0,1
117396,-1000,4,2,1,50,0,1
117471,-1000,4,2,1,50,0,1
117546,-66.6666666666667,4,2,1,50,0,1
117696,-100,4,2,1,50,0,1
119346,-66.6666666666667,4,2,1,50,0,1
119383,-133.333333333333,4,2,1,50,0,1
119421,-66.6666666666667,4,2,1,50,0,1
119458,-133.333333333333,4,2,1,50,0,1
119496,-66.6666666666667,4,2,1,50,0,1
119533,-133.333333333333,4,2,1,50,0,1
119571,-66.6666666666667,4,2,1,50,0,1
119608,-133.333333333333,4,2,1,50,0,1
119646,-66.6666666666667,4,2,1,50,0,1
119683,-133.333333333333,4,2,1,50,0,1
119721,-66.6666666666667,4,2,1,50,0,1
119758,-133.333333333333,4,2,1,50,0,1
119796,-100,4,2,1,50,0,1
122196,-1000,4,2,1,50,0,1
122271,-1000,4,2,1,50,0,1
122346,-66.6666666666667,4,2,1,50,0,1
122496,-100,4,2,1,50,0,1
126696,-1000,4,2,1,50,0,1
126771,-1000,4,2,1,50,0,1
126846,-66.6666666666667,4,2,1,50,0,1
126996,-100,4,2,1,50,0,0
130596,-133.333333333333,4,2,1,50,0,0
130708,-66.6666666666667,4,2,1,50,0,0
130746,-133.333333333333,4,2,1,50,0,0
130858,-66.6666666666667,4,2,1,50,0,0
130896,-133.333333333333,4,2,1,50,0,0
131008,-66.6666666666667,4,2,1,50,0,0
131046,-133.333333333333,4,2,1,50,0,0
131158,-66.6666666666667,4,2,1,50,0,0
131196,-133.333333333333,4,2,1,50,0,0
131308,-66.6666666666667,4,2,1,50,0,0
131496,-133.333333333333,4,2,1,50,0,0
131721,-66.6666666666667,4,2,1,50,0,0
131796,-100,4,2,1,50,0,1
137196,-1000,4,2,1,50,0,1
137271,-66.6666666666667,4,2,1,50,0,1
137346,-100,4,2,1,50,0,1
137796,-1000,4,2,1,50,0,1
137871,-66.6666666666667,4,2,1,50,0,1
137946,-100,4,2,1,50,0,1
138696,-1000,4,2,1,50,0,1
138771,-1000,4,2,1,50,0,1
138846,-66.6666666666667,4,2,1,50,0,1
138996,-100,4,2,1,50,0,1
141996,-1000,4,2,1,50,0,1
142071,-1000,4,2,1,50,0,1
142221,-25,4,2,1,50,0,1
142296,-100,4,2,1,50,0,1
146196,-1000,4,2,1,50,0,1
146271,-1000,4,2,1,50,0,1
146346,-66.6666666666667,4,2,1,50,0,1
146496,-100,4,2,1,50,0,1
146571,-1000,4,2,1,50,0,1
146646,-66.6666666666667,4,2,1,50,0,1
146796,-1000,4,2,1,50,0,1
146796,-1000,4,2,1,50,0,1
146871,-1000,4,2,1,50,0,1
147021,-25,4,2,1,50,0,1
147096,-100,4,2,1,50,0,1
147396,-1000,4,2,1,50,0,1
147471,-66.6666666666667,4,2,1,50,0,1
147546,-100,4,2,1,50,0,1
148296,-1000,4,2,1,50,0,1
148371,-1000,4,2,1,50,0,1
148446,-66.6666666666667,4,2,1,50,0,1
148596,-100,4,2,1,50,0,1
150096,-100,4,2,1,50,0,1
150996,-100,4,2,1,50,0,0
159471,-1000,4,2,1,50,0,0
160446,-50,4,2,1,50,0,0
160596,-100,4,2,1,50,0,0
172296,-1000,4,2,1,50,0,0
172371,-1000,4,2,1,50,0,0
172446,-66.6666666666667,4,2,1,50,0,0
172596,-100,4,2,1,50,0,0
174696,-1000,4,2,1,50,0,0
174771,-1000,4,2,1,50,0,0
174846,-66.6666666666667,4,2,1,50,0,0
174996,-90.9090909090909,4,2,1,50,0,0
175896,-1000,4,2,1,50,0,0
175971,-1000,4,2,1,50,0,0
176046,-66.6666666666667,4,2,1,50,0,0
176196,-86.9565217391304,4,2,1,50,0,0
177096,-1000,4,2,1,50,0,0
177171,-1000,4,2,1,50,0,0
177321,-25,4,2,1,50,0,0
177396,-83.3333333333333,4,2,1,50,0,0
177996,-80,4,2,1,50,0,0
178596,-76.9230769230769,4,2,1,50,0,0
179796,-133.333333333333,4,2,1,50,0,0
179908,-66.6666666666667,4,2,1,50,0,0
179946,-133.333333333333,4,2,1,50,0,0
180058,-66.6666666666667,4,2,1,50,0,0
180096,-133.333333333333,4,2,1,50,0,0
180208,-66.6666666666667,4,2,1,50,0,0
180246,-133.333333333333,4,2,1,50,0,0
180358,-66.6666666666667,4,2,1,50,0,0
180396,-133.333333333333,4,2,1,50,0,0
180508,-66.6666666666667,4,2,1,50,0,0
180546,-133.333333333333,4,2,1,50,0,0
180658,-66.6666666666667,4,2,1,50,0,0
180696,-133.333333333333,4,2,1,50,0,0
180808,-66.6666666666667,4,2,1,50,0,0
180846,-133.333333333333,4,2,1,50,0,0
180958,-66.6666666666667,4,2,1,50,0,0
180996,-133.333333333333,4,2,1,50,0,0
181108,-66.6666666666667,4,2,1,50,0,0
181146,-133.333333333333,4,2,1,50,0,0
181258,-66.6666666666667,4,2,1,50,0,0
181296,-133.333333333333,4,2,1,50,0,0
181408,-66.6666666666667,4,2,1,50,0,0
181446,-133.333333333333,4,2,1,50,0,0
181558,-66.6666666666667,4,2,1,50,0,0
181596,-133.333333333333,4,2,1,50,0,0
181708,-66.6666666666667,4,2,1,50,0,0
181746,-133.333333333333,4,2,1,50,0,0
181858,-66.6666666666667,4,2,1,50,0,0
181896,-100,4,2,1,50,0,0
181896,-133.333333333333,4,2,1,50,0,0
181971,-1000,4,2,1,50,0,0
182121,-28.5714285714286,4,2,1,50,0,0
182196,-100,4,2,1,50,0,1
184296,-1000,4,2,1,50,0,1
184371,-1000,4,2,1,50,0,1
184446,-66.6666666666667,4,2,1,50,0,1
184596,-100,4,2,1,50,0,1
186396,-1000,4,2,1,50,0,1
186471,-66.6666666666667,4,2,1,50,0,1
186546,-100,4,2,1,50,0,1
186696,-1000,4,2,1,50,0,1
186771,-66.6666666666667,4,2,1,50,0,1
186846,-100,4,2,1,50,0,1
186996,-1000,4,2,1,50,0,1
187071,-1000,4,2,1,50,0,1
187146,-66.6666666666667,4,2,1,50,0,1
187296,-100,4,2,1,50,0,1
189096,-1000,4,2,1,50,0,1
189171,-1000,4,2,1,50,0,1
189246,-66.6666666666667,4,2,1,50,0,1
189396,-100,4,2,1,50,0,1
189621,-50,4,2,1,50,0,1
189658,-133.333333333333,4,2,1,50,0,1
189696,-100,4,2,1,50,0,1
189846,-50,4,2,1,50,0,1
189883,-133.333333333333,4,2,1,50,0,1
189921,-100,4,2,1,50,0,1
190296,-1000,4,2,1,50,0,1
190371,-1000,4,2,1,50,0,1
190446,-66.6666666666667,4,2,1,50,0,1
190596,-100,4,2,1,50,0,1
190821,-50,4,2,1,50,0,1
190858,-133.333333333333,4,2,1,50,0,1
190896,-100,4,2,1,50,0,1
191046,-50,4,2,1,50,0,1
191083,-133.333333333333,4,2,1,50,0,1
191121,-100,4,2,1,50,0,1
191421,-50,4,2,1,50,0,1
191458,-133.333333333333,4,2,1,50,0,1
191496,-100,4,2,1,50,0,1
191796,-1000,4,2,1,50,0,1
191871,-1000,4,2,1,50,0,1
191946,-66.6666666666667,4,2,1,50,0,1
192096,-100,4,2,1,50,0,1
195396,-133.333333333333,4,2,1,50,0,1
195508,-66.6666666666667,4,2,1,50,0,1
195546,-133.333333333333,4,2,1,50,0,1
195658,-66.6666666666667,4,2,1,50,0,1
195696,-133.333333333333,4,2,1,50,0,1
195883,-66.6666666666667,4,2,1,50,0,1
195921,-133.333333333333,4,2,1,50,0,1
196108,-66.6666666666667,4,2,1,50,0,1
196146,-133.333333333333,4,2,1,50,0,1
196258,-66.6666666666667,4,2,1,50,0,1
196296,-133.333333333333,4,2,1,50,0,1
196558,-66.6666666666667,4,2,1,50,0,1
196596,-100,4,2,1,50,0,1
201096,-1000,4,2,1,50,0,1
201321,-25,4,2,1,50,0,1
201396,-100,4,2,1,50,0,0
206158,-33.3333333333333,4,2,1,50,0,0
206196,-100,4,2,1,50,0,1
209796,-52.6315789473684,4,2,1,50,0,1
209814,-166.666666666667,4,2,1,50,0,1
209833,-52.6315789473684,4,2,1,50,0,1
209852,-166.666666666667,4,2,1,50,0,1
209871,-52.6315789473684,4,2,1,50,0,1
209889,-166.666666666667,4,2,1,50,0,1
209908,-52.6315789473684,4,2,1,50,0,1
209927,-166.666666666667,4,2,1,50,0,1
209946,-52.6315789473684,4,2,1,50,0,1
209964,-166.666666666667,4,2,1,50,0,1
209983,-52.6315789473684,4,2,1,50,0,1
210002,-166.666666666667,4,2,1,50,0,1
210021,-52.6315789473684,4,2,1,50,0,1
210039,-166.666666666667,4,2,1,50,0,1
210058,-52.6315789473684,4,2,1,50,0,1
210077,-166.666666666667,4,2,1,50,0,1
210096,-52.6315789473684,4,2,1,50,0,1
210114,-166.666666666667,4,2,1,50,0,1
210133,-52.6315789473684,4,2,1,50,0,1
210152,-166.666666666667,4,2,1,50,0,1
210171,-52.6315789473684,4,2,1,50,0,1
210189,-166.666666666667,4,2,1,50,0,1
210208,-52.6315789473684,4,2,1,50,0,1
210227,-166.666666666667,4,2,1,50,0,1
210246,-52.6315789473684,4,2,1,50,0,1
210264,-166.666666666667,4,2,1,50,0,1
210283,-52.6315789473684,4,2,1,50,0,1
210302,-166.666666666667,4,2,1,50,0,1
210321,-52.6315789473684,4,2,1,50,0,1
210339,-166.666666666667,4,2,1,50,0,1
210358,-52.6315789473684,4,2,1,50,0,1
210377,-166.666666666667,4,2,1,50,0,1
210396,-52.6315789473684,4,2,1,50,0,1
210414,-166.666666666667,4,2,1,50,0,1
210433,-52.6315789473684,4,2,1,50,0,1
210452,-166.666666666667,4,2,1,50,0,1
210471,-52.6315789473684,4,2,1,50,0,1
210489,-166.666666666667,4,2,1,50,0,1
210508,-52.6315789473684,4,2,1,50,0,1
210527,-166.666666666667,4,2,1,50,0,1
210546,-100,4,2,1,50,0,1
211296,-1000,4,2,1,50,0,1
211371,-1000,4,2,1,50,0,0
211446,-66.6666666666667,4,2,1,50,0,0
211596,-100,4,2,1,50,0,0
213958,-33.3333333333333,4,2,1,50,0,0
213996,-100,4,2,1,50,0,0
216171,-1000,4,2,1,50,0,0
216246,-66.6666666666667,4,2,1,50,0,0
216396,-100,4,2,1,50,0,0
216771,-1000,4,2,1,50,0,0
216846,-66.6666666666667,4,2,1,50,0,0
216996,-100,4,2,1,50,0,0
217371,-1000,4,2,1,50,0,0
217446,-66.6666666666667,4,2,1,50,0,0
217596,-100,4,2,1,50,0,0
217896,-1000,4,2,1,50,0,0
217971,-1000,4,2,1,50,0,0
218046,-66.6666666666667,4,2,1,50,0,0
218196,-100,4,2,1,50,0,0
218421,-50,4,2,1,50,0,0
218458,-149.253731343284,4,2,1,50,0,0
218646,-50,4,2,1,50,0,0
218683,-149.253731343284,4,2,1,50,0,0
218796,-50,4,2,1,50,0,0
218833,-149.253731343284,4,2,1,50,0,0
219021,-50,4,2,1,50,0,0
219058,-149.253731343284,4,2,1,50,0,0
219246,-50,4,2,1,50,0,0
219283,-149.253731343284,4,2,1,50,0,0
219396,-50,4,2,1,50,0,0
219433,-149.253731343284,4,2,1,50,0,0
219621,-50,4,2,1,50,0,0
219658,-149.253731343284,4,2,1,50,0,0
219846,-50,4,2,1,50,0,0
219883,-149.253731343284,4,2,1,50,0,0
220071,-1000,4,2,1,50,0,0
220446,-50,4,2,1,50,0,0
220596,-100,4,2,1,50,0,0
220671,-100,4,2,1,5,0,0
268296,-100,4,2,1,5,0,0
268521,-66.6666666666667,4,2,1,5,0,0
268596,-100,4,2,1,50,0,0
269346,-133.333333333333,4,2,1,50,0,0
269571,-66.6666666666667,4,2,1,50,0,0
269646,-100,4,2,1,50,0,0
269796,-133.333333333333,4,2,1,50,0,0
270021,-66.6666666666667,4,2,1,50,0,0
270096,-100,4,2,1,50,0,0
270546,-133.333333333333,4,2,1,50,0,0
270658,-66.6666666666667,4,2,1,50,0,0
270771,-100,4,2,1,50,0,0
273396,-133.333333333333,4,2,1,50,0,0
273621,-66.6666666666667,4,2,1,50,0,0
273696,-100,4,2,1,50,0,0
274146,-133.333333333333,4,2,1,50,0,0
274371,-66.6666666666667,4,2,1,50,0,0
274446,-100,4,2,1,50,0,0
274596,-133.333333333333,4,2,1,50,0,0
274708,-66.6666666666667,4,2,1,50,0,0
274821,-100,4,2,1,50,0,0
275346,-133.333333333333,4,2,1,50,0,0
275458,-66.6666666666667,4,2,1,50,0,0
275571,-100,4,2,1,50,0,0
278196,-133.333333333333,4,2,1,50,0,0
278421,-66.6666666666667,4,2,1,50,0,0
278496,-100,4,2,1,50,0,0
278946,-133.333333333333,4,2,1,50,0,0
279171,-66.6666666666667,4,2,1,50,0,0
279246,-100,4,2,1,50,0,0
279396,-133.333333333333,4,2,1,50,0,0
279621,-66.6666666666667,4,2,1,50,0,0
279696,-100,4,2,1,50,0,0
280146,-133.333333333333,4,2,1,50,0,0
280258,-66.6666666666667,4,2,1,50,0,0
280371,-100,4,2,1,50,0,0
282996,-133.333333333333,4,2,1,50,0,0
283221,-66.6666666666667,4,2,1,50,0,0
283296,-100,4,2,1,50,0,0
283746,-133.333333333333,4,2,1,50,0,0
283971,-66.6666666666667,4,2,1,50,0,0
284046,-100,4,2,1,50,0,0
284196,-133.333333333333,4,2,1,50,0,0
284308,-66.6666666666667,4,2,1,50,0,0
284421,-100,4,2,1,50,0,0
284946,-133.333333333333,4,2,1,50,0,0
285058,-66.6666666666667,4,2,1,50,0,0
285171,-100,4,2,1,50,0,0
289596,-1000,4,2,1,50,0,0
290046,-50,4,2,1,50,0,0
290196,-100,4,2,1,50,0,0
301896,-1000,4,2,1,50,0,0
301971,-1000,4,2,1,50,0,0
302121,-33.3333333333333,4,2,1,50,0,0
302196,-100,4,2,1,50,0,0
304296,-1000,4,2,1,50,0,0
304371,-1000,4,2,1,50,0,0
304521,-33.3333333333333,4,2,1,50,0,0
304596,-90.9090909090909,4,2,1,50,0,0
305496,-1000,4,2,1,50,0,0
305577,-1000,4,2,1,50,0,0
305721,-33.3333333333333,4,2,1,50,0,0
305796,-86.9565217391304,4,2,1,50,0,0
306696,-1000,4,2,1,50,0,0
306771,-1000,4,2,1,50,0,0
306921,-25,4,2,1,50,0,0
306996,-83.3333333333333,4,2,1,50,0,0
307596,-80,4,2,1,50,0,0
308196,-76.9230769230769,4,2,1,50,0,0
308796,-74.0740740740741,4,2,1,50,0,0
309396,-100,4,2,1,50,0,0
309546,-50,4,2,1,50,0,0
309583,-153.846153846154,4,2,1,50,0,0
309696,-50,4,2,1,50,0,0
309733,-153.846153846154,4,2,1,50,0,0
309846,-50,4,2,1,50,0,0
309883,-153.846153846154,4,2,1,50,0,0
309996,-50,4,2,1,50,0,0
310033,-153.846153846154,4,2,1,50,0,0
310146,-50,4,2,1,50,0,0
310183,-153.846153846154,4,2,1,50,0,0
310296,-50,4,2,1,50,0,0
310333,-153.846153846154,4,2,1,50,0,0
310446,-50,4,2,1,50,0,0
310483,-153.846153846154,4,2,1,50,0,0
310596,-50,4,2,1,50,0,0
310633,-153.846153846154,4,2,1,50,0,0
310746,-50,4,2,1,50,0,0
310783,-153.846153846154,4,2,1,50,0,0
310896,-50,4,2,1,50,0,0
310933,-153.846153846154,4,2,1,50,0,0
311046,-50,4,2,1,50,0,0
311083,-153.846153846154,4,2,1,50,0,0
311196,-50,4,2,1,50,0,0
311233,-153.846153846154,4,2,1,50,0,0
311346,-50,4,2,1,50,0,0
311383,-153.846153846154,4,2,1,50,0,0
311496,-100,4,2,1,50,0,0
311533,-1000,4,2,1,50,0,0
311721,-33.3333333333333,4,2,1,50,0,0
311796,-100,4,2,1,50,0,1
312696,-100,4,2,1,50,0,1
312733,-1000,4,2,1,50,0,1
312921,-33.3333333333333,4,2,1,50,0,1
312996,-100,4,2,1,50,0,1
313896,-100,4,2,1,50,0,1
313933,-1000,4,2,1,50,0,1
314121,-33.3333333333333,4,2,1,50,0,1
314196,-100,4,2,1,50,0,1
315096,-100,4,2,1,50,0,1
315133,-1000,4,2,1,50,0,1
315321,-33.3333333333333,4,2,1,50,0,1
315396,-100,4,2,1,50,0,1
316296,-100,4,2,1,50,0,1
316333,-1000,4,2,1,50,0,1
316521,-33.3333333333333,4,2,1,50,0,1
316596,-100,4,2,1,50,0,1
317496,-100,4,2,1,50,0,1
317533,-1000,4,2,1,50,0,1
317721,-33.3333333333333,4,2,1,50,0,1
317796,-100,4,2,1,50,0,1
318696,-100,4,2,1,50,0,1
318733,-1000,4,2,1,50,0,1
318921,-33.3333333333333,4,2,1,50,0,1
318996,-100,4,2,1,50,0,1
319877,-50,4,2,1,50,0,1
319896,-100,4,2,1,50,0,1
319952,-50,4,2,1,50,0,1
319971,-100,4,2,1,50,0,1
320177,-50,4,2,1,50,0,1
320196,-100,4,2,1,50,0,1
320477,-50,4,2,1,50,0,1
320496,-100,4,2,1,50,0,1
320627,-50,4,2,1,50,0,1
320646,-100,4,2,1,50,0,1
320702,-50,4,2,1,50,0,1
320721,-100,4,2,1,50,0,1
321002,-50,4,2,1,50,0,1
321021,-100,4,2,1,50,0,1
321077,-50,4,2,1,50,0,1
321096,-100,4,2,1,50,0,1
321152,-50,4,2,1,50,0,1
321171,-100,4,2,1,50,0,1
321227,-50,4,2,1,50,0,1
321246,-100,4,2,1,50,0,1
321396,-50,4,2,1,50,0,1
321471,-100,4,2,1,50,0,1
321546,-100,4,2,1,50,0,1
321658,-33.3333333333333,4,2,1,50,0,0
321696,-100,4,2,1,50,0,1
322296,-100,4,2,1,50,0,1
322333,-1000,4,2,1,50,0,1
322521,-33.3333333333333,4,2,1,50,0,1
322596,-100,4,2,1,50,0,1
323496,-100,4,2,1,50,0,1
323533,-1000,4,2,1,50,0,1
323721,-33.3333333333333,4,2,1,50,0,1
323796,-100,4,2,1,50,0,1
324696,-100,4,2,1,50,0,1
324733,-1000,4,2,1,50,0,1
324921,-33.3333333333333,4,2,1,50,0,1
324996,-100,4,2,1,50,0,1
327096,-1000,4,2,1,50,0,1
327321,-40,4,2,1,50,0,1
327396,-100,4,2,1,50,0,1
328296,-52.6315789473684,4,2,1,50,0,1
328333,-166.666666666667,4,2,1,50,0,1
328371,-52.6315789473684,4,2,1,50,0,1
328408,-166.666666666667,4,2,1,50,0,1
328446,-52.6315789473684,4,2,1,50,0,1
328483,-166.666666666667,4,2,1,50,0,1
328521,-100,4,2,1,50,0,1
328596,-100,4,2,1,50,0,0
330696,-1000,4,2,1,50,0,0
330921,-25,4,2,1,50,0,0
330958,-50,4,2,1,50,0,0
330996,-100,4,2,1,50,0,1
331858,-50,4,2,1,50,0,1
331896,-100,4,2,1,50,0,1
332158,-50,4,2,1,50,0,1
332196,-100,4,2,1,50,0,1
333058,-50,4,2,1,50,0,1
333096,-100,4,2,1,50,0,1
333358,-50,4,2,1,50,0,1
333396,-100,4,2,1,50,0,1
334258,-50,4,2,1,50,0,1
334296,-100,4,2,1,50,0,1
334558,-50,4,2,1,50,0,1
334596,-100,4,2,1,50,0,1
335458,-50,4,2,1,50,0,1
335496,-100,4,2,1,50,0,1
335758,-50,4,2,1,50,0,1
335796,-100,4,2,1,50,0,1
335908,-50,4,2,1,50,0,1
335946,-100,4,2,1,50,0,1
336058,-50,4,2,1,50,0,1
336096,-100,4,2,1,50,0,1
336658,-50,4,2,1,50,0,1
336696,-100,4,2,1,50,0,1
336958,-50,4,2,1,50,0,1
336996,-100,4,2,1,50,0,1
337858,-50,4,2,1,50,0,1
337896,-100,4,2,1,50,0,1
338158,-50,4,2,1,50,0,1
338196,-100,4,2,1,50,0,1
338327,-50,4,2,1,50,0,1
338346,-100,4,2,1,50,0,1
338402,-50,4,2,1,50,0,1
338421,-100,4,2,1,50,0,1
338477,-50,4,2,1,50,0,1
338496,-100,4,2,1,50,0,1
338702,-50,4,2,1,50,0,1
338721,-100,4,2,1,50,0,1
338777,-50,4,2,1,50,0,1
338796,-100,4,2,1,50,0,1
338927,-50,4,2,1,50,0,1
338946,-100,4,2,1,50,0,1
339002,-50,4,2,1,50,0,1
339021,-100,4,2,1,50,0,1
339152,-50,4,2,1,50,0,1
339171,-100,4,2,1,50,0,1
339227,-50,4,2,1,50,0,1
339246,-100,4,2,1,50,0,1
339358,-50,4,2,1,50,0,1
339396,-100,4,2,1,50,0,1
339508,-50,4,2,1,50,0,1
339546,-100,4,2,1,50,0,1
339658,-50,4,2,1,50,0,1
339696,-100,4,2,1,50,0,1
339827,-50,4,2,1,50,0,1
339846,-100,4,2,1,50,0,1
339902,-50,4,2,1,50,0,1
339921,-100,4,2,1,50,0,1
340052,-50,4,2,1,50,0,1
340071,-100,4,2,1,50,0,1
340127,-50,4,2,1,50,0,1
340146,-100,4,2,1,50,0,1
340202,-50,4,2,1,50,0,1
340221,-100,4,2,1,50,0,1
340277,-50,4,2,1,50,0,1
340296,-100,4,2,1,50,0,1
340408,-50,4,2,1,50,0,1
340446,-100,4,2,1,50,0,1
340558,-50,4,2,1,50,0,1
340596,-100,4,2,1,50,0,1
341458,-50,4,2,1,50,0,1
341496,-100,4,2,1,50,0,1
341758,-50,4,2,1,50,0,1
341796,-100,4,2,1,50,0,1
342658,-50,4,2,1,50,0,1
342696,-100,4,2,1,50,0,1
342958,-50,4,2,1,50,0,1
342996,-100,4,2,1,50,0,1
343858,-50,4,2,1,50,0,1
343896,-100,4,2,1,50,0,1
344158,-50,4,2,1,50,0,1
344196,-100,4,2,1,50,0,1
345396,-13.3333333333333,4,2,1,50,0,1
345696,-89.2857142857143,4,2,1,50,0,1
346596,-1000,4,2,1,50,0,1
346671,-1000,4,2,1,50,0,1
346746,-50,4,2,1,50,0,1
346896,-88.4955752212389,4,2,1,50,0,1
347796,-90.9090909090909,4,2,1,50,0,1
348696,-1000,4,2,1,50,0,1
348771,-1000,4,2,1,50,0,1
348846,-50,4,2,1,50,0,1
348996,-86.9565217391304,4,2,1,50,0,1
349896,-1000,4,2,1,50,0,1
349971,-1000,4,2,1,50,0,1
350121,-25,4,2,1,50,0,1
350196,-83.3333333333333,4,2,1,50,0,1
350796,-80,4,2,1,50,0,1
351396,-76.9230769230769,4,2,1,50,0,1
352146,-1000,4,2,1,50,0,1
352446,-50,4,2,1,50,0,1
352596,-100,4,2,1,50,0,0
352671,-100,4,2,1,5,0,0
370671,-1000,4,2,1,5,0,0
371646,-50,4,2,1,5,0,0
371796,-100,4,2,1,5,0,0

[HitObjects]
448,192,7296,5,0,0:0:0:0:
320,192,7596,1,0,0:0:0:0:
192,192,7896,1,0,0:0:0:0:
192,192,8046,1,0,0:0:0:0:
448,192,8346,1,0,0:0:0:0:
448,192,8496,1,0,0:0:0:0:
192,192,8796,1,0,0:0:0:0:
192,192,8946,1,0,0:0:0:0:
320,192,9246,1,0,0:0:0:0:
320,192,9396,1,0,0:0:0:0:
64,192,9696,1,0,0:0:0:0:
64,192,9846,1,0,0:0:0:0:
320,192,10146,1,0,0:0:0:0:
320,192,10296,1,0,0:0:0:0:
192,192,10596,1,0,0:0:0:0:
192,192,10746,1,0,0:0:0:0:
320,192,11046,1,0,0:0:0:0:
448,192,11196,1,0,0:0:0:0:
320,192,11346,1,0,0:0:0:0:
192,192,11496,1,0,0:0:0:0:
64,192,11646,1,0,0:0:0:0:
448,192,11796,1,0,0:0:0:0:
320,192,11946,1,0,0:0:0:0:
192,192,12096,1,0,0:0:0:0:
192,192,12396,1,0,0:0:0:0:
448,192,12696,1,0,0:0:0:0:
448,192,12846,1,0,0:0:0:0:
64,192,13146,1,0,0:0:0:0:
64,192,13296,1,0,0:0:0:0:
320,192,13596,1,0,0:0:0:0:
320,192,13746,1,0,0:0:0:0:
192,192,14046,1,0,0:0:0:0:
192,192,14196,1,0,0:0:0:0:
448,192,14496,1,0,0:0:0:0:
448,192,14646,1,0,0:0:0:0:
64,192,14946,1,0,0:0:0:0:
64,192,15096,1,0,0:0:0:0:
320,192,15396,1,0,0:0:0:0:
320,192,15546,1,0,0:0:0:0:
192,192,15846,1,0,0:0:0:0:
192,192,15996,1,0,0:0:0:0:
448,192,16146,1,0,0:0:0:0:
320,192,16296,1,0,0:0:0:0:
192,192,16446,1,0,0:0:0:0:
64,192,16596,1,0,0:0:0:0:
448,192,16896,1,0,0:0:0:0:
448,192,17046,1,0,0:0:0:0:
64,192,17346,1,0,0:0:0:0:
192,192,17496,1,0,0:0:0:0:
320,192,17646,1,0,0:0:0:0:
192,192,17946,1,0,0:0:0:0:
192,192,18096,1,0,0:0:0:0:
448,192,18396,1,0,0:0:0:0:
448,192,18546,1,0,0:0:0:0:
64,192,18846,1,0,0:0:0:0:
64,192,18996,1,0,0:0:0:0:
320,192,19296,1,0,0:0:0:0:
320,192,19446,1,0,0:0:0:0:
192,192,19746,1,0,0:0:0:0:
192,192,19896,1,0,0:0:0:0:
448,192,20196,1,0,0:0:0:0:
448,192,20346,1,0,0:0:0:0:
192,192,20646,1,0,0:0:0:0:
192,192,20796,1,0,0:0:0:0:
448,192,21096,1,0,0:0:0:0:
320,192,21246,1,0,0:0:0:0:
192,192,21396,1,0,0:0:0:0:
64,192,21546,1,0,0:0:0:0:
192,192,21696,1,0,0:0:0:0:
320,192,21846,1,0,0:0:0:0:
448,192,22146,1,0,0:0:0:0:
320,192,22296,1,0,0:0:0:0:
192,192,22446,1,0,0:0:0:0:
320,192,22746,1,0,0:0:0:0:
320,192,22896,1,0,0:0:0:0:
192,192,23196,1,0,0:0:0:0:
192,192,23346,1,0,0:0:0:0:
64,192,23646,1,0,0:0:0:0:
64,192,23796,1,0,0:0:0:0:
448,192,24096,1,0,0:0:0:0:
448,192,24246,1,0,0:0:0:0:
192,192,24546,1,0,0:0:0:0:
192,192,24696,1,0,0:0:0:0:
320,192,24996,1,0,0:0:0:0:
320,192,25146,1,0,0:0:0:0:
192,192,25446,1,0,0:0:0:0:
192,192,25596,1,0,0:0:0:0:
448,192,25896,1,0,0:0:0:0:
448,192,26046,1,0,0:0:0:0:
64,192,26196,1,0,0:0:0:0:
192,192,26196,1,0,0:0:0:0:
320,192,26346,1,0,0:0:0:0:
64,192,26496,1,0,0:0:0:0:
448,192,26646,1,0,0:0:0:0:
192,192,26646,1,0,0:0:0:0:
320,192,26796,1,0,0:0:0:0:
192,192,26946,1,0,0:0:0:0:
64,192,27096,1,0,0:0:0:0:
448,192,27096,1,0,0:0:0:0:
320,192,27246,1,0,0:0:0:0:
192,192,27396,1,0,0:0:0:0:
448,192,27546,1,0,0:0:0:0:
64,192,27546,1,0,0:0:0:0:
320,192,27696,1,0,0:0:0:0:
192,192,27846,1,0,0:0:0:0:
64,192,27996,1,0,0:0:0:0:
448,192,27996,1,0,0:0:0:0:
192,192,28146,1,0,0:0:0:0:
320,192,28296,1,0,0:0:0:0:
448,192,28296,1,0,0:0:0:0:
192,192,28446,1,0,0:0:0:0:
64,192,28596,1,0,0:0:0:0:
320,192,28596,1,0,0:0:0:0:
192,192,28746,1,0,0:0:0:0:
320,192,28896,1,0,0:0:0:0:
448,192,29046,1,0,0:0:0:0:
64,192,29046,1,0,0:0:0:0:
192,192,29196,1,0,0:0:0:0:
320,192,29346,1,0,0:0:0:0:
448,192,29496,1,0,0:0:0:0:
64,192,29496,1,0,0:0:0:0:
192,192,29646,1,0,0:0:0:0:
320,192,29796,1,0,0:0:0:0:
448,192,29946,1,0,0:0:0:0:
64,192,29946,1,0,0:0:0:0:
192,192,30096,1,0,0:0:0:0:
320,192,30246,1,0,0:0:0:0:
64,192,30396,1,0,0:0:0:0:
448,192,30396,1,0,0:0:0:0:
320,192,30546,1,0,0:0:0:0:
192,192,30696,1,0,0:0:0:0:
448,192,30696,1,0,0:0:0:0:
320,192,30846,1,0,0:0:0:0:
64,192,30996,1,0,0:0:0:0:
448,192,30996,1,0,0:0:0:0:
320,192,31146,1,0,0:0:0:0:
192,192,31296,1,0,0:0:0:0:
64,192,31446,1,0,0:0:0:0:
448,192,31446,1,0,0:0:0:0:
320,192,31596,1,0,0:0:0:0:
192,192,31746,1,0,0:0:0:0:
64,192,31896,1,0,0:0:0:0:
448,192,31896,1,0,0:0:0:0:
320,192,32046,1,0,0:0:0:0:
192,192,32196,1,0,0:0:0:0:
64,192,32346,1,0,0:0:0:0:
448,192,32346,1,0,0:0:0:0:
320,192,32496,1,0,0:0:0:0:
192,192,32646,1,0,0:0:0:0:
320,192,32796,1,0,0:0:0:0:
448,192,32796,1,0,0:0:0:0:
192,192,32946,1,0,0:0:0:0:
320,192,33096,1,0,0:0:0:0:
64,192,33096,1,0,0:0:0:0:
448,192,33246,1,0,0:0:0:0:
64,192,33396,1,0,0:0:0:0:
320,192,33396,1,0,0:0:0:0:
192,192,33546,1,0,0:0:0:0:
320,192,33696,1,0,0:0:0:0:
448,192,33846,1,0,0:0:0:0:
64,192,33846,1,0,0:0:0:0:
192,192,33996,1,0,0:0:0:0:
320,192,34146,1,0,0:0:0:0:
448,192,34296,1,0,0:0:0:0:
64,192,34296,1,0,0:0:0:0:
192,192,34446,1,0,0:0:0:0:
320,192,34596,1,0,0:0:0:0:
448,192,34746,1,0,0:0:0:0:
64,192,34746,1,0,0:0:0:0:
192,192,34896,1,0,0:0:0:0:
320,192,35046,1,0,0:0:0:0:
192,192,35196,1,0,0:0:0:0:
64,192,35196,1,0,0:0:0:0:
320,192,35346,1,0,0:0:0:0:
192,192,35496,1,0,0:0:0:0:
448,192,35496,1,0,0:0:0:0:
64,192,35646,1,0,0:0:0:0:
448,192,35796,1,0,0:0:0:0:
192,192,35796,1,0,0:0:0:0:
320,192,35946,1,0,0:0:0:0:
192,192,36096,1,0,0:0:0:0:
64,192,36246,1,0,0:0:0:0:
448,192,36246,1,0,0:0:0:0:
320,192,36396,1,0,0:0:0:0:
192,192,36546,1,0,0:0:0:0:
64,192,36696,1,0,0:0:0:0:
448,192,36696,1,0,0:0:0:0:
320,192,36846,1,0,0:0:0:0:
192,192,36996,1,0,0:0:0:0:
448,192,37146,1,0,0:0:0:0:
64,192,37146,1,0,0:0:0:0:
320,192,37296,1,0,0:0:0:0:
192,192,37446,1,0,0:0:0:0:
320,192,37596,1,0,0:0:0:0:
448,192,37596,1,0,0:0:0:0:
192,192,37746,1,0,0:0:0:0:
320,192,37896,1,0,0:0:0:0:
64,192,37896,1,0,0:0:0:0:
448,192,38046,1,0,0:0:0:0:
64,192,38196,1,0,0:0:0:0:
320,192,38196,1,0,0:0:0:0:
192,192,38346,1,0,0:0:0:0:
320,192,38496,1,0,0:0:0:0:
448,192,38646,1,0,0:0:0:0:
64,192,38646,1,0,0:0:0:0:
192,192,38796,1,0,0:0:0:0:
320,192,38946,1,0,0:0:0:0:
448,192,39096,1,0,0:0:0:0:
64,192,39096,1,0,0:0:0:0:
192,192,39246,1,0,0:0:0:0:
320,192,39396,1,0,0:0:0:0:
448,192,39546,1,0,0:0:0:0:
64,192,39546,1,0,0:0:0:0:
192,192,39696,1,0,0:0:0:0:
320,192,39846,1,0,0:0:0:0:
192,192,39996,1,0,0:0:0:0:
64,192,39996,1,0,0:0:0:0:
320,192,40146,1,0,0:0:0:0:
192,192,40296,1,0,0:0:0:0:
448,192,40296,1,0,0:0:0:0:
64,192,40446,1,0,0:0:0:0:
448,192,40596,1,0,0:0:0:0:
192,192,40596,1,0,0:0:0:0:
320,192,40746,1,0,0:0:0:0:
192,192,40896,1,0,0:0:0:0:
64,192,41046,1,0,0:0:0:0:
448,192,41046,1,0,0:0:0:0:
320,192,41196,1,0,0:0:0:0:
192,192,41346,1,0,0:0:0:0:
64,192,41496,1,0,0:0:0:0:
448,192,41496,1,0,0:0:0:0:
320,192,41646,1,0,0:0:0:0:
192,192,41796,1,0,0:0:0:0:
448,192,41946,1,0,0:0:0:0:
64,192,41946,1,0,0:0:0:0:
320,192,42096,1,0,0:0:0:0:
192,192,42246,1,0,0:0:0:0:
320,192,42396,1,0,0:0:0:0:
448,192,42396,1,0,0:0:0:0:
192,192,42546,1,0,0:0:0:0:
448,192,42696,1,0,0:0:0:0:
320,192,42696,1,0,0:0:0:0:
64,192,42846,1,0,0:0:0:0:
192,192,42996,1,0,0:0:0:0:
448,192,42996,1,0,0:0:0:0:
320,192,43146,1,0,0:0:0:0:
448,192,43296,1,0,0:0:0:0:
64,192,43446,1,0,0:0:0:0:
320,192,43446,1,0,0:0:0:0:
192,192,43596,1,0,0:0:0:0:
320,192,43746,1,0,0:0:0:0:
448,192,43896,1,0,0:0:0:0:
64,192,43896,1,0,0:0:0:0:
192,192,44046,1,0,0:0:0:0:
320,192,44196,1,0,0:0:0:0:
448,192,44346,1,0,0:0:0:0:
64,192,44346,1,0,0:0:0:0:
192,192,44496,1,0,0:0:0:0:
320,192,44646,1,0,0:0:0:0:
192,192,44796,1,0,0:0:0:0:
64,192,44796,1,0,0:0:0:0:
320,192,44946,1,0,0:0:0:0:
192,192,45096,1,0,0:0:0:0:
448,192,45096,1,0,0:0:0:0:
64,192,45246,1,0,0:0:0:0:
320,192,45396,128,0,45471:0:0:0:0:
192,192,46596,128,0,46671:0:0:0:0:
64,192,47796,128,0,47871:0:0:0:0:
448,192,50196,128,0,50271:0:0:0:0:
320,192,51396,128,0,51471:0:0:0:0:
192,192,52596,128,0,52671:0:0:0:0:
448,192,54396,1,0,0:0:0:0:
64,192,54696,1,0,0:0:0:0:
192,192,54846,1,0,0:0:0:0:
320,192,54996,1,0,0:0:0:0:
64,192,54996,128,0,55071:0:0:0:0:
192,192,55746,128,0,55821:0:0:0:0:
192,192,56196,128,0,56271:0:0:0:0:
448,192,56796,1,0,0:0:0:0:
64,192,56796,128,0,56871:0:0:0:0:
320,192,56946,1,0,0:0:0:0:
192,192,57096,1,0,0:0:0:0:
64,192,57246,1,0,0:0:0:0:
320,192,57246,128,0,57321:0:0:0:0:
192,192,57546,1,0,0:0:0:0:
192,192,57696,1,0,0:0:0:0:
64,192,59196,1,0,0:0:0:0:
192,192,59496,1,0,0:0:0:0:
320,192,59796,1,0,0:0:0:0:
448,192,59796,128,0,59871:0:0:0:0:
192,192,60696,1,0,0:0:0:0:
448,192,60696,128,0,60771:0:0:0:0:
320,192,60846,1,0,0:0:0:0:
64,192,60996,128,0,61071:0:0:0:0:
192,192,61746,1,0,0:0:0:0:
320,192,61896,1,0,0:0:0:0:
192,192,62046,1,0,0:0:0:0:
64,192,62196,128,0,62346:0:0:0:0:
192,192,62346,128,0,62496:0:0:0:0:
448,192,62496,1,0,0:0:0:0:
320,192,62496,128,0,62646:0:0:0:0:
64,192,62646,128,0,62796:0:0:0:0:
448,192,62796,128,0,62946:0:0:0:0:
192,192,62946,128,0,63096:0:0:0:0:
448,192,63096,1,0,0:0:0:0:
320,192,63096,128,0,63246:0:0:0:0:
192,192,63246,128,0,63396:0:0:0:0:
64,192,63396,128,0,63546:0:0:0:0:
320,192,63546,128,0,63696:0:0:0:0:
192,192,63696,128,0,63846:0:0:0:0:
320,192,63846,128,0,63996:0:0:0:0:
448,192,64296,128,0,64596:0:0:0:0:
192,192,64596,1,0,0:0:0:0:
64,192,64596,1,0,0:0:0:0:
320,192,64596,128,0,66246:0:0:0:0:
192,192,65346,1,0,0:0:0:0:
448,192,65346,1,0,0:0:0:0:
64,192,65346,1,0,0:0:0:0:
192,192,65796,1,0,0:0:0:0:
64,192,65796,1,0,0:0:0:0:
448,192,65796,1,0,0:0:0:0:
64,192,66396,128,0,66546:0:0:0:0:
192,192,66396,1,0,0:0:0:0:
320,192,66396,1,0,0:0:0:0:
448,192,66396,1,0,0:0:0:0:
192,192,66546,128,0,66696:0:0:0:0:
320,192,66696,128,0,66846:0:0:0:0:
448,192,66846,128,0,67146:0:0:0:0:
192,192,66846,1,0,0:0:0:0:
64,192,66846,1,0,0:0:0:0:
192,192,67146,128,0,67296:0:0:0:0:
64,192,67296,128,0,68646:0:0:0:0:
448,192,68796,128,0,69096:0:0:0:0:
320,192,69096,128,0,69396:0:0:0:0:
192,192,69396,128,0,70296:0:0:0:0:
64,192,69396,1,0,0:0:0:0:
448,192,69396,1,0,0:0:0:0:
64,192,70146,1,0,0:0:0:0:
320,192,70146,1,0,0:0:0:0:
448,192,70146,1,0,0:0:0:0:
320,192,70296,128,0,70446:0:0:0:0:
448,192,70446,128,0,71346:0:0:0:0:
320,192,70596,1,0,0:0:0:0:
192,192,70596,1,0,0:0:0:0:
64,192,70596,1,0,0:0:0:0:
320,192,71196,1,0,0:0:0:0:
192,192,71196,1,0,0:0:0:0:
64,192,71196,1,0,0:0:0:0:
320,192,71346,128,0,71496:0:0:0:0:
192,192,71496,128,0,71646:0:0:0:0:
64,192,71646,128,0,73296:0:0:0:0:
320,192,71646,1,0,0:0:0:0:
448,192,71646,1,0,0:0:0:0:
448,192,73896,128,0,74196:0:0:0:0:
192,192,74196,1,0,0:0:0:0:
64,192,74196,1,0,0:0:0:0:
320,192,74196,128,0,75846:0:0:0:0:
192,192,74946,1,0,0:0:0:0:
448,192,74946,1,0,0:0:0:0:
64,192,74946,1,0,0:0:0:0:
64,192,75396,1,0,0:0:0:0:
448,192,75396,1,0,0:0:0:0:
192,192,75396,1,0,0:0:0:0:
320,192,75996,1,0,0:0:0:0:
448,192,75996,1,0,0:0:0:0:
192,192,75996,1,0,0:0:0:0:
64,192,75996,128,0,76146:0:0:0:0:
192,192,76146,128,0,76296:0:0:0:0:
320,192,76296,128,0,76446:0:0:0:0:
192,192,76446,1,0,0:0:0:0:
64,192,76446,1,0,0:0:0:0:
448,192,76446,128,0,76746:0:0:0:0:
192,192,76746,128,0,76896:0:0:0:0:
64,192,76896,128,0,78246:0:0:0:0:
448,192,78396,128,0,78696:0:0:0:0:
320,192,78696,128,0,78996:0:0:0:0:
64,192,78996,1,0,0:0:0:0:
192,192,78996,128,0,79896:0:0:0:0:
448,192,78996,1,0,0:0:0:0:
448,192,79746,1,0,0:0:0:0:
320,192,79746,1,0,0:0:0:0:
64,192,79746,1,0,0:0:0:0:
320,192,79896,128,0,80046:0:0:0:0:
448,192,80046,128,0,80946:0:0:0:0:
64,192,80196,1,0,0:0:0:0:
192,192,80196,1,0,0:0:0:0:
320,192,80196,1,0,0:0:0:0:
320,192,80796,1,0,0:0:0:0:
192,192,80796,1,0,0:0:0:0:
64,192,80796,1,0,0:0:0:0:
320,192,80946,128,0,81096:0:0:0:0:
192,192,81096,128,0,81246:0:0:0:0:
320,192,81246,1,0,0:0:0:0:
448,192,81246,1,0,0:0:0:0:
64,192,81246,128,0,83796:0:0:0:0:
64,192,86196,1,0,0:0:0:0:
192,192,86196,1,0,0:0:0:0:
448,192,86196,1,0,0:0:0:0:
448,192,86346,1,0,0:0:0:0:
320,192,86421,1,0,0:0:0:0:
192,192,86496,1,0,0:0:0:0:
64,192,86496,1,0,0:0:0:0:
448,192,86496,1,0,0:0:0:0:
320,192,86571,1,0,0:0:0:0:
192,192,86646,1,0,0:0:0:0:
320,192,86721,1,0,0:0:0:0:
64,192,86796,1,0,0:0:0:0:
192,192,86796,1,0,0:0:0:0:
320,192,86946,1,0,0:0:0:0:
448,192,86946,1,0,0:0:0:0:
192,192,87021,1,0,0:0:0:0:
64,192,87096,1,0,0:0:0:0:
448,192,87096,1,0,0:0:0:0:
320,192,87096,1,0,0:0:0:0:
192,192,87246,1,0,0:0:0:0:
320,192,87321,1,0,0:0:0:0:
64,192,87396,1,0,0:0:0:0:
192,192,87396,1,0,0:0:0:0:
448,192,87546,1,0,0:0:0:0:
192,192,87546,1,0,0:0:0:0:
320,192,87621,1,0,0:0:0:0:
64,192,87696,1,0,0:0:0:0:
448,192,87696,1,0,0:0:0:0:
192,192,87696,1,0,0:0:0:0:
320,192,87846,1,0,0:0:0:0:
192,192,87921,1,0,0:0:0:0:
320,192,87996,1,0,0:0:0:0:
448,192,87996,1,0,0:0:0:0:
64,192,88146,1,0,0:0:0:0:
192,192,88221,1,0,0:0:0:0:
448,192,88296,1,0,0:0:0:0:
320,192,88296,1,0,0:0:0:0:
192,192,88371,1,0,0:0:0:0:
64,192,88371,1,0,0:0:0:0:
320,192,88446,1,0,0:0:0:0:
448,192,88446,1,0,0:0:0:0:
192,192,88521,1,0,0:0:0:0:
64,192,88521,1,0,0:0:0:0:
448,192,88596,1,0,0:0:0:0:
320,192,88596,1,0,0:0:0:0:
448,192,88746,1,0,0:0:0:0:
320,192,88821,1,0,0:0:0:0:
448,192,88896,1,0,0:0:0:0:
64,192,88896,1,0,0:0:0:0:
192,192,88896,1,0,0:0:0:0:
320,192,88971,1,0,0:0:0:0:
192,192,89046,1,0,0:0:0:0:
320,192,89121,1,0,0:0:0:0:
448,192,89196,1,0,0:0:0:0:
64,192,89196,1,0,0:0:0:0:
320,192,89346,1,0,0:0:0:0:
448,192,89346,1,0,0:0:0:0:
192,192,89421,1,0,0:0:0:0:
64,192,89496,1,0,0:0:0:0:
448,192,89496,1,0,0:0:0:0:
320,192,89496,1,0,0:0:0:0:
192,192,89646,1,0,0:0:0:0:
320,192,89721,1,0,0:0:0:0:
64,192,89796,1,0,0:0:0:0:
192,192,89796,1,0,0:0:0:0:
448,192,89946,1,0,0:0:0:0:
192,192,89946,1,0,0:0:0:0:
320,192,90021,1,0,0:0:0:0:
64,192,90096,1,0,0:0:0:0:
192,192,90096,1,0,0:0:0:0:
448,192,90096,1,0,0:0:0:0:
320,192,90246,1,0,0:0:0:0:
192,192,90321,1,0,0:0:0:0:
320,192,90396,1,0,0:0:0:0:
448,192,90396,1,0,0:0:0:0:
64,192,90546,1,0,0:0:0:0:
192,192,90621,1,0,0:0:0:0:
448,192,90696,1,0,0:0:0:0:
320,192,90696,1,0,0:0:0:0:
64,192,90771,1,0,0:0:0:0:
192,192,90771,1,0,0:0:0:0:
448,192,90846,1,0,0:0:0:0:
320,192,90846,1,0,0:0:0:0:
192,192,90921,1,0,0:0:0:0:
64,192,90921,1,0,0:0:0:0:
448,192,90996,1,0,0:0:0:0:
320,192,90996,1,0,0:0:0:0:
64,192,91146,1,0,0:0:0:0:
192,192,91221,1,0,0:0:0:0:
448,192,91296,1,0,0:0:0:0:
64,192,91296,1,0,0:0:0:0:
320,192,91296,1,0,0:0:0:0:
192,192,91371,1,0,0:0:0:0:
320,192,91446,1,0,0:0:0:0:
192,192,91521,1,0,0:0:0:0:
448,192,91596,1,0,0:0:0:0:
64,192,91596,1,0,0:0:0:0:
320,192,91746,1,0,0:0:0:0:
192,192,91746,1,0,0:0:0:0:
64,192,91821,1,0,0:0:0:0:
448,192,91896,1,0,0:0:0:0:
320,192,91896,1,0,0:0:0:0:
192,192,91896,1,0,0:0:0:0:
64,192,92046,1,0,0:0:0:0:
192,192,92121,1,0,0:0:0:0:
448,192,92196,1,0,0:0:0:0:
320,192,92196,1,0,0:0:0:0:
192,192,92346,1,0,0:0:0:0:
64,192,92346,1,0,0:0:0:0:
320,192,92421,1,0,0:0:0:0:
64,192,92496,1,0,0:0:0:0:
192,192,92496,1,0,0:0:0:0:
448,192,92496,1,0,0:0:0:0:
320,192,92646,1,0,0:0:0:0:
192,192,92721,1,0,0:0:0:0:
320,192,92796,1,0,0:0:0:0:
448,192,92796,1,0,0:0:0:0:
64,192,92946,1,0,0:0:0:0:
192,192,93021,1,0,0:0:0:0:
448,192,93096,1,0,0:0:0:0:
320,192,93096,1,0,0:0:0:0:
64,192,93171,1,0,0:0:0:0:
192,192,93171,1,0,0:0:0:0:
448,192,93246,1,0,0:0:0:0:
320,192,93246,1,0,0:0:0:0:
192,192,93321,1,0,0:0:0:0:
64,192,93321,1,0,0:0:0:0:
448,192,93396,1,0,0:0:0:0:
320,192,93396,1,0,0:0:0:0:
192,192,93546,1,0,0:0:0:0:
320,192,93621,1,0,0:0:0:0:
192,192,93696,1,0,0:0:0:0:
64,192,93696,1,0,0:0:0:0:
448,192,93696,1,0,0:0:0:0:
320,192,93771,1,0,0:0:0:0:
64,192,93846,1,0,0:0:0:0:
192,192,93921,1,0,0:0:0:0:
320,192,93996,1,0,0:0:0:0:
64,192,93996,1,0,0:0:0:0:
448,192,94146,1,0,0:0:0:0:
192,192,94146,1,0,0:0:0:0:
320,192,94221,1,0,0:0:0:0:
448,192,94296,1,0,0:0:0:0:
64,192,94296,1,0,0:0:0:0:
192,192,94296,1,0,0:0:0:0:
320,192,94446,1,0,0:0:0:0:
192,192,94521,1,0,0:0:0:0:
64,192,94596,1,0,0:0:0:0:
320,192,94596,1,0,0:0:0:0:
448,192,94746,1,0,0:0:0:0:
192,192,94746,1,0,0:0:0:0:
320,192,94821,1,0,0:0:0:0:
192,192,94896,1,0,0:0:0:0:
64,192,94896,1,0,0:0:0:0:
320,192,94971,1,0,0:0:0:0:
448,192,94971,1,0,0:0:0:0:
192,192,95046,1,0,0:0:0:0:
64,192,95046,1,0,0:0:0:0:
320,192,95121,1,0,0:0:0:0:
448,192,95121,1,0,0:0:0:0:
192,192,95196,1,0,0:0:0:0:
64,192,95196,1,0,0:0:0:0:
448,192,95271,1,0,0:0:0:0:
320,192,95346,1,0,0:0:0:0:
64,192,95346,1,0,0:0:0:0:
192,192,95421,1,0,0:0:0:0:
320,192,95496,1,0,0:0:0:0:
448,192,95496,1,0,0:0:0:0:
192,192,95571,1,0,0:0:0:0:
64,192,95571,1,0,0:0:0:0:
320,192,95646,1,0,0:0:0:0:
448,192,95646,1,0,0:0:0:0:
64,192,95721,1,0,0:0:0:0:
192,192,95721,1,0,0:0:0:0:
320,192,95796,1,0,0:0:0:0:
448,192,95796,1,0,0:0:0:0:
192,192,95871,1,0,0:0:0:0:
64,192,95946,1,0,0:0:0:0:
448,192,96021,1,0,0:0:0:0:
320,192,96096,1,0,0:0:0:0:
192,192,96096,1,0,0:0:0:0:
64,192,96171,1,0,0:0:0:0:
320,192,96246,1,0,0:0:0:0:
192,192,96321,1,0,0:0:0:0:
448,192,96396,1,0,0:0:0:0:
320,192,96396,1,0,0:0:0:0:
64,192,96471,1,0,0:0:0:0:
192,192,96546,1,0,0:0:0:0:
448,192,96546,1,0,0:0:0:0:
320,192,96621,1,0,0:0:0:0:
448,192,96696,1,0,0:0:0:0:
64,192,96696,1,0,0:0:0:0:
192,192,96771,1,0,0:0:0:0:
64,192,96846,1,0,0:0:0:0:
320,192,96846,1,0,0:0:0:0:
448,192,96921,1,0,0:0:0:0:
320,192,96996,1,0,0:0:0:0:
192,192,96996,1,0,0:0:0:0:
64,192,97071,1,0,0:0:0:0:
448,192,97146,1,0,0:0:0:0:
320,192,97221,1,0,0:0:0:0:
192,192,97296,1,0,0:0:0:0:
64,192,97296,1,0,0:0:0:0:
448,192,97371,1,0,0:0:0:0:
320,192,97446,1,0,0:0:0:0:
192,192,97521,1,0,0:0:0:0:
448,192,97596,1,0,0:0:0:0:
64,192,97596,1,0,0:0:0:0:
320,192,97671,1,0,0:0:0:0:
192,192,97746,1,0,0:0:0:0:
448,192,97746,1,0,0:0:0:0:
64,192,97821,1,0,0:0:0:0:
448,192,97896,1,0,0:0:0:0:
320,192,97896,1,0,0:0:0:0:
192,192,97896,1,0,0:0:0:0:
64,192,98196,1,0,0:0:0:0:
192,192,98196,1,0,0:0:0:0:
448,192,98196,1,0,0:0:0:0:
320,192,98271,1,0,0:0:0:0:
448,192,98346,1,0,0:0:0:0:
64,192,98421,1,0,0:0:0:0:
192,192,98496,1,0,0:0:0:0:
320,192,98496,1,0,0:0:0:0:
448,192,98571,1,0,0:0:0:0:
64,192,98646,1,0,0:0:0:0:
192,192,98721,1,0,0:0:0:0:
448,192,98796,1,0,0:0:0:0:
320,192,98796,1,0,0:0:0:0:
64,192,98871,1,0,0:0:0:0:
192,192,98946,1,0,0:0:0:0:
448,192,98946,1,0,0:0:0:0:
320,192,99021,1,0,0:0:0:0:
448,192,99096,1,0,0:0:0:0:
64,192,99096,1,0,0:0:0:0:
192,192,99171,1,0,0:0:0:0:
320,192,99246,1,0,0:0:0:0:
64,192,99246,1,0,0:0:0:0:
448,192,99321,1,0,0:0:0:0:
64,192,99396,1,0,0:0:0:0:
192,192,99396,1,0,0:0:0:0:
320,192,99471,1,0,0:0:0:0:
448,192,99546,1,0,0:0:0:0:
64,192,99621,1,0,0:0:0:0:
192,192,99696,1,0,0:0:0:0:
320,192,99696,1,0,0:0:0:0:
448,192,99771,1,0,0:0:0:0:
64,192,99846,1,0,0:0:0:0:
192,192,99921,1,0,0:0:0:0:
320,192,99996,1,0,0:0:0:0:
448,192,99996,1,0,0:0:0:0:
64,192,100071,1,0,0:0:0:0:
192,192,100146,1,0,0:0:0:0:
448,192,100146,1,0,0:0:0:0:
320,192,100221,1,0,0:0:0:0:
64,192,100296,1,0,0:0:0:0:
448,192,100296,1,0,0:0:0:0:
192,192,100296,1,0,0:0:0:0:
448,192,100596,1,0,0:0:0:0:
320,192,100596,1,0,0:0:0:0:
192,192,100671,1,0,0:0:0:0:
64,192,100671,1,0,0:0:0:0:
320,192,100746,1,0,0:0:0:0:
448,192,100746,1,0,0:0:0:0:
192,192,100821,1,0,0:0:0:0:
64,192,100821,1,0,0:0:0:0:
320,192,100896,1,0,0:0:0:0:
448,192,100896,1,0,0:0:0:0:
192,192,100971,1,0,0:0:0:0:
64,192,100971,1,0,0:0:0:0:
320,192,101046,1,0,0:0:0:0:
448,192,101046,1,0,0:0:0:0:
192,192,101121,1,0,0:0:0:0:
64,192,101121,1,0,0:0:0:0:
320,192,101196,1,0,0:0:0:0:
448,192,101196,1,0,0:0:0:0:
192,192,101271,1,0,0:0:0:0:
64,192,101271,1,0,0:0:0:0:
320,192,101346,1,0,0:0:0:0:
448,192,101346,1,0,0:0:0:0:
192,192,101421,1,0,0:0:0:0:
64,192,101421,1,0,0:0:0:0:
320,192,101496,1,0,0:0:0:0:
448,192,101496,1,0,0:0:0:0:
192,192,101796,1,0,0:0:0:0:
64,192,101796,1,0,0:0:0:0:
320,192,101871,1,0,0:0:0:0:
448,192,101871,1,0,0:0:0:0:
192,192,101946,1,0,0:0:0:0:
64,192,101946,1,0,0:0:0:0:
320,192,102021,1,0,0:0:0:0:
448,192,102021,1,0,0:0:0:0:
192,192,102096,1,0,0:0:0:0:
64,192,102096,1,0,0:0:0:0:
320,192,102171,1,0,0:0:0:0:
448,192,102171,1,0,0:0:0:0:
192,192,102246,1,0,0:0:0:0:
64,192,102246,1,0,0:0:0:0:
320,192,102321,1,0,0:0:0:0:
448,192,102321,1,0,0:0:0:0:
192,192,102396,1,0,0:0:0:0:
64,192,102396,1,0,0:0:0:0:
320,192,102471,1,0,0:0:0:0:
448,192,102471,1,0,0:0:0:0:
192,192,102546,1,0,0:0:0:0:
64,192,102546,1,0,0:0:0:0:
320,192,102621,1,0,0:0:0:0:
448,192,102621,1,0,0:0:0:0:
192,192,102696,1,0,0:0:0:0:
64,192,102696,1,0,0:0:0:0:
448,192,102996,1,0,0:0:0:0:
320,192,103033,1,0,0:0:0:0:
64,192,103071,1,0,0:0:0:0:
192,192,103108,1,0,0:0:0:0:
448,192,103146,1,0,0:0:0:0:
320,192,103183,1,0,0:0:0:0:
64,192,103221,1,0,0:0:0:0:
192,192,103221,1,0,0:0:0:0:
448,192,103296,1,0,0:0:0:0:
320,192,103296,1,0,0:0:0:0:
64,192,103371,1,0,0:0:0:0:
192,192,103371,1,0,0:0:0:0:
448,192,103446,1,0,0:0:0:0:
320,192,103446,1,0,0:0:0:0:
64,192,103521,1,0,0:0:0:0:
192,192,103521,1,0,0:0:0:0:
448,192,103596,1,0,0:0:0:0:
320,192,103633,1,0,0:0:0:0:
64,192,103671,1,0,0:0:0:0:
192,192,103708,1,0,0:0:0:0:
448,192,103746,1,0,0:0:0:0:
320,192,103783,1,0,0:0:0:0:
192,192,103821,1,0,0:0:0:0:
64,192,103821,1,0,0:0:0:0:
448,192,103896,1,0,0:0:0:0:
320,192,103896,1,0,0:0:0:0:
64,192,103971,1,0,0:0:0:0:
192,192,103971,1,0,0:0:0:0:
448,192,104046,1,0,0:0:0:0:
320,192,104046,1,0,0:0:0:0:
64,192,104121,1,0,0:0:0:0:
192,192,104121,1,0,0:0:0:0:
448,192,104196,1,0,0:0:0:0:
320,192,104233,1,0,0:0:0:0:
64,192,104271,1,0,0:0:0:0:
192,192,104308,1,0,0:0:0:0:
448,192,104346,1,0,0:0:0:0:
320,192,104383,1,0,0:0:0:0:
64,192,104421,1,0,0:0:0:0:
192,192,104458,1,0,0:0:0:0:
448,192,104496,1,0,0:0:0:0:
320,192,104533,1,0,0:0:0:0:
64,192,104571,1,0,0:0:0:0:
192,192,104608,1,0,0:0:0:0:
448,192,104646,1,0,0:0:0:0:
320,192,104683,1,0,0:0:0:0:
64,192,104721,1,0,0:0:0:0:
192,192,104758,1,0,0:0:0:0:
448,192,104796,1,0,0:0:0:0:
320,192,104821,1,0,0:0:0:0:
64,192,104846,1,0,0:0:0:0:
192,192,104871,1,0,0:0:0:0:
448,192,104896,1,0,0:0:0:0:
320,192,104921,1,0,0:0:0:0:
64,192,104946,1,0,0:0:0:0:
192,192,104971,1,0,0:0:0:0:
448,192,104996,1,0,0:0:0:0:
320,192,105021,1,0,0:0:0:0:
64,192,105046,1,0,0:0:0:0:
192,192,105071,1,0,0:0:0:0:
448,192,105096,1,0,0:0:0:0:
320,192,105121,1,0,0:0:0:0:
64,192,105146,1,0,0:0:0:0:
192,192,105171,1,0,0:0:0:0:
448,192,105196,1,0,0:0:0:0:
320,192,105221,1,0,0:0:0:0:
64,192,105246,1,0,0:0:0:0:
192,192,105271,1,0,0:0:0:0:
448,192,105296,1,0,0:0:0:0:
320,192,105321,1,0,0:0:0:0:
64,192,105346,1,0,0:0:0:0:
192,192,105371,1,0,0:0:0:0:
448,192,105396,1,0,0:0:0:0:
320,192,105396,1,0,0:0:0:0:
320,192,105546,1,0,0:0:0:0:
192,192,105696,1,0,0:0:0:0:
448,192,105696,1,0,0:0:0:0:
192,192,105846,1,0,0:0:0:0:
448,192,105996,1,0,0:0:0:0:
64,192,105996,1,0,0:0:0:0:
320,192,106071,1,0,0:0:0:0:
192,192,106146,1,0,0:0:0:0:
64,192,106221,1,0,0:0:0:0:
320,192,106296,1,0,0:0:0:0:
448,192,106296,1,0,0:0:0:0:
320,192,106446,1,0,0:0:0:0:
64,192,106596,1,0,0:0:0:0:
448,192,106596,1,0,0:0:0:0:
192,192,106671,1,0,0:0:0:0:
320,192,106746,1,0,0:0:0:0:
448,192,106821,1,0,0:0:0:0:
192,192,106896,1,0,0:0:0:0:
64,192,106896,1,0,0:0:0:0:
64,192,107046,1,0,0:0:0:0:
448,192,107196,1,0,0:0:0:0:
320,192,107196,1,0,0:0:0:0:
192,192,107271,1,0,0:0:0:0:
64,192,107346,1,0,0:0:0:0:
448,192,107496,1,0,0:0:0:0:
320,192,107496,1,0,0:0:0:0:
192,192,107571,1,0,0:0:0:0:
64,192,107571,1,0,0:0:0:0:
320,192,107646,1,0,0:0:0:0:
448,192,107646,1,0,0:0:0:0:
192,192,107721,1,0,0:0:0:0:
64,192,107721,1,0,0:0:0:0:
320,192,107796,1,0,0:0:0:0:
448,192,107796,128,0,108096:0:0:0:0:
320,192,108096,1,8,0:0:0:0:
320,192,108171,1,0,0:0:0:0:
192,192,108246,1,0,0:0:0:0:
192,192,108321,1,0,0:0:0:0:
448,192,108396,1,0,0:0:0:0:
64,192,108396,1,8,0:0:0:0:
320,192,108471,1,0,0:0:0:0:
192,192,108546,1,0,0:0:0:0:
64,192,108546,1,0,0:0:0:0:
320,192,108621,1,0,0:0:0:0:
448,192,108621,1,0,0:0:0:0:
192,192,108696,1,0,0:0:0:0:
320,192,108771,1,0,0:0:0:0:
320,192,108846,1,0,0:0:0:0:
320,192,108921,1,0,0:0:0:0:
64,192,108996,1,0,0:0:0:0:
192,192,108996,1,0,0:0:0:0:
448,192,109071,1,0,0:0:0:0:
192,192,109146,1,0,0:0:0:0:
64,192,109146,1,0,0:0:0:0:
320,192,109221,1,0,0:0:0:0:
448,192,109221,1,0,0:0:0:0:
192,192,109296,1,0,0:0:0:0:
320,192,109371,1,0,0:0:0:0:
320,192,109446,1,0,0:0:0:0:
192,192,109521,1,4,0:0:0:0:
64,192,109521,1,0,0:0:0:0:
320,192,109596,1,8,0:0:0:0:
448,192,109596,1,0,0:0:0:0:
192,192,109671,1,0,0:0:0:0:
320,192,109746,1,0,0:0:0:0:
320,192,109821,1,0,0:0:0:0:
320,192,109896,1,0,0:0:0:0:
320,192,109971,1,0,0:0:0:0:
320,192,110046,1,0,0:0:0:0:
320,192,110121,1,0,0:0:0:0:
192,192,110196,1,4,0:0:0:0:
64,192,110196,1,0,0:0:0:0:
448,192,110346,1,0,0:0:0:0:
64,192,110346,1,0,0:0:0:0:
192,192,110496,1,0,0:0:0:0:
192,192,110571,1,0,0:0:0:0:
320,192,110646,1,0,0:0:0:0:
320,192,110721,1,0,0:0:0:0:
64,192,110796,1,0,0:0:0:0:
448,192,110796,1,8,0:0:0:0:
192,192,110871,1,0,0:0:0:0:
320,192,110946,1,0,0:0:0:0:
448,192,110946,1,0,0:0:0:0:
192,192,111021,1,0,0:0:0:0:
64,192,111021,1,0,0:0:0:0:
448,192,111096,1,0,0:0:0:0:
192,192,111171,1,0,0:0:0:0:
192,192,111246,128,0,111396:0:0:0:0:
320,192,111396,1,4,0:0:0:0:
448,192,111396,1,0,0:0:0:0:
64,192,111471,1,0,0:0:0:0:
64,192,111546,1,0,0:0:0:0:
320,192,111621,1,0,0:0:0:0:
320,192,111696,1,0,0:0:0:0:
192,192,111771,1,0,0:0:0:0:
192,192,111846,1,0,0:0:0:0:
320,192,111921,1,4,0:0:0:0:
448,192,111921,1,0,0:0:0:0:
64,192,111996,1,0,0:0:0:0:
192,192,111996,1,8,0:0:0:0:
320,192,112071,1,0,0:0:0:0:
192,192,112146,1,0,0:0:0:0:
64,192,112146,1,0,0:0:0:0:
448,192,112221,1,0,0:0:0:0:
320,192,112296,1,4,0:0:0:0:
192,192,112296,1,0,0:0:0:0:
64,192,112371,1,0,0:0:0:0:
448,192,112446,1,0,0:0:0:0:
320,192,112446,1,4,0:0:0:0:
192,192,112521,1,0,0:0:0:0:
64,192,112596,128,4,112896:0:0:0:0:
448,192,112596,128,4,112896:0:0:0:0:
320,192,112896,1,0,0:0:0:0:
320,192,112971,1,0,0:0:0:0:
192,192,113046,1,0,0:0:0:0:
192,192,113121,1,0,0:0:0:0:
448,192,113196,1,8,0:0:0:0:
64,192,113196,1,0,0:0:0:0:
320,192,113271,1,0,0:0:0:0:
64,192,113346,1,0,0:0:0:0:
192,192,113346,1,0,0:0:0:0:
448,192,113421,1,0,0:0:0:0:
320,192,113421,1,0,0:0:0:0:
192,192,113496,1,0,0:0:0:0:
320,192,113571,1,0,0:0:0:0:
320,192,113646,1,0,0:0:0:0:
320,192,113721,1,0,0:0:0:0:
192,192,113796,1,0,0:0:0:0:
64,192,113796,1,0,0:0:0:0:
448,192,113871,1,0,0:0:0:0:
192,192,113946,1,0,0:0:0:0:
64,192,113946,1,0,0:0:0:0:
448,192,114021,1,0,0:0:0:0:
320,192,114021,1,0,0:0:0:0:
192,192,114096,1,0,0:0:0:0:
320,192,114171,1,0,0:0:0:0:
320,192,114246,1,0,0:0:0:0:
192,192,114321,1,4,0:0:0:0:
64,192,114321,1,0,0:0:0:0:
320,192,114396,1,8,0:0:0:0:
448,192,114396,1,0,0:0:0:0:
192,192,114471,1,0,0:0:0:0:
64,192,114546,1,0,0:0:0:0:
448,192,114546,1,0,0:0:0:0:
320,192,114621,1,0,0:0:0:0:
192,192,114696,1,0,0:0:0:0:
64,192,114696,1,0,0:0:0:0:
192,192,114771,1,0,0:0:0:0:
192,192,114846,1,0,0:0:0:0:
192,192,114921,1,0,0:0:0:0:
320,192,114996,1,4,0:0:0:0:
448,192,114996,1,0,0:0:0:0:
192,192,115071,1,0,0:0:0:0:
448,192,115146,1,0,0:0:0:0:
64,192,115146,1,0,0:0:0:0:
192,192,115221,1,0,0:0:0:0:
320,192,115296,1,0,0:0:0:0:
448,192,115296,1,0,0:0:0:0:
64,192,115371,1,0,0:0:0:0:
320,192,115446,1,0,0:0:0:0:
448,192,115446,1,0,0:0:0:0:
192,192,115521,1,0,0:0:0:0:
64,192,115596,1,0,0:0:0:0:
448,192,115596,1,8,0:0:0:0:
320,192,115671,1,0,0:0:0:0:
192,192,115746,1,0,0:0:0:0:
64,192,115746,1,0,0:0:0:0:
320,192,115821,1,0,0:0:0:0:
192,192,115896,1,0,0:0:0:0:
64,192,115896,1,0,0:0:0:0:
320,192,115971,1,0,0:0:0:0:
192,192,116046,1,0,0:0:0:0:
64,192,116046,1,0,0:0:0:0:
320,192,116121,1,0,0:0:0:0:
448,192,116196,1,4,0:0:0:0:
64,192,116196,1,0,0:0:0:0:
192,192,116271,1,0,0:0:0:0:
320,192,116346,1,4,0:0:0:0:
448,192,116346,1,0,0:0:0:0:
192,192,116421,1,8,0:0:0:0:
64,192,116421,1,0,0:0:0:0:
320,192,116496,1,0,0:0:0:0:
448,192,116571,1,0,0:0:0:0:
192,192,116646,1,4,0:0:0:0:
64,192,116646,1,0,0:0:0:0:
320,192,116721,1,0,0:0:0:0:
192,192,116796,1,0,0:0:0:0:
448,192,116871,1,0,0:0:0:0:
320,192,116871,1,4,0:0:0:0:
192,192,116946,1,0,0:0:0:0:
64,192,117021,1,0,0:0:0:0:
448,192,117096,1,0,0:0:0:0:
320,192,117096,1,8,0:0:0:0:
192,192,117171,1,0,0:0:0:0:
448,192,117246,1,4,0:0:0:0:
64,192,117246,1,0,0:0:0:0:
320,192,117321,1,0,0:0:0:0:
192,192,117396,128,4,117696:0:0:0:0:
64,192,117396,128,4,117696:0:0:0:0:
320,192,117696,1,4,0:0:0:0:
448,192,117696,1,4,0:0:0:0:
320,192,117771,1,0,0:0:0:0:
192,192,117846,1,0,0:0:0:0:
192,192,117921,1,0,0:0:0:0:
64,192,117996,1,8,0:0:0:0:
448,192,117996,1,0,0:0:0:0:
320,192,118071,1,0,0:0:0:0:
192,192,118146,1,0,0:0:0:0:
64,192,118146,1,0,0:0:0:0:
320,192,118221,1,0,0:0:0:0:
448,192,118221,1,0,0:0:0:0:
192,192,118296,1,0,0:0:0:0:
320,192,118371,1,0,0:0:0:0:
320,192,118446,1,0,0:0:0:0:
320,192,118521,1,0,0:0:0:0:
64,192,118596,1,0,0:0:0:0:
192,192,118596,1,0,0:0:0:0:
448,192,118671,1,0,0:0:0:0:
64,192,118746,1,0,0:0:0:0:
192,192,118746,1,0,0:0:0:0:
320,192,118821,1,0,0:0:0:0:
448,192,118821,1,0,0:0:0:0:
192,192,118896,1,0,0:0:0:0:
320,192,118971,1,0,0:0:0:0:
320,192,119046,1,0,0:0:0:0:
64,192,119121,1,0,0:0:0:0:
192,192,119121,1,4,0:0:0:0:
448,192,119196,1,0,0:0:0:0:
320,192,119196,1,8,0:0:0:0:
192,192,119271,1,0,0:0:0:0:
320,192,119346,1,0,0:0:0:0:
320,192,119421,1,0,0:0:0:0:
320,192,119496,1,0,0:0:0:0:
320,192,119571,1,0,0:0:0:0:
320,192,119646,1,0,0:0:0:0:
320,192,119721,1,0,0:0:0:0:
64,192,119796,1,0,0:0:0:0:
448,192,119796,1,4,0:0:0:0:
192,192,119871,1,0,0:0:0:0:
320,192,119946,1,0,0:0:0:0:
448,192,120021,1,0,0:0:0:0:
192,192,120096,1,0,0:0:0:0:
192,192,120171,1,0,0:0:0:0:
320,192,120246,1,0,0:0:0:0:
320,192,120321,1,0,0:0:0:0:
448,192,120396,1,0,0:0:0:0:
64,192,120396,1,8,0:0:0:0:
192,192,120471,1,0,0:0:0:0:
320,192,120546,1,0,0:0:0:0:
448,192,120546,1,0,0:0:0:0:
192,192,120621,1,0,0:0:0:0:
64,192,120621,1,0,0:0:0:0:
448,192,120696,1,0,0:0:0:0:
192,192,120771,1,0,0:0:0:0:
192,192,120846,128,0,120996:0:0:0:0:
448,192,120996,1,0,0:0:0:0:
320,192,120996,1,0,0:0:0:0:
64,192,121071,1,0,0:0:0:0:
64,192,121146,1,0,0:0:0:0:
320,192,121221,1,0,0:0:0:0:
320,192,121296,1,0,0:0:0:0:
192,192,121371,1,0,0:0:0:0:
192,192,121446,1,0,0:0:0:0:
320,192,121521,1,4,0:0:0:0:
448,192,121521,1,0,0:0:0:0:
64,192,121596,1,0,0:0:0:0:
192,192,121596,1,8,0:0:0:0:
320,192,121671,1,0,0:0:0:0:
192,192,121746,1,4,0:0:0:0:
64,192,121746,1,0,0:0:0:0:
448,192,121821,1,0,0:0:0:0:
320,192,121896,1,0,0:0:0:0:
192,192,121896,1,0,0:0:0:0:
64,192,121971,1,0,0:0:0:0:
448,192,122046,1,0,0:0:0:0:
320,192,122046,1,0,0:0:0:0:
192,192,122121,1,0,0:0:0:0:
64,192,122196,1,0,0:0:0:0:
448,192,122196,1,0,0:0:0:0:
320,192,122196,1,4,0:0:0:0:
448,192,122496,1,0,0:0:0:0:
320,192,122496,1,0,0:0:0:0:
192,192,122571,1,0,0:0:0:0:
320,192,122646,1,0,0:0:0:0:
192,192,122721,1,0,0:0:0:0:
448,192,122796,1,0,0:0:0:0:
64,192,122796,1,0,0:0:0:0:
320,192,122796,1,8,0:0:0:0:
192,192,122871,1,0,0:0:0:0:
320,192,122946,1,0,0:0:0:0:
448,192,123021,1,0,0:0:0:0:
64,192,123096,1,0,0:0:0:0:
192,192,123096,1,0,0:0:0:0:
320,192,123171,1,0,0:0:0:0:
192,192,123246,1,0,0:0:0:0:
320,192,123321,1,0,0:0:0:0:
64,192,123396,1,0,0:0:0:0:
192,192,123471,1,0,0:0:0:0:
320,192,123546,1,0,0:0:0:0:
448,192,123621,1,0,0:0:0:0:
320,192,123696,1,0,0:0:0:0:
192,192,123771,1,0,0:0:0:0:
320,192,123846,1,0,0:0:0:0:
192,192,123921,1,4,0:0:0:0:
64,192,123921,1,0,0:0:0:0:
320,192,123996,1,8,0:0:0:0:
448,192,123996,1,0,0:0:0:0:
64,192,124146,1,0,0:0:0:0:
448,192,124146,1,0,0:0:0:0:
64,192,124296,1,0,0:0:0:0:
320,192,124296,1,0,0:0:0:0:
192,192,124446,1,0,0:0:0:0:
320,192,124446,1,0,0:0:0:0:
448,192,124596,1,4,0:0:0:0:
320,192,124671,1,0,0:0:0:0:
192,192,124746,1,0,0:0:0:0:
64,192,124746,1,0,0:0:0:0:
320,192,124821,1,0,0:0:0:0:
448,192,124821,1,0,0:0:0:0:
192,192,124896,1,8,0:0:0:0:
64,192,124896,1,0,0:0:0:0:
448,192,124971,1,0,0:0:0:0:
192,192,125046,1,0,0:0:0:0:
64,192,125046,1,0,0:0:0:0:
320,192,125121,1,0,0:0:0:0:
448,192,125121,1,0,0:0:0:0:
192,192,125196,1,4,0:0:0:0:
64,192,125196,1,0,0:0:0:0:
448,192,125271,1,0,0:0:0:0:
320,192,125346,1,0,0:0:0:0:
192,192,125421,1,0,0:0:0:0:
64,192,125496,1,0,0:0:0:0:
448,192,125496,1,0,0:0:0:0:
320,192,125496,1,8,0:0:0:0:
192,192,125571,1,0,0:0:0:0:
448,192,125646,1,0,0:0:0:0:
320,192,125721,1,0,0:0:0:0:
192,192,125796,1,4,0:0:0:0:
64,192,125796,1,0,0:0:0:0:
448,192,125871,1,0,0:0:0:0:
320,192,125946,1,0,0:0:0:0:
192,192,126021,1,4,0:0:0:0:
64,192,126021,1,0,0:0:0:0:
448,192,126096,1,0,0:0:0:0:
320,192,126096,1,8,0:0:0:0:
192,192,126171,1,0,0:0:0:0:
448,192,126246,1,0,0:0:0:0:
320,192,126321,1,0,0:0:0:0:
192,192,126396,1,4,0:0:0:0:
64,192,126396,1,0,0:0:0:0:
448,192,126471,1,0,0:0:0:0:
320,192,126546,1,0,0:0:0:0:
192,192,126621,1,0,0:0:0:0:
64,192,126696,1,0,0:0:0:0:
320,192,126696,128,0,126996:0:0:0:0:
448,192,126696,128,0,126996:0:0:0:0:
192,192,126996,1,4,0:0:0:0:
64,192,126996,1,0,0:0:0:0:
320,192,127296,1,0,0:0:0:0:
192,192,127371,1,0,0:0:0:0:
320,192,127446,1,0,0:0:0:0:
192,192,127521,1,0,0:0:0:0:
448,192,127596,1,0,0:0:0:0:
64,192,127671,1,0,0:0:0:0:
448,192,127746,1,0,0:0:0:0:
64,192,127821,1,0,0:0:0:0:
320,192,127896,1,0,0:0:0:0:
64,192,127971,1,0,0:0:0:0:
448,192,128046,1,0,0:0:0:0:
192,192,128121,1,0,0:0:0:0:
448,192,128196,1,0,0:0:0:0:
320,192,128233,1,0,0:0:0:0:
192,192,128271,1,0,0:0:0:0:
64,192,128308,1,0,0:0:0:0:
320,192,128346,1,0,0:0:0:0:
192,192,128421,1,0,0:0:0:0:
320,192,128496,1,0,0:0:0:0:
64,192,128571,1,0,0:0:0:0:
448,192,128646,1,0,0:0:0:0:
192,192,128721,1,0,0:0:0:0:
448,192,128796,1,0,0:0:0:0:
320,192,128833,1,0,0:0:0:0:
192,192,128871,1,0,0:0:0:0:
64,192,128908,1,0,0:0:0:0:
320,192,128946,1,0,0:0:0:0:
192,192,129021,1,0,0:0:0:0:
320,192,129096,1,0,0:0:0:0:
192,192,129171,1,0,0:0:0:0:
320,192,129246,1,0,0:0:0:0:
192,192,129321,1,0,0:0:0:0:
448,192,129396,1,0,0:0:0:0:
320,192,129433,1,0,0:0:0:0:
64,192,129471,1,0,0:0:0:0:
192,192,129508,1,0,0:0:0:0:
448,192,129546,1,0,0:0:0:0:
320,192,129583,1,0,0:0:0:0:
64,192,129621,1,0,0:0:0:0:
192,192,129658,1,0,0:0:0:0:
448,192,129696,1,0,0:0:0:0:
320,192,129733,1,0,0:0:0:0:
192,192,129771,1,0,0:0:0:0:
64,192,129808,1,0,0:0:0:0:
448,192,129846,1,0,0:0:0:0:
320,192,129883,1,0,0:0:0:0:
192,192,129921,1,0,0:0:0:0:
64,192,129958,1,0,0:0:0:0:
320,192,129996,1,0,0:0:0:0:
448,192,130033,1,0,0:0:0:0:
64,192,130071,1,0,0:0:0:0:
192,192,130108,1,0,0:0:0:0:
320,192,130146,1,0,0:0:0:0:
448,192,130183,1,0,0:0:0:0:
192,192,130221,1,0,0:0:0:0:
64,192,130258,1,0,0:0:0:0:
320,192,130296,1,0,0:0:0:0:
448,192,130333,1,0,0:0:0:0:
192,192,130371,1,0,0:0:0:0:
64,192,130408,1,0,0:0:0:0:
320,192,130446,1,0,0:0:0:0:
448,192,130483,1,0,0:0:0:0:
192,192,130521,1,0,0:0:0:0:
64,192,130558,1,0,0:0:0:0:
320,192,130596,1,0,0:0:0:0:
448,192,130596,1,0,0:0:0:0:
320,192,130746,1,0,0:0:0:0:
320,192,130896,1,0,0:0:0:0:
320,192,131046,1,0,0:0:0:0:
320,192,131196,1,0,0:0:0:0:
320,192,131346,1,0,0:0:0:0:
320,192,131496,1,0,0:0:0:0:
192,192,131796,1,0,0:0:0:0:
448,192,131796,1,0,0:0:0:0:
320,192,131796,1,0,0:0:0:0:
448,192,132096,1,0,0:0:0:0:
320,192,132096,1,0,0:0:0:0:
192,192,132171,1,0,0:0:0:0:
64,192,132171,1,0,0:0:0:0:
320,192,132246,1,0,0:0:0:0:
448,192,132246,1,0,0:0:0:0:
320,192,132396,1,8,0:0:0:0:
448,192,132396,1,0,0:0:0:0:
64,192,132396,1,0,0:0:0:0:
192,192,132471,1,0,0:0:0:0:
320,192,132546,1,0,0:0:0:0:
192,192,132621,1,0,0:0:0:0:
320,192,132696,1,0,0:0:0:0:
192,192,132771,1,0,0:0:0:0:
320,192,132846,1,0,0:0:0:0:
192,192,132921,1,0,0:0:0:0:
64,192,132996,1,0,0:0:0:0:
320,192,132996,1,0,0:0:0:0:
192,192,133071,1,0,0:0:0:0:
64,192,133146,1,0,0:0:0:0:
192,192,133221,1,0,0:0:0:0:
64,192,133296,1,0,0:0:0:0:
192,192,133371,1,0,0:0:0:0:
64,192,133446,1,0,0:0:0:0:
320,192,133521,1,4,0:0:0:0:
448,192,133521,1,0,0:0:0:0:
192,192,133596,1,8,0:0:0:0:
64,192,133596,1,0,0:0:0:0:
448,192,133596,1,0,0:0:0:0:
320,192,133671,1,0,0:0:0:0:
64,192,133746,1,0,0:0:0:0:
192,192,133746,1,0,0:0:0:0:
320,192,133821,1,0,0:0:0:0:
64,192,133896,1,0,0:0:0:0:
448,192,133896,1,0,0:0:0:0:
192,192,133971,1,0,0:0:0:0:
320,192,134046,1,0,0:0:0:0:
448,192,134121,1,0,0:0:0:0:
192,192,134196,1,4,0:0:0:0:
320,192,134196,1,0,0:0:0:0:
448,192,134271,1,0,0:0:0:0:
320,192,134346,1,0,0:0:0:0:
448,192,134421,1,0,0:0:0:0:
320,192,134496,1,0,0:0:0:0:
448,192,134571,1,0,0:0:0:0:
320,192,134646,1,0,0:0:0:0:
448,192,134721,1,0,0:0:0:0:
320,192,134796,1,0,0:0:0:0:
64,192,134796,1,0,0:0:0:0:
192,192,134796,1,8,0:0:0:0:
448,192,134871,1,0,0:0:0:0:
320,192,134946,1,0,0:0:0:0:
192,192,135021,1,0,0:0:0:0:
320,192,135096,1,0,0:0:0:0:
192,192,135171,1,0,0:0:0:0:
320,192,135246,1,0,0:0:0:0:
192,192,135321,1,0,0:0:0:0:
320,192,135396,1,0,0:0:0:0:
64,192,135396,1,4,0:0:0:0:
192,192,135471,1,0,0:0:0:0:
64,192,135546,1,0,0:0:0:0:
192,192,135621,1,0,0:0:0:0:
64,192,135696,1,0,0:0:0:0:
192,192,135771,1,0,0:0:0:0:
64,192,135846,1,0,0:0:0:0:
320,192,135921,1,4,0:0:0:0:
448,192,135921,1,0,0:0:0:0:
192,192,135996,1,8,0:0:0:0:
64,192,135996,1,0,0:0:0:0:
448,192,135996,1,0,0:0:0:0:
320,192,136071,1,0,0:0:0:0:
64,192,136146,1,0,0:0:0:0:
192,192,136221,1,0,0:0:0:0:
320,192,136296,1,4,0:0:0:0:
448,192,136296,1,0,0:0:0:0:
192,192,136371,1,0,0:0:0:0:
64,192,136446,1,0,0:0:0:0:
448,192,136446,1,0,0:0:0:0:
320,192,136521,1,0,0:0:0:0:
192,192,136596,1,4,0:0:0:0:
64,192,136596,1,0,0:0:0:0:
448,192,136671,1,0,0:0:0:0:
320,192,136746,1,0,0:0:0:0:
192,192,136821,1,0,0:0:0:0:
320,192,136896,1,0,0:0:0:0:
448,192,136896,1,0,0:0:0:0:
192,192,136971,1,0,0:0:0:0:
320,192,137046,1,0,0:0:0:0:
192,192,137121,1,0,0:0:0:0:
64,192,137196,128,0,137346:0:0:0:0:
448,192,137196,128,0,137346:0:0:0:0:
320,192,137196,1,8,0:0:0:0:
192,192,137346,1,0,0:0:0:0:
320,192,137421,1,0,0:0:0:0:
64,192,137496,1,0,0:0:0:0:
192,192,137496,1,0,0:0:0:0:
320,192,137571,1,0,0:0:0:0:
192,192,137646,1,0,0:0:0:0:
320,192,137721,1,0,0:0:0:0:
192,192,137796,128,0,137946:0:0:0:0:
64,192,137796,128,0,137946:0:0:0:0:
448,192,137796,1,0,0:0:0:0:
320,192,137946,1,0,0:0:0:0:
448,192,138021,1,0,0:0:0:0:
192,192,138096,1,0,0:0:0:0:
64,192,138171,1,0,0:0:0:0:
448,192,138246,1,0,0:0:0:0:
192,192,138321,1,4,0:0:0:0:
64,192,138321,1,0,0:0:0:0:
448,192,138396,1,0,0:0:0:0:
320,192,138396,1,8,0:0:0:0:
64,192,138396,1,0,0:0:0:0:
192,192,138471,1,0,0:0:0:0:
64,192,138546,1,0,0:0:0:0:
320,192,138546,128,0,138696:0:0:0:0:
192,192,138696,128,0,138996:0:0:0:0:
448,192,138996,1,0,0:0:0:0:
320,192,138996,1,4,0:0:0:0:
192,192,139071,1,0,0:0:0:0:
64,192,139146,1,0,0:0:0:0:
448,192,139146,1,0,0:0:0:0:
320,192,139221,1,0,0:0:0:0:
192,192,139296,1,0,0:0:0:0:
64,192,139296,1,0,0:0:0:0:
320,192,139371,1,0,0:0:0:0:
192,192,139446,1,0,0:0:0:0:
448,192,139446,1,0,0:0:0:0:
320,192,139521,1,0,0:0:0:0:
64,192,139596,1,0,0:0:0:0:
448,192,139596,1,8,0:0:0:0:
192,192,139671,1,0,0:0:0:0:
320,192,139746,1,0,0:0:0:0:
448,192,139746,1,0,0:0:0:0:
64,192,139821,1,0,0:0:0:0:
192,192,139896,1,0,0:0:0:0:
448,192,139896,1,0,0:0:0:0:
320,192,139971,1,0,0:0:0:0:
192,192,140046,1,0,0:0:0:0:
64,192,140046,1,0,0:0:0:0:
320,192,140121,1,0,0:0:0:0:
448,192,140196,1,0,0:0:0:0:
192,192,140196,1,4,0:0:0:0:
64,192,140271,1,0,0:0:0:0:
448,192,140346,1,0,0:0:0:0:
320,192,140346,1,0,0:0:0:0:
192,192,140421,1,0,0:0:0:0:
64,192,140496,1,0,0:0:0:0:
448,192,140496,1,0,0:0:0:0:
320,192,140571,1,0,0:0:0:0:
192,192,140646,1,0,0:0:0:0:
448,192,140646,1,0,0:0:0:0:
64,192,140721,1,0,0:0:0:0:
320,192,140796,1,0,0:0:0:0:
448,192,140796,1,0,0:0:0:0:
192,192,140871,1,0,0:0:0:0:
320,192,140946,1,0,0:0:0:0:
448,192,140946,1,0,0:0:0:0:
192,192,141021,1,0,0:0:0:0:
64,192,141096,1,0,0:0:0:0:
448,192,141096,1,0,0:0:0:0:
320,192,141171,1,0,0:0:0:0:
192,192,141246,1,0,0:0:0:0:
64,192,141246,1,0,0:0:0:0:
320,192,141321,1,0,0:0:0:0:
448,192,141396,1,0,0:0:0:0:
192,192,141396,1,4,0:0:0:0:
64,192,141396,1,0,0:0:0:0:
320,192,141471,1,0,0:0:0:0:
192,192,141546,1,0,0:0:0:0:
64,192,141621,1,0,0:0:0:0:
320,192,141696,1,4,0:0:0:0:
192,192,141696,1,0,0:0:0:0:
448,192,141696,1,0,0:0:0:0:
64,192,141771,1,0,0:0:0:0:
448,192,141846,1,0,0:0:0:0:
320,192,141921,1,0,0:0:0:0:
448,192,141996,1,0,0:0:0:0:
64,192,141996,128,0,142296:0:0:0:0:
192,192,141996,1,8,0:0:0:0:
448,192,142296,1,0,0:0:0:0:
320,192,142296,1,4,0:0:0:0:
192,192,142371,1,0,0:0:0:0:
320,192,142446,1,0,0:0:0:0:
192,192,142521,1,0,0:0:0:0:
320,192,142596,1,0,0:0:0:0:
192,192,142671,1,0,0:0:0:0:
320,192,142746,1,0,0:0:0:0:
192,192,142821,1,0,0:0:0:0:
320,192,142896,1,0,0:0:0:0:
192,192,142971,1,0,0:0:0:0:
320,192,143046,1,0,0:0:0:0:
192,192,143121,1,4,0:0:0:0:
64,192,143121,1,0,0:0:0:0:
320,192,143196,1,8,0:0:0:0:
448,192,143196,1,0,0:0:0:0:
64,192,143196,1,0,0:0:0:0:
192,192,143271,1,0,0:0:0:0:
448,192,143346,1,0,0:0:0:0:
320,192,143346,1,0,0:0:0:0:
192,192,143421,1,0,0:0:0:0:
448,192,143496,1,0,0:0:0:0:
64,192,143496,1,0,0:0:0:0:
192,192,143571,1,0,0:0:0:0:
448,192,143646,1,0,0:0:0:0:
192,192,143721,1,0,0:0:0:0:
320,192,143796,1,4,0:0:0:0:
448,192,143796,1,0,0:0:0:0:
64,192,143871,1,0,0:0:0:0:
320,192,143946,1,0,0:0:0:0:
64,192,144021,1,0,0:0:0:0:
320,192,144096,1,0,0:0:0:0:
64,192,144171,1,0,0:0:0:0:
320,192,144246,1,0,0:0:0:0:
64,192,144321,1,0,0:0:0:0:
320,192,144396,1,8,0:0:0:0:
448,192,144396,1,0,0:0:0:0:
192,192,144396,1,0,0:0:0:0:
64,192,144471,1,0,0:0:0:0:
320,192,144546,1,0,0:0:0:0:
192,192,144621,1,0,0:0:0:0:
320,192,144696,1,0,0:0:0:0:
192,192,144771,1,0,0:0:0:0:
320,192,144846,1,0,0:0:0:0:
192,192,144921,1,0,0:0:0:0:
320,192,144996,1,0,0:0:0:0:
448,192,144996,1,4,0:0:0:0:
192,192,145071,1,0,0:0:0:0:
448,192,145146,1,0,0:0:0:0:
192,192,145221,1,0,0:0:0:0:
448,192,145296,1,0,0:0:0:0:
192,192,145371,1,0,0:0:0:0:
448,192,145446,1,0,0:0:0:0:
192,192,145521,1,4,0:0:0:0:
64,192,145521,1,0,0:0:0:0:
320,192,145596,1,8,0:0:0:0:
448,192,145596,1,0,0:0:0:0:
64,192,145596,1,0,0:0:0:0:
192,192,145671,1,0,0:0:0:0:
448,192,145746,1,0,0:0:0:0:
320,192,145746,1,0,0:0:0:0:
192,192,145821,1,0,0:0:0:0:
64,192,145896,1,0,0:0:0:0:
320,192,145896,1,4,0:0:0:0:
448,192,145971,1,0,0:0:0:0:
192,192,146046,1,0,0:0:0:0:
320,192,146121,1,0,0:0:0:0:
64,192,146196,128,0,146496:0:0:0:0:
448,192,146196,1,0,0:0:0:0:
192,192,146196,1,4,0:0:0:0:
320,192,146496,1,4,0:0:0:0:
192,192,146496,1,0,0:0:0:0:
448,192,146496,128,0,146796:0:0:0:0:
64,192,146796,128,0,147096:0:0:0:0:
192,192,146796,128,0,147096:0:0:0:0:
320,192,146796,1,8,0:0:0:0:
448,192,147096,1,0,0:0:0:0:
320,192,147096,1,4,0:0:0:0:
64,192,147171,1,0,0:0:0:0:
192,192,147246,1,0,0:0:0:0:
320,192,147321,1,0,0:0:0:0:
64,192,147396,128,0,147546:0:0:0:0:
448,192,147396,128,0,147546:0:0:0:0:
192,192,147396,1,0,0:0:0:0:
320,192,147546,1,0,0:0:0:0:
192,192,147621,1,0,0:0:0:0:
320,192,147696,1,0,0:0:0:0:
64,192,147771,1,0,0:0:0:0:
192,192,147846,1,0,0:0:0:0:
320,192,147921,1,4,0:0:0:0:
448,192,147921,1,0,0:0:0:0:
64,192,147996,1,8,0:0:0:0:
320,192,147996,1,0,0:0:0:0:
192,192,148071,1,0,0:0:0:0:
320,192,148146,128,0,148296:0:0:0:0:
192,192,148296,128,0,148596:0:0:0:0:
448,192,148596,1,0,0:0:0:0:
320,192,148596,1,4,0:0:0:0:
192,192,148671,1,0,0:0:0:0:
320,192,148746,1,0,0:0:0:0:
448,192,148746,1,0,0:0:0:0:
192,192,148821,1,8,0:0:0:0:
64,192,148821,1,0,0:0:0:0:
448,192,148896,1,0,0:0:0:0:
320,192,148971,1,0,0:0:0:0:
192,192,149046,1,4,0:0:0:0:
448,192,149046,1,0,0:0:0:0:
64,192,149121,1,0,0:0:0:0:
320,192,149196,1,0,0:0:0:0:
448,192,149196,1,0,0:0:0:0:
192,192,149271,1,8,0:0:0:0:
64,192,149271,1,0,0:0:0:0:
320,192,149346,1,0,0:0:0:0:
192,192,149421,1,0,0:0:0:0:
448,192,149496,1,4,0:0:0:0:
320,192,149533,1,0,0:0:0:0:
192,192,149571,1,0,0:0:0:0:
64,192,149608,1,0,0:0:0:0:
448,192,149646,1,0,0:0:0:0:
320,192,149683,1,0,0:0:0:0:
192,192,149721,1,8,0:0:0:0:
64,192,149758,1,0,0:0:0:0:
320,192,149796,1,0,0:0:0:0:
448,192,149833,1,0,0:0:0:0:
64,192,149871,1,0,0:0:0:0:
192,192,149908,1,0,0:0:0:0:
320,192,149946,1,4,0:0:0:0:
448,192,149983,1,0,0:0:0:0:
64,192,150021,1,0,0:0:0:0:
192,192,150058,1,0,0:0:0:0:
320,192,150096,1,8,0:0:0:0:
448,192,150096,1,0,0:0:0:0:
192,192,150171,1,8,0:0:0:0:
64,192,150171,1,0,0:0:0:0:
320,192,150246,1,8,0:0:0:0:
448,192,150246,1,0,0:0:0:0:
192,192,150321,1,8,0:0:0:0:
64,192,150321,1,0,0:0:0:0:
320,192,150396,1,4,0:0:0:0:
64,192,150471,1,0,0:0:0:0:
192,192,150546,1,0,0:0:0:0:
320,192,150621,1,0,0:0:0:0:
448,192,150696,1,0,0:0:0:0:
192,192,150846,1,0,0:0:0:0:
64,192,150846,1,0,0:0:0:0:
320,192,150996,1,4,0:0:0:0:
448,192,150996,1,0,0:0:0:0:
64,192,150996,1,0,0:0:0:0:
320,192,158496,5,0,0:0:0:0:
192,192,158571,1,0,0:0:0:0:
320,192,158646,1,0,0:0:0:0:
192,192,158721,1,0,0:0:0:0:
320,192,158796,1,0,0:0:0:0:
192,192,158871,1,0,0:0:0:0:
320,192,158946,1,0,0:0:0:0:
192,192,159021,1,0,0:0:0:0:
320,192,159096,1,0,0:0:0:0:
448,192,159096,1,0,0:0:0:0:
192,192,159171,1,0,0:0:0:0:
64,192,159171,1,0,0:0:0:0:
320,192,159246,1,0,0:0:0:0:
448,192,159246,1,0,0:0:0:0:
192,192,159321,1,0,0:0:0:0:
64,192,159321,1,0,0:0:0:0:
320,192,159396,1,0,0:0:0:0:
448,192,159396,1,0,0:0:0:0:
64,192,160596,1,0,0:0:0:0:
192,192,160596,1,0,0:0:0:0:
320,192,160596,1,0,0:0:0:0:
448,192,160746,1,0,0:0:0:0:
320,192,160821,1,0,0:0:0:0:
192,192,160896,1,0,0:0:0:0:
64,192,160896,1,0,0:0:0:0:
448,192,160896,1,0,0:0:0:0:
320,192,161046,1,0,0:0:0:0:
192,192,161121,1,0,0:0:0:0:
448,192,161196,1,0,0:0:0:0:
320,192,161196,1,0,0:0:0:0:
64,192,161346,1,0,0:0:0:0:
192,192,161346,1,0,0:0:0:0:
320,192,161421,1,0,0:0:0:0:
64,192,161496,1,0,0:0:0:0:
448,192,161496,1,0,0:0:0:0:
192,192,161496,1,0,0:0:0:0:
320,192,161646,1,0,0:0:0:0:
448,192,161721,1,0,0:0:0:0:
64,192,161796,1,0,0:0:0:0:
192,192,161796,1,0,0:0:0:0:
448,192,161946,1,0,0:0:0:0:
320,192,161946,1,0,0:0:0:0:
192,192,162021,1,0,0:0:0:0:
64,192,162096,1,0,0:0:0:0:
448,192,162096,1,0,0:0:0:0:
320,192,162096,1,0,0:0:0:0:
192,192,162246,1,0,0:0:0:0:
64,192,162321,1,0,0:0:0:0:
320,192,162396,1,0,0:0:0:0:
448,192,162396,1,0,0:0:0:0:
64,192,162546,1,0,0:0:0:0:
192,192,162621,1,0,0:0:0:0:
448,192,162696,1,0,0:0:0:0:
320,192,162696,1,0,0:0:0:0:
192,192,162771,1,0,0:0:0:0:
64,192,162771,1,0,0:0:0:0:
320,192,162846,1,0,0:0:0:0:
448,192,162846,1,0,0:0:0:0:
192,192,162921,1,0,0:0:0:0:
64,192,162921,1,0,0:0:0:0:
448,192,162996,1,0,0:0:0:0:
320,192,162996,1,0,0:0:0:0:
192,192,163146,1,0,0:0:0:0:
320,192,163221,1,0,0:0:0:0:
448,192,163296,1,0,0:0:0:0:
64,192,163296,1,0,0:0:0:0:
192,192,163296,1,0,0:0:0:0:
320,192,163446,1,0,0:0:0:0:
192,192,163521,1,0,0:0:0:0:
448,192,163596,1,0,0:0:0:0:
320,192,163596,1,0,0:0:0:0:
64,192,163746,1,0,0:0:0:0:
192,192,163746,1,0,0:0:0:0:
320,192,163821,1,0,0:0:0:0:
64,192,163896,1,0,0:0:0:0:
448,192,163896,1,0,0:0:0:0:
192,192,163896,1,0,0:0:0:0:
320,192,164046,1,0,0:0:0:0:
448,192,164121,1,0,0:0:0:0:
64,192,164196,1,0,0:0:0:0:
192,192,164196,1,0,0:0:0:0:
320,192,164346,1,0,0:0:0:0:
448,192,164346,1,0,0:0:0:0:
192,192,164421,1,0,0:0:0:0:
448,192,164496,1,0,0:0:0:0:
64,192,164496,1,0,0:0:0:0:
320,192,164496,1,0,0:0:0:0:
192,192,164646,1,0,0:0:0:0:
320,192,164721,1,0,0:0:0:0:
448,192,164796,1,0,0:0:0:0:
64,192,164796,1,0,0:0:0:0:
320,192,164946,1,0,0:0:0:0:
448,192,165021,1,0,0:0:0:0:
192,192,165096,1,0,0:0:0:0:
64,192,165096,1,0,0:0:0:0:
320,192,165171,1,0,0:0:0:0:
448,192,165171,1,0,0:0:0:0:
192,192,165246,1,0,0:0:0:0:
64,192,165246,1,0,0:0:0:0:
320,192,165321,1,0,0:0:0:0:
448,192,165321,1,0,0:0:0:0:
192,192,165396,1,0,0:0:0:0:
64,192,165396,1,0,0:0:0:0:
448,192,165546,1,0,0:0:0:0:
320,192,165621,1,0,0:0:0:0:
64,192,165696,1,0,0:0:0:0:
192,192,165696,1,0,0:0:0:0:
448,192,165696,1,0,0:0:0:0:
320,192,165846,1,0,0:0:0:0:
192,192,165921,1,0,0:0:0:0:
448,192,165996,1,0,0:0:0:0:
320,192,165996,1,0,0:0:0:0:
64,192,166146,1,0,0:0:0:0:
192,192,166146,1,0,0:0:0:0:
320,192,166221,1,0,0:0:0:0:
448,192,166296,1,0,0:0:0:0:
64,192,166296,1,0,0:0:0:0:
192,192,166296,1,0,0:0:0:0:
320,192,166446,1,0,0:0:0:0:
448,192,166521,1,0,0:0:0:0:
192,192,166596,1,0,0:0:0:0:
64,192,166596,1,0,0:0:0:0:
448,192,166746,1,0,0:0:0:0:
320,192,166746,1,0,0:0:0:0:
192,192,166821,1,0,0:0:0:0:
448,192,166896,1,0,0:0:0:0:
64,192,166896,1,0,0:0:0:0:
320,192,166896,1,0,0:0:0:0:
192,192,167046,1,0,0:0:0:0:
64,192,167121,1,0,0:0:0:0:
448,192,167196,1,0,0:0:0:0:
320,192,167196,1,0,0:0:0:0:
64,192,167346,1,0,0:0:0:0:
192,192,167421,1,0,0:0:0:0:
448,192,167496,1,0,0:0:0:0:
320,192,167496,1,0,0:0:0:0:
192,192,167571,1,0,0:0:0:0:
64,192,167571,1,0,0:0:0:0:
320,192,167646,1,0,0:0:0:0:
448,192,167646,1,0,0:0:0:0:
64,192,167721,1,0,0:0:0:0:
192,192,167721,1,0,0:0:0:0:
320,192,167796,1,0,0:0:0:0:
448,192,167796,1,0,0:0:0:0:
192,192,167946,1,0,0:0:0:0:
320,192,168021,1,0,0:0:0:0:
64,192,168096,1,0,0:0:0:0:
448,192,168096,1,0,0:0:0:0:
192,192,168096,1,0,0:0:0:0:
320,192,168246,1,0,0:0:0:0:
192,192,168321,1,0,0:0:0:0:
448,192,168396,1,0,0:0:0:0:
320,192,168396,1,0,0:0:0:0:
64,192,168546,1,0,0:0:0:0:
192,192,168546,1,0,0:0:0:0:
320,192,168621,1,0,0:0:0:0:
448,192,168696,1,0,0:0:0:0:
64,192,168696,1,0,0:0:0:0:
192,192,168696,1,0,0:0:0:0:
320,192,168846,1,0,0:0:0:0:
448,192,168921,1,0,0:0:0:0:
64,192,168996,1,0,0:0:0:0:
192,192,168996,1,0,0:0:0:0:
320,192,169146,1,0,0:0:0:0:
448,192,169146,1,0,0:0:0:0:
192,192,169221,1,0,0:0:0:0:
448,192,169296,1,0,0:0:0:0:
320,192,169296,1,0,0:0:0:0:
192,192,169371,1,0,0:0:0:0:
64,192,169371,1,0,0:0:0:0:
320,192,169446,1,0,0:0:0:0:
448,192,169446,1,0,0:0:0:0:
192,192,169521,1,0,0:0:0:0:
64,192,169521,1,0,0:0:0:0:
320,192,169596,1,0,0:0:0:0:
448,192,169596,1,0,0:0:0:0:
192,192,169746,1,0,0:0:0:0:
320,192,169821,1,0,0:0:0:0:
192,192,169896,1,0,0:0:0:0:
64,192,169896,1,0,0:0:0:0:
320,192,169971,1,0,0:0:0:0:
448,192,169971,1,0,0:0:0:0:
192,192,170046,1,0,0:0:0:0:
64,192,170046,1,0,0:0:0:0:
448,192,170121,1,0,0:0:0:0:
320,192,170121,1,0,0:0:0:0:
192,192,170196,1,0,0:0:0:0:
64,192,170196,1,0,0:0:0:0:
448,192,170271,1,0,0:0:0:0:
320,192,170346,1,0,0:0:0:0:
64,192,170346,1,0,0:0:0:0:
192,192,170421,1,0,0:0:0:0:
64,192,170496,1,0,0:0:0:0:
448,192,170496,1,0,0:0:0:0:
320,192,170571,1,0,0:0:0:0:
192,192,170646,1,0,0:0:0:0:
448,192,170646,1,0,0:0:0:0:
64,192,170721,1,0,0:0:0:0:
448,192,170796,1,0,0:0:0:0:
320,192,170796,1,0,0:0:0:0:
192,192,170871,1,0,0:0:0:0:
64,192,170946,1,0,0:0:0:0:
320,192,170946,1,0,0:0:0:0:
448,192,171021,1,0,0:0:0:0:
320,192,171096,1,0,0:0:0:0:
192,192,171096,1,0,0:0:0:0:
64,192,171171,1,0,0:0:0:0:
448,192,171246,1,0,0:0:0:0:
192,192,171246,1,0,0:0:0:0:
320,192,171321,1,0,0:0:0:0:
192,192,171396,1,0,0:0:0:0:
64,192,171396,1,0,0:0:0:0:
448,192,171471,1,0,0:0:0:0:
320,192,171546,1,0,0:0:0:0:
64,192,171546,1,0,0:0:0:0:
192,192,171621,1,0,0:0:0:0:
64,192,171696,1,0,0:0:0:0:
448,192,171696,1,0,0:0:0:0:
320,192,171771,1,0,0:0:0:0:
192,192,171846,1,0,0:0:0:0:
448,192,171846,1,0,0:0:0:0:
64,192,171921,1,0,0:0:0:0:
448,192,171996,1,0,0:0:0:0:
320,192,171996,1,0,0:0:0:0:
192,192,172071,1,0,0:0:0:0:
64,192,172146,1,0,0:0:0:0:
320,192,172146,1,0,0:0:0:0:
448,192,172221,1,0,0:0:0:0:
320,192,172296,1,0,0:0:0:0:
192,192,172296,1,0,0:0:0:0:
64,192,172296,1,0,0:0:0:0:
64,192,172596,1,0,0:0:0:0:
192,192,172596,1,0,0:0:0:0:
448,192,172596,1,0,0:0:0:0:
320,192,172671,1,0,0:0:0:0:
448,192,172746,1,0,0:0:0:0:
192,192,172746,1,0,0:0:0:0:
64,192,172821,1,0,0:0:0:0:
320,192,172896,1,0,0:0:0:0:
192,192,172896,1,0,0:0:0:0:
448,192,172971,1,0,0:0:0:0:
64,192,173046,1,0,0:0:0:0:
320,192,173046,1,0,0:0:0:0:
192,192,173121,1,0,0:0:0:0:
320,192,173196,1,0,0:0:0:0:
448,192,173196,1,0,0:0:0:0:
64,192,173271,1,0,0:0:0:0:
192,192,173346,1,0,0:0:0:0:
448,192,173346,1,0,0:0:0:0:
320,192,173421,1,0,0:0:0:0:
64,192,173496,1,0,0:0:0:0:
448,192,173496,1,0,0:0:0:0:
192,192,173571,1,0,0:0:0:0:
320,192,173646,1,0,0:0:0:0:
64,192,173646,1,0,0:0:0:0:
448,192,173721,1,0,0:0:0:0:
64,192,173796,1,0,0:0:0:0:
192,192,173796,1,0,0:0:0:0:
320,192,173871,1,0,0:0:0:0:
448,192,173946,1,0,0:0:0:0:
192,192,173946,1,0,0:0:0:0:
64,192,174021,1,0,0:0:0:0:
320,192,174096,1,0,0:0:0:0:
192,192,174096,1,0,0:0:0:0:
448,192,174171,1,0,0:0:0:0:
64,192,174246,1,0,0:0:0:0:
320,192,174246,1,0,0:0:0:0:
192,192,174321,1,0,0:0:0:0:
320,192,174396,1,0,0:0:0:0:
448,192,174396,1,0,0:0:0:0:
64,192,174471,1,0,0:0:0:0:
192,192,174546,1,0,0:0:0:0:
448,192,174546,1,0,0:0:0:0:
320,192,174621,1,0,0:0:0:0:
448,192,174696,1,0,0:0:0:0:
64,192,174696,1,0,0:0:0:0:
192,192,174696,1,0,0:0:0:0:
448,192,174996,1,0,0:0:0:0:
320,192,174996,1,0,0:0:0:0:
192,192,175071,1,0,0:0:0:0:
64,192,175071,1,0,0:0:0:0:
448,192,175146,1,0,0:0:0:0:
320,192,175146,1,0,0:0:0:0:
192,192,175221,1,0,0:0:0:0:
64,192,175221,1,0,0:0:0:0:
448,192,175296,1,0,0:0:0:0:
320,192,175296,1,0,0:0:0:0:
64,192,175371,1,0,0:0:0:0:
192,192,175371,1,0,0:0:0:0:
448,192,175446,1,0,0:0:0:0:
320,192,175446,1,0,0:0:0:0:
64,192,175521,1,0,0:0:0:0:
192,192,175521,1,0,0:0:0:0:
448,192,175596,1,0,0:0:0:0:
320,192,175596,1,0,0:0:0:0:
64,192,175671,1,0,0:0:0:0:
192,192,175671,1,0,0:0:0:0:
448,192,175746,1,0,0:0:0:0:
320,192,175746,1,0,0:0:0:0:
64,192,175821,1,0,0:0:0:0:
192,192,175821,1,0,0:0:0:0:
320,192,175896,1,0,0:0:0:0:
448,192,175896,1,0,0:0:0:0:
192,192,176196,1,0,0:0:0:0:
64,192,176196,1,0,0:0:0:0:
320,192,176271,1,0,0:0:0:0:
448,192,176271,1,0,0:0:0:0:
64,192,176346,1,0,0:0:0:0:
192,192,176346,1,0,0:0:0:0:
448,192,176421,1,0,0:0:0:0:
320,192,176421,1,0,0:0:0:0:
64,192,176496,1,0,0:0:0:0:
192,192,176496,1,0,0:0:0:0:
448,192,176571,1,0,0:0:0:0:
320,192,176571,1,0,0:0:0:0:
192,192,176646,1,0,0:0:0:0:
64,192,176646,1,0,0:0:0:0:
320,192,176721,1,0,0:0:0:0:
448,192,176721,1,0,0:0:0:0:
192,192,176796,1,0,0:0:0:0:
64,192,176796,1,0,0:0:0:0:
320,192,176871,1,0,0:0:0:0:
448,192,176871,1,0,0:0:0:0:
64,192,176946,1,0,0:0:0:0:
192,192,176946,1,0,0:0:0:0:
448,192,177021,1,0,0:0:0:0:
320,192,177021,1,0,0:0:0:0:
64,192,177096,1,0,0:0:0:0:
192,192,177096,1,0,0:0:0:0:
448,192,177396,1,0,0:0:0:0:
320,192,177433,1,0,0:0:0:0:
192,192,177471,1,0,0:0:0:0:
64,192,177508,1,0,0:0:0:0:
448,192,177546,1,0,0:0:0:0:
320,192,177546,1,0,0:0:0:0:
192,192,177621,1,0,0:0:0:0:
64,192,177621,1,0,0:0:0:0:
320,192,177696,1,0,0:0:0:0:
448,192,177696,1,0,0:0:0:0:
64,192,177771,1,0,0:0:0:0:
192,192,177771,1,0,0:0:0:0:
448,192,177846,1,0,0:0:0:0:
320,192,177846,1,0,0:0:0:0:
64,192,177921,1,0,0:0:0:0:
192,192,177921,1,0,0:0:0:0:
448,192,177996,1,0,0:0:0:0:
320,192,178033,1,0,0:0:0:0:
192,192,178071,1,0,0:0:0:0:
64,192,178108,1,0,0:0:0:0:
448,192,178146,1,0,0:0:0:0:
320,192,178146,1,0,0:0:0:0:
64,192,178221,1,0,0:0:0:0:
192,192,178221,1,0,0:0:0:0:
448,192,178296,1,0,0:0:0:0:
320,192,178296,1,0,0:0:0:0:
192,192,178371,1,0,0:0:0:0:
64,192,178371,1,0,0:0:0:0:
320,192,178446,1,0,0:0:0:0:
448,192,178446,1,0,0:0:0:0:
64,192,178521,1,0,0:0:0:0:
192,192,178521,1,0,0:0:0:0:
448,192,178596,1,0,0:0:0:0:
320,192,178633,1,0,0:0:0:0:
64,192,178671,1,0,0:0:0:0:
192,192,178708,1,0,0:0:0:0:
448,192,178746,1,0,0:0:0:0:
320,192,178783,1,0,0:0:0:0:
64,192,178821,1,0,0:0:0:0:
192,192,178858,1,0,0:0:0:0:
448,192,178896,1,0,0:0:0:0:
320,192,178933,1,0,0:0:0:0:
64,192,178971,1,0,0:0:0:0:
192,192,179008,1,0,0:0:0:0:
448,192,179046,1,0,0:0:0:0:
320,192,179083,1,0,0:0:0:0:
64,192,179121,1,0,0:0:0:0:
192,192,179158,1,0,0:0:0:0:
448,192,179196,1,0,0:0:0:0:
320,192,179221,1,0,0:0:0:0:
64,192,179246,1,0,0:0:0:0:
192,192,179271,1,0,0:0:0:0:
448,192,179296,1,0,0:0:0:0:
320,192,179321,1,0,0:0:0:0:
64,192,179346,1,0,0:0:0:0:
192,192,179371,1,0,0:0:0:0:
448,192,179396,1,0,0:0:0:0:
320,192,179421,1,0,0:0:0:0:
64,192,179446,1,0,0:0:0:0:
192,192,179471,1,0,0:0:0:0:
448,192,179496,1,0,0:0:0:0:
320,192,179521,1,0,0:0:0:0:
64,192,179546,1,0,0:0:0:0:
192,192,179571,1,0,0:0:0:0:
448,192,179596,1,0,0:0:0:0:
320,192,179621,1,0,0:0:0:0:
64,192,179646,1,0,0:0:0:0:
192,192,179671,1,0,0:0:0:0:
448,192,179696,1,0,0:0:0:0:
320,192,179721,1,0,0:0:0:0:
64,192,179746,1,0,0:0:0:0:
192,192,179771,1,0,0:0:0:0:
448,192,179796,1,0,0:0:0:0:
320,192,179796,1,0,0:0:0:0:
448,192,179946,1,0,0:0:0:0:
320,192,180096,1,0,0:0:0:0:
320,192,180246,1,0,0:0:0:0:
192,192,180396,1,0,0:0:0:0:
192,192,180546,1,0,0:0:0:0:
64,192,180696,1,0,0:0:0:0:
64,192,180846,1,0,0:0:0:0:
192,192,180996,1,0,0:0:0:0:
192,192,181146,1,0,0:0:0:0:
320,192,181296,1,0,0:0:0:0:
320,192,181446,1,0,0:0:0:0:
448,192,181596,1,0,0:0:0:0:
192,192,181596,1,0,0:0:0:0:
192,192,181746,1,0,0:0:0:0:
448,192,181746,1,0,0:0:0:0:
64,192,181896,1,0,0:0:0:0:
192,192,181896,1,0,0:0:0:0:
320,192,181896,1,0,0:0:0:0:
448,192,182196,5,0,0:0:0:0:
64,192,182196,1,0,0:0:0:0:
192,192,182196,1,4,0:0:0:0:
320,192,182271,1,0,0:0:0:0:
192,192,182346,1,0,0:0:0:0:
64,192,182421,1,0,0:0:0:0:
320,192,182496,1,4,0:0:0:0:
448,192,182496,1,0,0:0:0:0:
192,192,182571,1,0,0:0:0:0:
320,192,182646,1,0,0:0:0:0:
192,192,182721,1,0,0:0:0:0:
64,192,182796,1,0,0:0:0:0:
448,192,182796,1,4,0:0:0:0:
320,192,182871,1,0,0:0:0:0:
64,192,182946,1,0,0:0:0:0:
64,192,183021,1,0,0:0:0:0:
320,192,183096,1,4,0:0:0:0:
448,192,183096,1,0,0:0:0:0:
192,192,183171,1,0,0:0:0:0:
320,192,183246,1,0,0:0:0:0:
192,192,183321,1,0,0:0:0:0:
64,192,183396,1,0,0:0:0:0:
448,192,183396,1,4,0:0:0:0:
320,192,183471,1,0,0:0:0:0:
192,192,183546,1,0,0:0:0:0:
192,192,183621,1,0,0:0:0:0:
64,192,183696,1,0,0:0:0:0:
448,192,183696,1,4,0:0:0:0:
320,192,183771,1,0,0:0:0:0:
192,192,183846,1,0,0:0:0:0:
448,192,183921,1,0,0:0:0:0:
192,192,183996,1,4,0:0:0:0:
320,192,183996,1,0,0:0:0:0:
64,192,184071,1,0,0:0:0:0:
320,192,184146,128,0,184296:0:0:0:0:
192,192,184296,128,4,184596:0:0:0:0:
448,192,184596,1,4,0:0:0:0:
320,192,184671,1,0,0:0:0:0:
192,192,184746,1,0,0:0:0:0:
320,192,184821,1,0,0:0:0:0:
64,192,184896,1,0,0:0:0:0:
192,192,184896,1,4,0:0:0:0:
320,192,184971,1,0,0:0:0:0:
192,192,185046,1,0,0:0:0:0:
320,192,185121,1,0,0:0:0:0:
448,192,185196,1,4,0:0:0:0:
64,192,185196,1,0,0:0:0:0:
192,192,185271,1,0,0:0:0:0:
320,192,185346,1,0,0:0:0:0:
320,192,185421,1,0,0:0:0:0:
192,192,185496,1,4,0:0:0:0:
64,192,185496,1,0,0:0:0:0:
448,192,185571,1,0,0:0:0:0:
192,192,185646,1,0,0:0:0:0:
320,192,185721,1,0,0:0:0:0:
448,192,185796,1,4,0:0:0:0:
64,192,185796,1,0,0:0:0:0:
192,192,185871,1,0,0:0:0:0:
320,192,185946,1,0,0:0:0:0:
448,192,186021,1,0,0:0:0:0:
64,192,186096,1,0,0:0:0:0:
320,192,186096,1,4,0:0:0:0:
192,192,186171,1,0,0:0:0:0:
320,192,186246,1,0,0:0:0:0:
448,192,186321,1,0,0:0:0:0:
64,192,186396,128,0,186546:0:0:0:0:
320,192,186396,1,4,0:0:0:0:
192,192,186546,1,0,0:0:0:0:
448,192,186696,128,0,186846:0:0:0:0:
64,192,186696,1,4,0:0:0:0:
320,192,186846,1,0,0:0:0:0:
192,192,186996,128,0,187296:0:0:0:0:
64,192,186996,128,0,187296:0:0:0:0:
448,192,186996,1,4,0:0:0:0:
448,192,187296,1,4,0:0:0:0:
192,192,187371,1,0,0:0:0:0:
320,192,187446,1,0,0:0:0:0:
192,192,187521,1,0,0:0:0:0:
64,192,187596,1,0,0:0:0:0:
320,192,187596,1,4,0:0:0:0:
448,192,187671,1,0,0:0:0:0:
192,192,187746,1,0,0:0:0:0:
192,192,187821,1,0,0:0:0:0:
320,192,187896,1,4,0:0:0:0:
448,192,187896,1,0,0:0:0:0:
64,192,187971,1,0,0:0:0:0:
192,192,188046,1,0,0:0:0:0:
320,192,188121,1,0,0:0:0:0:
448,192,188196,1,0,0:0:0:0:
64,192,188196,1,4,0:0:0:0:
192,192,188271,1,0,0:0:0:0:
320,192,188346,1,0,0:0:0:0:
320,192,188421,1,0,0:0:0:0:
64,192,188496,1,0,0:0:0:0:
192,192,188496,1,4,0:0:0:0:
448,192,188571,1,0,0:0:0:0:
192,192,188646,1,0,0:0:0:0:
64,192,188721,1,0,0:0:0:0:
320,192,188796,1,4,0:0:0:0:
448,192,188796,1,0,0:0:0:0:
192,192,188871,1,0,0:0:0:0:
64,192,188946,1,0,0:0:0:0:
320,192,188946,128,0,189096:0:0:0:0:
192,192,189096,128,4,189396:0:0:0:0:
448,192,189396,1,0,0:0:0:0:
320,192,189396,1,4,0:0:0:0:
192,192,189621,1,4,0:0:0:0:
64,192,189621,1,0,0:0:0:0:
192,192,189696,1,4,0:0:0:0:
64,192,189696,1,0,0:0:0:0:
448,192,189846,1,0,0:0:0:0:
320,192,189846,1,0,0:0:0:0:
448,192,189921,1,0,0:0:0:0:
320,192,189921,1,0,0:0:0:0:
192,192,189996,1,4,0:0:0:0:
64,192,189996,1,0,0:0:0:0:
320,192,190071,1,0,0:0:0:0:
448,192,190146,1,0,0:0:0:0:
320,192,190221,1,0,0:0:0:0:
64,192,190296,128,0,190596:0:0:0:0:
192,192,190296,128,4,190596:0:0:0:0:
320,192,190596,1,4,0:0:0:0:
448,192,190596,1,0,0:0:0:0:
192,192,190821,1,0,0:0:0:0:
320,192,190821,1,0,0:0:0:0:
192,192,190896,1,0,0:0:0:0:
320,192,190896,1,4,0:0:0:0:
320,192,191046,1,0,0:0:0:0:
448,192,191046,1,0,0:0:0:0:
320,192,191121,1,0,0:0:0:0:
448,192,191121,1,0,0:0:0:0:
192,192,191196,1,4,0:0:0:0:
64,192,191196,1,0,0:0:0:0:
320,192,191271,1,0,0:0:0:0:
448,192,191271,1,0,0:0:0:0:
192,192,191346,1,0,0:0:0:0:
64,192,191346,1,0,0:0:0:0:
320,192,191421,1,0,0:0:0:0:
448,192,191421,1,0,0:0:0:0:
320,192,191496,1,4,0:0:0:0:
448,192,191496,1,0,0:0:0:0:
192,192,191571,1,0,0:0:0:0:
64,192,191646,1,0,0:0:0:0:
320,192,191721,1,0,0:0:0:0:
192,192,191796,128,4,192096:0:0:0:0:
64,192,191796,128,0,192096:0:0:0:0:
320,192,192096,1,4,0:0:0:0:
448,192,192096,1,0,0:0:0:0:
192,192,192171,1,0,0:0:0:0:
320,192,192246,1,0,0:0:0:0:
192,192,192321,1,0,0:0:0:0:
64,192,192396,1,0,0:0:0:0:
448,192,192396,1,4,0:0:0:0:
320,192,192471,1,0,0:0:0:0:
192,192,192546,1,0,0:0:0:0:
192,192,192621,1,0,0:0:0:0:
320,192,192696,1,4,0:0:0:0:
448,192,192696,1,0,0:0:0:0:
64,192,192771,1,0,0:0:0:0:
320,192,192846,1,0,0:0:0:0:
320,192,192921,1,0,0:0:0:0:
64,192,192996,1,0,0:0:0:0:
192,192,192996,1,4,0:0:0:0:
320,192,193071,1,0,0:0:0:0:
448,192,193146,1,0,0:0:0:0:
192,192,193221,1,0,0:0:0:0:
64,192,193296,1,0,0:0:0:0:
192,192,193296,1,4,0:0:0:0:
320,192,193371,1,0,0:0:0:0:
448,192,193446,1,0,0:0:0:0:
64,192,193521,1,0,0:0:0:0:
192,192,193596,1,0,0:0:0:0:
320,192,193596,1,4,0:0:0:0:
448,192,193671,1,0,0:0:0:0:
64,192,193746,1,0,0:0:0:0:
192,192,193746,1,0,0:0:0:0:
320,192,193821,1,0,0:0:0:0:
192,192,193896,1,4,0:0:0:0:
64,192,193896,1,0,0:0:0:0:
448,192,193971,1,0,0:0:0:0:
320,192,194046,1,0,0:0:0:0:
192,192,194121,1,0,0:0:0:0:
64,192,194196,1,0,0:0:0:0:
448,192,194196,1,4,0:0:0:0:
320,192,194271,1,0,0:0:0:0:
192,192,194346,1,0,0:0:0:0:
64,192,194421,1,0,0:0:0:0:
448,192,194496,1,0,0:0:0:0:
320,192,194496,1,4,0:0:0:0:
192,192,194571,1,0,0:0:0:0:
320,192,194646,1,0,0:0:0:0:
192,192,194721,1,0,0:0:0:0:
320,192,194796,1,4,0:0:0:0:
448,192,194796,1,0,0:0:0:0:
64,192,194871,1,0,0:0:0:0:
448,192,194946,1,0,0:0:0:0:
192,192,194946,1,4,0:0:0:0:
320,192,195021,1,0,0:0:0:0:
192,192,195096,1,4,0:0:0:0:
64,192,195096,1,0,0:0:0:0:
320,192,195171,1,0,0:0:0:0:
192,192,195246,1,4,0:0:0:0:
64,192,195246,1,0,0:0:0:0:
320,192,195321,1,4,0:0:0:0:
448,192,195321,1,0,0:0:0:0:
192,192,195396,1,4,0:0:0:0:
64,192,195396,1,0,0:0:0:0:
320,192,195546,1,4,0:0:0:0:
448,192,195546,1,0,0:0:0:0:
448,192,195696,1,0,0:0:0:0:
192,192,195696,1,8,0:0:0:0:
64,192,195696,1,0,0:0:0:0:
320,192,195921,1,4,0:0:0:0:
448,192,195921,1,0,0:0:0:0:
192,192,196146,1,4,0:0:0:0:
64,192,196146,1,0,0:0:0:0:
64,192,196296,1,0,0:0:0:0:
320,192,196296,1,8,0:0:0:0:
448,192,196296,1,0,0:0:0:0:
448,192,196596,1,0,0:0:0:0:
320,192,196596,1,4,0:0:0:0:
64,192,196596,1,0,0:0:0:0:
320,192,196896,1,0,0:0:0:0:
192,192,196971,1,0,0:0:0:0:
320,192,197046,1,0,0:0:0:0:
192,192,197121,1,0,0:0:0:0:
448,192,197196,1,8,0:0:0:0:
64,192,197196,1,0,0:0:0:0:
320,192,197271,1,0,0:0:0:0:
192,192,197346,1,0,0:0:0:0:
64,192,197421,1,0,0:0:0:0:
320,192,197496,1,0,0:0:0:0:
192,192,197571,1,0,0:0:0:0:
320,192,197646,1,0,0:0:0:0:
192,192,197721,1,0,0:0:0:0:
448,192,197796,1,0,0:0:0:0:
320,192,197796,1,4,0:0:0:0:
64,192,197871,1,0,0:0:0:0:
192,192,197946,1,0,0:0:0:0:
320,192,198021,1,0,0:0:0:0:
448,192,198096,1,0,0:0:0:0:
64,192,198096,1,4,0:0:0:0:
192,192,198171,1,0,0:0:0:0:
320,192,198246,1,0,0:0:0:0:
192,192,198321,1,4,0:0:0:0:
64,192,198321,1,0,0:0:0:0:
320,192,198396,1,8,0:0:0:0:
448,192,198396,1,0,0:0:0:0:
192,192,198546,128,0,198696:0:0:0:0:
320,192,198696,128,0,198996:0:0:0:0:
64,192,198996,1,4,0:0:0:0:
192,192,199071,1,0,0:0:0:0:
448,192,199146,1,0,0:0:0:0:
320,192,199146,1,0,0:0:0:0:
64,192,199221,1,0,0:0:0:0:
192,192,199221,1,4,0:0:0:0:
320,192,199296,1,0,0:0:0:0:
192,192,199371,1,0,0:0:0:0:
448,192,199446,1,0,0:0:0:0:
320,192,199446,1,4,0:0:0:0:
192,192,199521,1,0,0:0:0:0:
320,192,199596,1,0,0:0:0:0:
192,192,199671,1,4,0:0:0:0:
64,192,199671,1,0,0:0:0:0:
320,192,199746,1,0,0:0:0:0:
448,192,199746,1,0,0:0:0:0:
64,192,199821,1,0,0:0:0:0:
320,192,199896,1,4,0:0:0:0:
448,192,199896,1,0,0:0:0:0:
192,192,199971,1,0,0:0:0:0:
320,192,200046,1,0,0:0:0:0:
192,192,200121,1,4,0:0:0:0:
64,192,200121,1,0,0:0:0:0:
320,192,200196,1,0,0:0:0:0:
192,192,200271,1,0,0:0:0:0:
320,192,200346,1,4,0:0:0:0:
448,192,200346,1,0,0:0:0:0:
192,192,200421,1,0,0:0:0:0:
320,192,200496,1,0,0:0:0:0:
448,192,200571,1,0,0:0:0:0:
64,192,200571,1,4,0:0:0:0:
192,192,200646,1,0,0:0:0:0:
320,192,200721,1,0,0:0:0:0:
64,192,200796,1,0,0:0:0:0:
192,192,200796,1,8,0:0:0:0:
448,192,200796,1,0,0:0:0:0:
192,192,201096,128,0,201396:0:0:0:0:
448,192,201396,1,0,0:0:0:0:
320,192,201396,1,8,0:0:0:0:
64,192,201396,1,0,0:0:0:0:
64,192,201696,1,8,0:0:0:0:
448,192,201696,1,0,0:0:0:0:
320,192,201696,1,0,0:0:0:0:
448,192,201771,1,0,0:0:0:0:
192,192,201846,1,0,0:0:0:0:
192,192,201921,1,0,0:0:0:0:
320,192,201996,1,0,0:0:0:0:
448,192,201996,1,0,0:0:0:0:
192,192,202071,1,0,0:0:0:0:
448,192,202146,1,0,0:0:0:0:
448,192,202221,1,0,0:0:0:0:
192,192,202296,1,8,0:0:0:0:
64,192,202296,1,0,0:0:0:0:
320,192,202371,1,8,0:0:0:0:
448,192,202371,1,0,0:0:0:0:
64,192,202446,1,0,0:0:0:0:
192,192,202446,1,8,0:0:0:0:
320,192,202521,1,8,0:0:0:0:
448,192,202521,1,0,0:0:0:0:
64,192,202596,1,0,0:0:0:0:
192,192,202596,1,8,0:0:0:0:
320,192,202671,1,0,0:0:0:0:
192,192,202746,1,0,0:0:0:0:
192,192,202821,1,0,0:0:0:0:
320,192,202896,1,0,0:0:0:0:
448,192,202896,1,0,0:0:0:0:
192,192,202971,1,0,0:0:0:0:
64,192,202971,1,0,0:0:0:0:
320,192,203046,1,0,0:0:0:0:
448,192,203046,1,0,0:0:0:0:
192,192,203121,1,0,0:0:0:0:
64,192,203196,1,8,0:0:0:0:
320,192,203196,1,8,0:0:0:0:
192,192,203271,1,8,0:0:0:0:
448,192,203271,1,8,0:0:0:0:
320,192,203346,1,0,0:0:0:0:
192,192,203421,1,0,0:0:0:0:
320,192,203496,1,4,0:0:0:0:
448,192,203496,1,0,0:0:0:0:
192,192,203571,1,4,0:0:0:0:
64,192,203571,1,0,0:0:0:0:
320,192,203646,1,4,0:0:0:0:
448,192,203646,1,0,0:0:0:0:
192,192,203721,1,4,0:0:0:0:
64,192,203721,1,0,0:0:0:0:
320,192,203796,1,4,0:0:0:0:
448,192,203796,1,0,0:0:0:0:
192,192,203871,1,0,0:0:0:0:
64,192,203946,1,0,0:0:0:0:
320,192,204021,1,0,0:0:0:0:
192,192,204096,1,0,0:0:0:0:
64,192,204096,1,0,0:0:0:0:
192,192,204171,1,0,0:0:0:0:
448,192,204246,1,0,0:0:0:0:
448,192,204321,1,0,0:0:0:0:
64,192,204321,1,0,0:0:0:0:
320,192,204396,1,0,0:0:0:0:
192,192,204396,1,0,0:0:0:0:
448,192,204471,1,0,0:0:0:0:
192,192,204546,1,0,0:0:0:0:
64,192,204546,1,0,0:0:0:0:
320,192,204621,1,0,0:0:0:0:
448,192,204621,1,0,0:0:0:0:
192,192,204696,1,8,0:0:0:0:
64,192,204696,1,0,0:0:0:0:
320,192,204771,1,8,0:0:0:0:
64,192,204846,1,0,0:0:0:0:
448,192,204846,1,8,0:0:0:0:
192,192,204921,1,0,0:0:0:0:
320,192,204996,1,0,0:0:0:0:
448,192,204996,1,8,0:0:0:0:
320,192,205071,1,0,0:0:0:0:
192,192,205146,1,0,0:0:0:0:
192,192,205221,1,0,0:0:0:0:
448,192,205296,1,0,0:0:0:0:
64,192,205296,1,8,0:0:0:0:
320,192,205371,1,0,0:0:0:0:
192,192,205446,1,0,0:0:0:0:
192,192,205521,1,0,0:0:0:0:
320,192,205596,1,0,0:0:0:0:
448,192,205596,1,8,0:0:0:0:
64,192,205671,1,8,0:0:0:0:
320,192,205746,1,0,0:0:0:0:
448,192,205746,1,8,0:0:0:0:
192,192,205821,1,8,0:0:0:0:
448,192,205896,1,0,0:0:0:0:
320,192,205896,1,4,0:0:0:0:
192,192,205971,1,8,0:0:0:0:
320,192,206046,1,8,0:0:0:0:
64,192,206046,1,0,0:0:0:0:
192,192,206121,1,8,0:0:0:0:
448,192,206196,1,4,0:0:0:0:
320,192,206196,1,8,0:0:0:0:
64,192,206196,1,0,0:0:0:0:
192,192,206271,1,0,0:0:0:0:
64,192,206346,1,0,0:0:0:0:
320,192,206421,1,0,0:0:0:0:
448,192,206496,1,0,0:0:0:0:
192,192,206496,1,8,0:0:0:0:
64,192,206496,1,0,0:0:0:0:
448,192,206571,1,0,0:0:0:0:
192,192,206646,1,0,0:0:0:0:
192,192,206721,1,0,0:0:0:0:
64,192,206796,1,0,0:0:0:0:
448,192,206796,1,0,0:0:0:0:
320,192,206871,1,0,0:0:0:0:
192,192,206946,1,0,0:0:0:0:
192,192,207021,1,0,0:0:0:0:
64,192,207096,1,0,0:0:0:0:
448,192,207096,1,0,0:0:0:0:
320,192,207096,1,8,0:0:0:0:
192,192,207171,1,0,0:0:0:0:
320,192,207246,1,0,0:0:0:0:
448,192,207321,1,0,0:0:0:0:
64,192,207396,1,0,0:0:0:0:
192,192,207396,1,0,0:0:0:0:
320,192,207471,1,0,0:0:0:0:
320,192,207546,1,0,0:0:0:0:
192,192,207621,1,0,0:0:0:0:
448,192,207696,1,0,0:0:0:0:
320,192,207696,1,8,0:0:0:0:
64,192,207696,1,0,0:0:0:0:
192,192,207771,1,0,0:0:0:0:
320,192,207846,1,0,0:0:0:0:
448,192,207921,1,0,0:0:0:0:
64,192,207996,1,0,0:0:0:0:
192,192,207996,1,0,0:0:0:0:
320,192,208071,1,0,0:0:0:0:
192,192,208146,128,0,208296:0:0:0:0:
320,192,208296,128,0,208446:0:0:0:0:
192,192,208596,1,0,0:0:0:0:
64,192,208596,1,0,0:0:0:0:
320,192,208596,1,0,0:0:0:0:
448,192,208671,1,0,0:0:0:0:
320,192,208746,1,0,0:0:0:0:
64,192,208746,1,0,0:0:0:0:
192,192,208821,1,0,0:0:0:0:
64,192,208896,1,0,0:0:0:0:
448,192,208896,1,0,0:0:0:0:
320,192,208896,1,0,0:0:0:0:
192,192,208971,1,0,0:0:0:0:
448,192,209046,1,0,0:0:0:0:
64,192,209046,1,0,0:0:0:0:
320,192,209121,1,0,0:0:0:0:
448,192,209196,1,0,0:0:0:0:
192,192,209196,1,0,0:0:0:0:
64,192,209196,1,0,0:0:0:0:
320,192,209271,1,0,0:0:0:0:
64,192,209346,1,0,0:0:0:0:
448,192,209346,1,0,0:0:0:0:
192,192,209421,1,0,0:0:0:0:
320,192,209496,1,0,0:0:0:0:
448,192,209496,1,0,0:0:0:0:
64,192,209496,1,0,0:0:0:0:
192,192,209571,1,0,0:0:0:0:
448,192,209646,1,0,0:0:0:0:
64,192,209646,1,0,0:0:0:0:
320,192,209721,1,0,0:0:0:0:
192,192,209796,1,0,0:0:0:0:
64,192,209796,1,0,0:0:0:0:
448,192,209796,1,0,0:0:0:0:
320,192,209833,1,0,0:0:0:0:
192,192,209871,1,0,0:0:0:0:
64,192,209908,1,0,0:0:0:0:
448,192,209946,1,0,0:0:0:0:
320,192,209983,1,0,0:0:0:0:
192,192,210021,1,0,0:0:0:0:
64,192,210058,1,0,0:0:0:0:
448,192,210096,1,0,0:0:0:0:
320,192,210133,1,0,0:0:0:0:
192,192,210171,1,0,0:0:0:0:
64,192,210208,1,0,0:0:0:0:
448,192,210246,1,0,0:0:0:0:
320,192,210283,1,0,0:0:0:0:
192,192,210321,1,0,0:0:0:0:
64,192,210358,1,0,0:0:0:0:
448,192,210396,1,0,0:0:0:0:
320,192,210433,1,0,0:0:0:0:
64,192,210471,1,0,0:0:0:0:
192,192,210508,1,0,0:0:0:0:
320,192,210546,1,0,0:0:0:0:
448,192,210546,1,0,0:0:0:0:
320,192,210696,1,0,0:0:0:0:
448,192,210696,1,0,0:0:0:0:
64,192,210996,1,0,0:0:0:0:
448,192,210996,1,0,0:0:0:0:
192,192,211033,1,0,0:0:0:0:
320,192,211071,1,0,0:0:0:0:
448,192,211108,1,0,0:0:0:0:
64,192,211146,1,0,0:0:0:0:
192,192,211183,1,0,0:0:0:0:
320,192,211221,1,0,0:0:0:0:
448,192,211258,1,0,0:0:0:0:
64,192,211296,1,0,0:0:0:0:
192,192,211296,1,8,0:0:0:0:
64,192,211596,1,0,0:0:0:0:
448,192,211596,1,0,0:0:0:0:
192,192,211596,1,8,0:0:0:0:
320,192,211671,1,0,0:0:0:0:
64,192,211746,1,0,0:0:0:0:
192,192,211821,1,0,0:0:0:0:
320,192,211896,1,8,0:0:0:0:
448,192,211896,1,0,0:0:0:0:
192,192,211971,1,8,0:0:0:0:
64,192,211971,1,0,0:0:0:0:
320,192,212046,1,8,0:0:0:0:
448,192,212046,1,0,0:0:0:0:
192,192,212121,1,0,0:0:0:0:
320,192,212196,1,0,0:0:0:0:
192,192,212271,1,0,0:0:0:0:
64,192,212346,1,0,0:0:0:0:
320,192,212421,1,8,0:0:0:0:
448,192,212421,1,0,0:0:0:0:
192,192,212496,1,8,0:0:0:0:
64,192,212496,1,0,0:0:0:0:
320,192,212571,1,8,0:0:0:0:
448,192,212571,1,0,0:0:0:0:
192,192,212646,1,8,0:0:0:0:
64,192,212646,1,0,0:0:0:0:
320,192,212721,1,8,0:0:0:0:
448,192,212721,1,0,0:0:0:0:
192,192,212796,1,8,0:0:0:0:
64,192,212796,1,0,0:0:0:0:
320,192,212871,1,0,0:0:0:0:
448,192,212946,1,0,0:0:0:0:
64,192,212946,1,0,0:0:0:0:
192,192,213021,1,8,0:0:0:0:
320,192,213096,1,8,0:0:0:0:
448,192,213096,1,0,0:0:0:0:
192,192,213171,1,4,0:0:0:0:
64,192,213246,1,8,0:0:0:0:
448,192,213246,1,0,0:0:0:0:
320,192,213321,1,0,0:0:0:0:
192,192,213396,1,4,0:0:0:0:
64,192,213396,1,4,0:0:0:0:
448,192,213471,1,4,0:0:0:0:
64,192,213546,1,4,0:0:0:0:
192,192,213583,1,4,0:0:0:0:
448,192,213621,1,4,0:0:0:0:
320,192,213658,1,4,0:0:0:0:
64,192,213696,1,4,0:0:0:0:
192,192,213733,1,4,0:0:0:0:
320,192,213771,1,4,0:0:0:0:
448,192,213846,1,4,0:0:0:0:
64,192,213846,1,4,0:0:0:0:
192,192,213921,1,0,0:0:0:0:
320,192,213996,1,8,0:0:0:0:
448,192,213996,1,0,0:0:0:0:
64,192,213996,1,0,0:0:0:0:
192,192,214071,1,0,0:0:0:0:
320,192,214146,1,0,0:0:0:0:
192,192,214221,1,0,0:0:0:0:
448,192,214296,1,0,0:0:0:0:
64,192,214296,1,0,0:0:0:0:
320,192,214371,1,0,0:0:0:0:
192,192,214446,1,0,0:0:0:0:
64,192,214521,1,0,0:0:0:0:
448,192,214596,1,0,0:0:0:0:
320,192,214596,1,0,0:0:0:0:
192,192,214671,1,0,0:0:0:0:
320,192,214746,1,0,0:0:0:0:
192,192,214821,1,0,0:0:0:0:
448,192,214896,1,0,0:0:0:0:
320,192,214971,1,0,0:0:0:0:
192,192,215046,1,0,0:0:0:0:
64,192,215121,1,0,0:0:0:0:
448,192,215196,1,0,0:0:0:0:
320,192,215196,1,8,0:0:0:0:
192,192,215271,1,8,0:0:0:0:
64,192,215271,1,0,0:0:0:0:
320,192,215346,1,8,0:0:0:0:
448,192,215346,1,0,0:0:0:0:
192,192,215421,1,8,0:0:0:0:
64,192,215421,1,0,0:0:0:0:
448,192,215496,1,0,0:0:0:0:
320,192,215496,1,8,0:0:0:0:
192,192,215796,1,4,0:0:0:0:
64,192,215796,1,4,0:0:0:0:
448,192,216096,128,0,216396:0:0:0:0:
320,192,216096,1,8,0:0:0:0:
64,192,216096,128,0,216396:0:0:0:0:
192,192,216396,1,4,0:0:0:0:
320,192,216471,1,0,0:0:0:0:
192,192,216546,1,0,0:0:0:0:
320,192,216621,1,0,0:0:0:0:
192,192,216696,1,8,0:0:0:0:
64,192,216696,128,0,216996:0:0:0:0:
448,192,216696,128,0,216996:0:0:0:0:
192,192,216996,1,4,0:0:0:0:
320,192,217071,1,0,0:0:0:0:
192,192,217146,1,0,0:0:0:0:
320,192,217221,1,0,0:0:0:0:
64,192,217296,128,0,217596:0:0:0:0:
448,192,217296,128,0,217596:0:0:0:0:
192,192,217296,1,8,0:0:0:0:
320,192,217596,1,4,0:0:0:0:
192,192,217671,1,0,0:0:0:0:
320,192,217746,128,0,217896:0:0:0:0:
192,192,217896,128,0,218196:0:0:0:0:
448,192,218196,1,4,0:0:0:0:
320,192,218196,1,4,0:0:0:0:
448,192,218421,1,4,0:0:0:0:
192,192,218421,1,4,0:0:0:0:
64,192,218421,1,0,0:0:0:0:
320,192,218646,1,4,0:0:0:0:
448,192,218646,1,0,0:0:0:0:
192,192,218646,1,4,0:0:0:0:
64,192,218796,1,4,0:0:0:0:
192,192,218796,1,0,0:0:0:0:
320,192,218796,1,4,0:0:0:0:
320,192,219021,1,4,0:0:0:0:
448,192,219021,1,0,0:0:0:0:
64,192,219021,1,4,0:0:0:0:
448,192,219246,1,4,0:0:0:0:
192,192,219246,1,4,0:0:0:0:
64,192,219246,1,0,0:0:0:0:
448,192,219396,1,0,0:0:0:0:
320,192,219396,1,4,0:0:0:0:
192,192,219396,1,4,0:0:0:0:
64,192,219621,5,4,0:0:0:0:
192,192,219621,1,0,0:0:0:0:
320,192,219621,1,4,0:0:0:0:
320,192,219846,1,4,0:0:0:0:
448,192,219846,1,0,0:0:0:0:
64,192,219846,1,4,0:0:0:0:
192,192,219996,1,4,0:0:0:0:
320,192,219996,1,4,0:0:0:0:
64,192,219996,128,0,220596:0:0:0:0:
448,192,220596,128,0,220896:0:0:0:0:
192,192,220596,1,4,0:0:0:0:
320,192,220746,128,0,221046:0:0:0:0:
192,192,220896,128,0,221196:0:0:0:0:
64,192,221046,128,0,221346:0:0:0:0:
320,192,221196,128,0,221496:0:0:0:0:
448,192,221346,128,0,221646:0:0:0:0:
192,192,221496,128,0,221796:0:0:0:0:
64,192,221646,128,0,221946:0:0:0:0:
320,192,221796,128,0,222096:0:0:0:0:
448,192,221946,128,0,222246:0:0:0:0:
64,192,222096,128,0,222396:0:0:0:0:
192,192,222246,128,0,222546:0:0:0:0:
320,192,222396,128,0,222696:0:0:0:0:
448,192,222546,128,0,222846:0:0:0:0:
192,192,222696,128,0,222996:0:0:0:0:
64,192,222846,128,0,223146:0:0:0:0:
448,192,222996,128,0,223296:0:0:0:0:
320,192,223146,128,0,223446:0:0:0:0:
192,192,223296,128,0,223596:0:0:0:0:
448,192,223446,128,0,223746:0:0:0:0:
320,192,223596,128,0,223896:0:0:0:0:
64,192,223746,128,0,224046:0:0:0:0:
192,192,223896,128,0,224196:0:0:0:0:
320,192,224046,128,0,224346:0:0:0:0:
448,192,224196,128,0,224496:0:0:0:0:
64,192,224346,128,0,224646:0:0:0:0:
320,192,224496,128,0,224796:0:0:0:0:
192,192,224646,128,0,224946:0:0:0:0:
448,192,224796,128,0,225096:0:0:0:0:
320,192,224946,128,0,225246:0:0:0:0:
192,192,225096,128,0,225396:0:0:0:0:
64,192,225246,128,0,225546:0:0:0:0:
320,192,225396,128,0,225696:0:0:0:0:
192,192,225546,128,0,225846:0:0:0:0:
448,192,225696,128,0,225996:0:0:0:0:
320,192,225846,128,0,226146:0:0:0:0:
192,192,225996,128,0,226296:0:0:0:0:
64,192,226146,128,0,226446:0:0:0:0:
320,192,226296,128,0,226596:0:0:0:0:
192,192,226446,128,0,226746:0:0:0:0:
448,192,226596,128,0,226896:0:0:0:0:
64,192,226746,128,0,227046:0:0:0:0:
192,192,226896,128,0,227196:0:0:0:0:
320,192,227046,128,0,227346:0:0:0:0:
448,192,227196,128,0,227496:0:0:0:0:
192,192,227346,128,0,227646:0:0:0:0:
320,192,227496,128,0,227796:0:0:0:0:
64,192,227646,128,0,227946:0:0:0:0:
448,192,227796,128,0,228096:0:0:0:0:
320,192,227946,128,0,228246:0:0:0:0:
192,192,228096,128,0,228396:0:0:0:0:
64,192,228246,128,0,228546:0:0:0:0:
320,192,228396,128,0,228696:0:0:0:0:
192,192,228546,128,0,228846:0:0:0:0:
448,192,228696,128,0,228996:0:0:0:0:
320,192,228846,128,0,229146:0:0:0:0:
64,192,228996,128,0,229296:0:0:0:0:
192,192,229146,128,0,229446:0:0:0:0:
320,192,229296,128,0,229596:0:0:0:0:
448,192,229446,128,0,229746:0:0:0:0:
192,192,229596,128,0,229896:0:0:0:0:
320,192,229746,128,0,230046:0:0:0:0:
64,192,229896,128,0,230196:0:0:0:0:
448,192,230046,128,0,230346:0:0:0:0:
320,192,230196,128,0,230496:0:0:0:0:
192,192,230346,128,0,230646:0:0:0:0:
64,192,230496,1,0,0:0:0:0:
448,192,230496,1,0,0:0:0:0:
448,192,230646,1,0,0:0:0:0:
320,192,230796,1,0,0:0:0:0:
192,192,230946,1,0,0:0:0:0:
64,192,231096,1,0,0:0:0:0:
192,192,231246,1,0,0:0:0:0:
320,192,231396,1,0,0:0:0:0:
448,192,231546,1,0,0:0:0:0:
320,192,231696,1,0,0:0:0:0:
192,192,231846,1,0,0:0:0:0:
320,192,231996,1,0,0:0:0:0:
192,192,232146,1,0,0:0:0:0:
320,192,232296,1,0,0:0:0:0:
192,192,232446,1,0,0:0:0:0:
64,192,232596,1,0,0:0:0:0:
192,192,232746,1,0,0:0:0:0:
320,192,232896,1,0,0:0:0:0:
448,192,233046,1,0,0:0:0:0:
320,192,233196,1,0,0:0:0:0:
192,192,233346,1,0,0:0:0:0:
64,192,233496,1,0,0:0:0:0:
192,192,233646,1,0,0:0:0:0:
64,192,233796,1,0,0:0:0:0:
448,192,233946,1,0,0:0:0:0:
320,192,234096,1,0,0:0:0:0:
448,192,234246,1,0,0:0:0:0:
64,192,234396,1,0,0:0:0:0:
192,192,234546,1,0,0:0:0:0:
320,192,234696,1,0,0:0:0:0:
192,192,234846,1,0,0:0:0:0:
448,192,234996,1,0,0:0:0:0:
320,192,235146,1,0,0:0:0:0:
192,192,235296,1,0,0:0:0:0:
64,192,235446,1,0,0:0:0:0:
192,192,235596,1,0,0:0:0:0:
320,192,235746,1,0,0:0:0:0:
448,192,235896,1,0,0:0:0:0:
320,192,236046,1,0,0:0:0:0:
448,192,236196,1,0,0:0:0:0:
64,192,236346,1,0,0:0:0:0:
192,192,236496,1,0,0:0:0:0:
320,192,236646,1,0,0:0:0:0:
192,192,236796,1,0,0:0:0:0:
320,192,236946,1,0,0:0:0:0:
192,192,237096,1,0,0:0:0:0:
320,192,237246,1,0,0:0:0:0:
64,192,237396,1,0,0:0:0:0:
192,192,237546,1,0,0:0:0:0:
320,192,237696,1,0,0:0:0:0:
64,192,237846,1,0,0:0:0:0:
192,192,237996,1,0,0:0:0:0:
320,192,238146,1,0,0:0:0:0:
448,192,238296,1,0,0:0:0:0:
320,192,238446,1,0,0:0:0:0:
192,192,238596,1,0,0:0:0:0:
448,192,238746,1,0,0:0:0:0:
320,192,238896,1,0,0:0:0:0:
192,192,239046,1,0,0:0:0:0:
64,192,239196,1,0,0:0:0:0:
192,192,239346,1,0,0:0:0:0:
320,192,239496,1,0,0:0:0:0:
192,192,239646,1,0,0:0:0:0:
448,192,239796,1,0,0:0:0:0:
320,192,239946,1,0,0:0:0:0:
192,192,240096,1,0,0:0:0:0:
64,192,240246,1,0,0:0:0:0:
192,192,240396,1,0,0:0:0:0:
320,192,240546,1,0,0:0:0:0:
448,192,240696,1,0,0:0:0:0:
64,192,240846,1,0,0:0:0:0:
192,192,240996,1,0,0:0:0:0:
320,192,241146,1,0,0:0:0:0:
192,192,241296,1,0,0:0:0:0:
320,192,241446,1,0,0:0:0:0:
192,192,241596,1,0,0:0:0:0:
320,192,241746,1,0,0:0:0:0:
192,192,241896,1,0,0:0:0:0:
320,192,242046,1,0,0:0:0:0:
64,192,242196,1,0,0:0:0:0:
192,192,242346,1,0,0:0:0:0:
320,192,242496,1,0,0:0:0:0:
448,192,242646,1,0,0:0:0:0:
320,192,242796,1,0,0:0:0:0:
192,192,242946,1,0,0:0:0:0:
64,192,243096,1,0,0:0:0:0:
192,192,243246,1,0,0:0:0:0:
64,192,243396,1,0,0:0:0:0:
448,192,243546,1,0,0:0:0:0:
320,192,243696,1,0,0:0:0:0:
448,192,243846,1,0,0:0:0:0:
64,192,243996,1,0,0:0:0:0:
192,192,244146,1,0,0:0:0:0:
320,192,244296,1,0,0:0:0:0:
192,192,244446,1,0,0:0:0:0:
448,192,244596,1,0,0:0:0:0:
320,192,244746,1,0,0:0:0:0:
192,192,244896,1,0,0:0:0:0:
448,192,245046,1,0,0:0:0:0:
320,192,245196,1,0,0:0:0:0:
192,192,245346,1,0,0:0:0:0:
64,192,245496,1,0,0:0:0:0:
192,192,245646,1,0,0:0:0:0:
320,192,245796,1,0,0:0:0:0:
64,192,245946,1,0,0:0:0:0:
192,192,246096,1,0,0:0:0:0:
320,192,246246,1,0,0:0:0:0:
192,192,246396,1,0,0:0:0:0:
320,192,246546,1,0,0:0:0:0:
192,192,246696,1,0,0:0:0:0:
320,192,246846,1,0,0:0:0:0:
64,192,246996,1,0,0:0:0:0:
192,192,247146,1,0,0:0:0:0:
64,192,247296,1,0,0:0:0:0:
448,192,247446,1,0,0:0:0:0:
320,192,247596,1,0,0:0:0:0:
448,192,247746,1,0,0:0:0:0:
64,192,247896,1,0,0:0:0:0:
192,192,248046,1,0,0:0:0:0:
320,192,248196,1,0,0:0:0:0:
448,192,248346,1,0,0:0:0:0:
320,192,248496,1,0,0:0:0:0:
192,192,248646,1,0,0:0:0:0:
64,192,248796,1,0,0:0:0:0:
448,192,248946,1,0,0:0:0:0:
320,192,249096,1,0,0:0:0:0:
192,192,249246,1,0,0:0:0:0:
320,192,249396,1,0,0:0:0:0:
64,192,249396,1,0,0:0:0:0:
64,192,249546,1,0,0:0:0:0:
64,192,249696,1,0,0:0:0:0:
448,192,249846,1,0,0:0:0:0:
192,192,249846,1,0,0:0:0:0:
320,192,249996,1,0,0:0:0:0:
192,192,250146,1,0,0:0:0:0:
448,192,250296,1,0,0:0:0:0:
64,192,250296,1,0,0:0:0:0:
320,192,250446,1,0,0:0:0:0:
192,192,250596,1,0,0:0:0:0:
448,192,250746,1,0,0:0:0:0:
64,192,250746,1,0,0:0:0:0:
320,192,250896,1,0,0:0:0:0:
192,192,251046,1,0,0:0:0:0:
64,192,251196,1,0,0:0:0:0:
448,192,251196,1,0,0:0:0:0:
192,192,251346,1,0,0:0:0:0:
320,192,251496,1,0,0:0:0:0:
448,192,251496,1,0,0:0:0:0:
192,192,251646,1,0,0:0:0:0:
320,192,251796,1,0,0:0:0:0:
64,192,251796,1,0,0:0:0:0:
320,192,251946,1,0,0:0:0:0:
320,192,252096,1,0,0:0:0:0:
64,192,252246,1,0,0:0:0:0:
448,192,252246,1,0,0:0:0:0:
192,192,252396,1,0,0:0:0:0:
320,192,252546,1,0,0:0:0:0:
448,192,252696,1,0,0:0:0:0:
64,192,252696,1,0,0:0:0:0:
192,192,252846,1,0,0:0:0:0:
320,192,252996,1,0,0:0:0:0:
64,192,253146,1,0,0:0:0:0:
448,192,253146,1,0,0:0:0:0:
192,192,253296,1,0,0:0:0:0:
320,192,253446,1,0,0:0:0:0:
64,192,253596,1,0,0:0:0:0:
448,192,253596,1,0,0:0:0:0:
320,192,253746,1,0,0:0:0:0:
448,192,253896,1,0,0:0:0:0:
192,192,253896,1,0,0:0:0:0:
320,192,254046,1,0,0:0:0:0:
64,192,254196,1,0,0:0:0:0:
448,192,254196,1,0,0:0:0:0:
64,192,254346,1,0,0:0:0:0:
64,192,254496,1,0,0:0:0:0:
448,192,254646,1,0,0:0:0:0:
192,192,254646,1,0,0:0:0:0:
320,192,254796,1,0,0:0:0:0:
192,192,254946,1,0,0:0:0:0:
64,192,255096,1,0,0:0:0:0:
448,192,255096,1,0,0:0:0:0:
320,192,255246,1,0,0:0:0:0:
192,192,255396,1,0,0:0:0:0:
448,192,255546,1,0,0:0:0:0:
64,192,255546,1,0,0:0:0:0:
320,192,255696,1,0,0:0:0:0:
192,192,255846,1,0,0:0:0:0:
320,192,255996,1,0,0:0:0:0:
448,192,255996,1,0,0:0:0:0:
192,192,256146,1,0,0:0:0:0:
320,192,256296,1,0,0:0:0:0:
64,192,256296,1,0,0:0:0:0:
448,192,256446,1,0,0:0:0:0:
64,192,256596,1,0,0:0:0:0:
320,192,256596,1,0,0:0:0:0:
320,192,256746,1,0,0:0:0:0:
320,192,256896,1,0,0:0:0:0:
64,192,257046,1,0,0:0:0:0:
448,192,257046,1,0,0:0:0:0:
192,192,257196,1,0,0:0:0:0:
320,192,257346,1,0,0:0:0:0:
64,192,257496,1,0,0:0:0:0:
448,192,257496,1,0,0:0:0:0:
192,192,257646,1,0,0:0:0:0:
320,192,257796,1,0,0:0:0:0:
448,192,257946,1,0,0:0:0:0:
64,192,257946,1,0,0:0:0:0:
192,192,258096,1,0,0:0:0:0:
320,192,258246,1,0,0:0:0:0:
64,192,258396,1,0,0:0:0:0:
192,192,258396,1,0,0:0:0:0:
448,192,258396,128,0,258471:0:0:0:0:
320,192,258546,1,0,0:0:0:0:
448,192,258696,1,0,0:0:0:0:
64,192,258696,1,0,0:0:0:0:
192,192,258846,1,0,0:0:0:0:
448,192,258996,1,0,0:0:0:0:
320,192,258996,1,0,0:0:0:0:
64,192,258996,128,0,259071:0:0:0:0:
192,192,259146,1,0,0:0:0:0:
448,192,259296,1,0,0:0:0:0:
320,192,259446,1,0,0:0:0:0:
192,192,259596,1,0,0:0:0:0:
64,192,259746,1,0,0:0:0:0:
448,192,259896,1,0,0:0:0:0:
192,192,259896,1,0,0:0:0:0:
320,192,260046,1,0,0:0:0:0:
192,192,260196,1,0,0:0:0:0:
64,192,260346,1,0,0:0:0:0:
448,192,260346,1,0,0:0:0:0:
320,192,260496,1,0,0:0:0:0:
192,192,260646,1,0,0:0:0:0:
320,192,260796,1,0,0:0:0:0:
448,192,260796,1,0,0:0:0:0:
64,192,260796,128,0,260871:0:0:0:0:
192,192,260946,1,0,0:0:0:0:
320,192,260946,128,0,261021:0:0:0:0:
64,192,261096,1,0,0:0:0:0:
448,192,261096,128,0,261171:0:0:0:0:
192,192,261096,1,0,0:0:0:0:
320,192,261246,1,0,0:0:0:0:
192,192,261246,128,0,261321:0:0:0:0:
64,192,261396,1,0,0:0:0:0:
320,192,261396,1,0,0:0:0:0:
192,192,261546,1,0,0:0:0:0:
448,192,261546,128,0,261621:0:0:0:0:
320,192,261696,1,0,0:0:0:0:
64,192,261696,128,0,261771:0:0:0:0:
448,192,261846,1,0,0:0:0:0:
192,192,261846,1,0,0:0:0:0:
320,192,261996,1,0,0:0:0:0:
448,192,262146,1,0,0:0:0:0:
64,192,262296,1,0,0:0:0:0:
320,192,262296,1,0,0:0:0:0:
192,192,262446,1,0,0:0:0:0:
320,192,262596,1,0,0:0:0:0:
448,192,262746,1,0,0:0:0:0:
64,192,262746,1,0,0:0:0:0:
192,192,262896,1,0,0:0:0:0:
320,192,263046,1,0,0:0:0:0:
192,192,263196,1,0,0:0:0:0:
64,192,263196,1,0,0:0:0:0:
448,192,263196,128,0,263271:0:0:0:0:
320,192,263346,1,0,0:0:0:0:
192,192,263496,1,0,0:0:0:0:
64,192,263496,1,0,0:0:0:0:
448,192,263496,128,0,263571:0:0:0:0:
320,192,263646,1,0,0:0:0:0:
64,192,263796,1,0,0:0:0:0:
192,192,263796,1,0,0:0:0:0:
448,192,263796,128,0,263871:0:0:0:0:
320,192,263946,1,0,0:0:0:0:
192,192,264096,1,0,0:0:0:0:
64,192,264246,1,0,0:0:0:0:
448,192,264246,1,0,0:0:0:0:
320,192,264396,1,0,0:0:0:0:
192,192,264546,1,0,0:0:0:0:
448,192,264696,1,0,0:0:0:0:
320,192,264696,1,0,0:0:0:0:
64,192,264696,128,0,264771:0:0:0:0:
192,192,264846,1,0,0:0:0:0:
320,192,264846,128,0,264921:0:0:0:0:
448,192,264996,1,0,0:0:0:0:
64,192,265146,1,0,0:0:0:0:
192,192,265146,1,0,0:0:0:0:
320,192,265296,1,0,0:0:0:0:
448,192,265446,1,0,0:0:0:0:
64,192,265596,1,0,0:0:0:0:
320,192,265596,1,0,0:0:0:0:
448,192,265746,128,0,265821:0:0:0:0:
192,192,265746,1,0,0:0:0:0:
448,192,265896,1,0,0:0:0:0:
320,192,265896,1,0,0:0:0:0:
64,192,265896,128,0,265971:0:0:0:0:
192,192,266046,1,0,0:0:0:0:
320,192,266046,128,0,266121:0:0:0:0:
64,192,266196,128,0,266346:0:0:0:0:
192,192,266346,128,0,266496:0:0:0:0:
320,192,266496,128,0,266646:0:0:0:0:
448,192,266496,1,0,0:0:0:0:
64,192,266646,128,0,266796:0:0:0:0:
448,192,266796,128,0,266946:0:0:0:0:
192,192,266946,128,0,267096:0:0:0:0:
320,192,267096,128,0,267246:0:0:0:0:
448,192,267096,1,0,0:0:0:0:
192,192,267246,128,0,267396:0:0:0:0:
64,192,267396,128,0,267546:0:0:0:0:
320,192,267546,128,0,267696:0:0:0:0:
192,192,267696,128,0,267846:0:0:0:0:
320,192,267846,128,0,267996:0:0:0:0:
64,192,268296,128,0,268596:0:0:0:0:
320,192,268596,1,8,0:0:0:0:
448,192,268596,128,0,268896:0:0:0:0:
192,192,268596,1,4,0:0:0:0:
192,192,268896,1,0,0:0:0:0:
192,192,269046,1,0,0:0:0:0:
320,192,269196,1,8,0:0:0:0:
64,192,269196,1,4,0:0:0:0:
192,192,269346,1,4,0:0:0:0:
448,192,269346,128,0,269646:0:0:0:0:
64,192,269346,1,0,0:0:0:0:
320,192,269796,1,4,0:0:0:0:
192,192,269796,128,0,270096:0:0:0:0:
448,192,269796,1,0,0:0:0:0:
64,192,270096,1,4,0:0:0:0:
448,192,270096,1,8,0:0:0:0:
320,192,270396,1,4,0:0:0:0:
192,192,270396,1,0,0:0:0:0:
320,192,270546,1,8,0:0:0:0:
448,192,270546,1,4,0:0:0:0:
64,192,270546,1,0,0:0:0:0:
192,192,270846,128,0,271146:0:0:0:0:
448,192,270846,1,4,0:0:0:0:
448,192,271296,1,0,0:0:0:0:
320,192,271296,1,0,0:0:0:0:
448,192,271596,1,0,0:0:0:0:
320,192,271596,1,0,0:0:0:0:
192,192,271746,1,0,0:0:0:0:
320,192,271896,1,0,0:0:0:0:
448,192,272046,1,0,0:0:0:0:
320,192,272121,1,0,0:0:0:0:
192,192,272196,1,0,0:0:0:0:
64,192,272196,1,0,0:0:0:0:
320,192,272346,1,0,0:0:0:0:
448,192,272346,1,0,0:0:0:0:
320,192,272496,1,0,0:0:0:0:
192,192,272496,1,0,0:0:0:0:
64,192,272646,1,4,0:0:0:0:
192,192,272696,1,4,0:0:0:0:
320,192,272746,1,4,0:0:0:0:
448,192,272796,1,4,0:0:0:0:
192,192,272871,1,4,0:0:0:0:
320,192,272946,1,4,0:0:0:0:
192,192,273021,1,4,0:0:0:0:
448,192,273096,1,4,0:0:0:0:
64,192,273096,1,4,0:0:0:0:
320,192,273171,1,4,0:0:0:0:
192,192,273246,1,4,0:0:0:0:
64,192,273321,1,4,0:0:0:0:
448,192,273396,128,0,273696:0:0:0:0:
192,192,273396,1,0,0:0:0:0:
320,192,273396,1,2,0:0:0:0:
192,192,273696,1,0,0:0:0:0:
192,192,273846,1,0,0:0:0:0:
64,192,273996,1,4,0:0:0:0:
320,192,273996,1,8,0:0:0:0:
64,192,274146,1,4,0:0:0:0:
448,192,274146,128,0,274446:0:0:0:0:
192,192,274146,1,0,0:0:0:0:
192,192,274596,128,0,274746:0:0:0:0:
320,192,274596,1,4,0:0:0:0:
448,192,274596,1,0,0:0:0:0:
448,192,274896,1,12,0:0:0:0:
192,192,274896,1,0,0:0:0:0:
64,192,275196,1,0,0:0:0:0:
320,192,275196,1,4,0:0:0:0:
64,192,275346,1,0,0:0:0:0:
192,192,275346,1,12,0:0:0:0:
448,192,275346,1,0,0:0:0:0:
192,192,275646,128,0,275946:0:0:0:0:
320,192,275646,1,4,0:0:0:0:
448,192,275646,1,0,0:0:0:0:
320,192,276096,1,0,0:0:0:0:
192,192,276396,1,0,0:0:0:0:
448,192,276696,128,0,276771:0:0:0:0:
320,192,276771,128,0,276846:0:0:0:0:
192,192,276846,128,0,276921:0:0:0:0:
64,192,276921,128,0,276996:0:0:0:0:
320,192,276996,1,4,0:0:0:0:
192,192,277071,1,4,0:0:0:0:
320,192,277146,1,4,0:0:0:0:
192,192,277221,1,4,0:0:0:0:
448,192,277296,1,4,0:0:0:0:
64,192,277296,1,4,0:0:0:0:
320,192,277371,1,4,0:0:0:0:
192,192,277446,1,4,0:0:0:0:
64,192,277446,1,4,0:0:0:0:
320,192,277596,1,4,0:0:0:0:
448,192,277596,1,4,0:0:0:0:
192,192,277671,1,4,0:0:0:0:
320,192,277746,1,4,0:0:0:0:
192,192,277821,1,4,0:0:0:0:
320,192,277896,1,4,0:0:0:0:
448,192,277896,1,4,0:0:0:0:
192,192,277971,1,4,0:0:0:0:
320,192,278046,1,4,0:0:0:0:
192,192,278121,1,4,0:0:0:0:
320,192,278196,1,0,0:0:0:0:
448,192,278196,128,0,278496:0:0:0:0:
64,192,278196,1,4,0:0:0:0:
192,192,278496,1,0,0:0:0:0:
192,192,278646,1,0,0:0:0:0:
64,192,278796,1,0,0:0:0:0:
320,192,278796,1,4,0:0:0:0:
64,192,278946,1,0,0:0:0:0:
448,192,278946,128,0,279246:0:0:0:0:
192,192,278946,1,12,0:0:0:0:
320,192,279396,1,4,0:0:0:0:
192,192,279396,128,0,279696:0:0:0:0:
448,192,279396,1,0,0:0:0:0:
64,192,279696,1,12,0:0:0:0:
448,192,279696,1,0,0:0:0:0:
320,192,279996,1,4,0:0:0:0:
192,192,279996,1,0,0:0:0:0:
320,192,280146,1,12,0:0:0:0:
448,192,280146,1,0,0:0:0:0:
64,192,280146,1,0,0:0:0:0:
448,192,280446,1,4,0:0:0:0:
192,192,280446,128,0,280746:0:0:0:0:
448,192,280896,1,0,0:0:0:0:
320,192,280896,1,0,0:0:0:0:
320,192,281196,1,0,0:0:0:0:
448,192,281196,1,0,0:0:0:0:
192,192,281346,1,0,0:0:0:0:
320,192,281496,1,0,0:0:0:0:
448,192,281646,1,0,0:0:0:0:
320,192,281721,1,0,0:0:0:0:
192,192,281796,1,0,0:0:0:0:
64,192,281796,1,0,0:0:0:0:
320,192,281946,1,0,0:0:0:0:
448,192,281946,1,0,0:0:0:0:
192,192,282096,1,0,0:0:0:0:
320,192,282096,1,0,0:0:0:0:
64,192,282246,1,4,0:0:0:0:
192,192,282296,1,4,0:0:0:0:
320,192,282346,1,4,0:0:0:0:
448,192,282396,1,4,0:0:0:0:
192,192,282471,1,4,0:0:0:0:
320,192,282546,1,4,0:0:0:0:
192,192,282621,1,4,0:0:0:0:
448,192,282696,1,4,0:0:0:0:
64,192,282696,1,4,0:0:0:0:
320,192,282771,1,4,0:0:0:0:
192,192,282846,1,4,0:0:0:0:
64,192,282921,1,4,0:0:0:0:
320,192,282996,1,2,0:0:0:0:
448,192,282996,128,0,283296:0:0:0:0:
192,192,282996,1,0,0:0:0:0:
192,192,283296,1,0,0:0:0:0:
192,192,283446,1,0,0:0:0:0:
64,192,283596,1,0,0:0:0:0:
320,192,283596,1,12,0:0:0:0:
192,192,283746,1,4,0:0:0:0:
64,192,283746,1,0,0:0:0:0:
448,192,283746,128,0,284046:0:0:0:0:
320,192,284196,1,4,0:0:0:0:
192,192,284196,128,0,284346:0:0:0:0:
448,192,284196,1,0,0:0:0:0:
192,192,284496,1,12,0:0:0:0:
448,192,284496,1,0,0:0:0:0:
64,192,284796,1,0,0:0:0:0:
320,192,284796,1,4,0:0:0:0:
192,192,284946,1,12,0:0:0:0:
64,192,284946,1,0,0:0:0:0:
448,192,284946,1,0,0:0:0:0:
320,192,285246,1,4,0:0:0:0:
448,192,285246,1,0,0:0:0:0:
192,192,285246,128,0,287796:0:0:0:0:
64,192,290196,1,0,0:0:0:0:
448,192,290196,1,0,0:0:0:0:
192,192,290196,1,0,0:0:0:0:
320,192,290271,1,0,0:0:0:0:
192,192,290346,1,0,0:0:0:0:
320,192,290421,1,0,0:0:0:0:
448,192,290496,1,0,0:0:0:0:
64,192,290496,1,0,0:0:0:0:
192,192,290571,1,0,0:0:0:0:
448,192,290646,1,0,0:0:0:0:
320,192,290646,1,0,0:0:0:0:
192,192,290721,1,0,0:0:0:0:
64,192,290796,1,0,0:0:0:0:
320,192,290796,1,0,0:0:0:0:
192,192,290871,1,0,0:0:0:0:
320,192,290946,1,0,0:0:0:0:
192,192,291021,1,0,0:0:0:0:
64,192,291096,1,0,0:0:0:0:
448,192,291096,1,0,0:0:0:0:
320,192,291171,1,0,0:0:0:0:
192,192,291246,1,0,0:0:0:0:
320,192,291321,1,0,0:0:0:0:
192,192,291396,1,0,0:0:0:0:
64,192,291396,1,0,0:0:0:0:
320,192,291471,1,0,0:0:0:0:
192,192,291546,1,0,0:0:0:0:
448,192,291621,1,0,0:0:0:0:
192,192,291696,1,0,0:0:0:0:
64,192,291696,1,0,0:0:0:0:
320,192,291771,1,0,0:0:0:0:
448,192,291846,1,0,0:0:0:0:
64,192,291846,1,0,0:0:0:0:
192,192,291921,1,0,0:0:0:0:
448,192,291996,1,0,0:0:0:0:
320,192,291996,1,0,0:0:0:0:
192,192,292071,1,0,0:0:0:0:
320,192,292146,1,0,0:0:0:0:
64,192,292221,1,0,0:0:0:0:
448,192,292296,1,0,0:0:0:0:
320,192,292296,1,0,0:0:0:0:
192,192,292371,1,0,0:0:0:0:
320,192,292446,1,0,0:0:0:0:
192,192,292521,1,0,0:0:0:0:
320,192,292596,1,0,0:0:0:0:
64,192,292596,1,0,0:0:0:0:
448,192,292671,1,0,0:0:0:0:
192,192,292746,1,0,0:0:0:0:
320,192,292821,1,0,0:0:0:0:
192,192,292896,1,0,0:0:0:0:
64,192,292896,1,0,0:0:0:0:
448,192,292971,1,0,0:0:0:0:
320,192,293046,1,0,0:0:0:0:
192,192,293046,1,0,0:0:0:0:
64,192,293121,1,0,0:0:0:0:
448,192,293196,1,0,0:0:0:0:
320,192,293196,1,0,0:0:0:0:
192,192,293271,1,0,0:0:0:0:
320,192,293346,1,0,0:0:0:0:
192,192,293421,1,0,0:0:0:0:
320,192,293496,1,0,0:0:0:0:
448,192,293496,1,0,0:0:0:0:
192,192,293571,1,0,0:0:0:0:
64,192,293646,1,0,0:0:0:0:
448,192,293721,1,0,0:0:0:0:
192,192,293796,1,0,0:0:0:0:
320,192,293796,1,0,0:0:0:0:
64,192,293871,1,0,0:0:0:0:
448,192,293946,1,0,0:0:0:0:
192,192,294021,1,0,0:0:0:0:
448,192,294096,1,0,0:0:0:0:
320,192,294096,1,0,0:0:0:0:
192,192,294171,1,0,0:0:0:0:
64,192,294246,1,0,0:0:0:0:
320,192,294246,1,0,0:0:0:0:
192,192,294321,1,0,0:0:0:0:
320,192,294396,1,0,0:0:0:0:
448,192,294396,1,0,0:0:0:0:
192,192,294471,1,0,0:0:0:0:
64,192,294546,1,0,0:0:0:0:
448,192,294621,1,0,0:0:0:0:
64,192,294696,1,0,0:0:0:0:
320,192,294696,1,0,0:0:0:0:
192,192,294771,1,0,0:0:0:0:
320,192,294846,1,0,0:0:0:0:
448,192,294846,1,0,0:0:0:0:
192,192,294921,1,0,0:0:0:0:
448,192,294996,1,0,0:0:0:0:
64,192,294996,1,0,0:0:0:0:
192,192,295071,1,0,0:0:0:0:
320,192,295146,1,0,0:0:0:0:
448,192,295221,1,0,0:0:0:0:
192,192,295296,1,0,0:0:0:0:
64,192,295296,1,0,0:0:0:0:
320,192,295371,1,0,0:0:0:0:
448,192,295446,1,0,0:0:0:0:
192,192,295446,1,0,0:0:0:0:
64,192,295521,1,0,0:0:0:0:
448,192,295596,1,0,0:0:0:0:
320,192,295596,1,0,0:0:0:0:
192,192,295671,1,0,0:0:0:0:
320,192,295746,1,0,0:0:0:0:
192,192,295821,1,0,0:0:0:0:
448,192,295896,1,0,0:0:0:0:
320,192,295896,1,0,0:0:0:0:
192,192,295971,1,0,0:0:0:0:
64,192,296046,1,0,0:0:0:0:
448,192,296121,1,0,0:0:0:0:
320,192,296196,1,0,0:0:0:0:
192,192,296196,1,0,0:0:0:0:
64,192,296271,1,0,0:0:0:0:
448,192,296346,1,0,0:0:0:0:
320,192,296421,1,0,0:0:0:0:
192,192,296496,1,0,0:0:0:0:
64,192,296496,1,0,0:0:0:0:
448,192,296571,1,0,0:0:0:0:
320,192,296646,1,0,0:0:0:0:
192,192,296646,1,0,0:0:0:0:
64,192,296721,1,0,0:0:0:0:
448,192,296796,1,0,0:0:0:0:
320,192,296796,1,0,0:0:0:0:
192,192,296871,1,0,0:0:0:0:
320,192,296946,1,0,0:0:0:0:
192,192,297021,1,0,0:0:0:0:
320,192,297096,1,0,0:0:0:0:
448,192,297096,1,0,0:0:0:0:
64,192,297171,1,0,0:0:0:0:
320,192,297246,1,0,0:0:0:0:
192,192,297321,1,0,0:0:0:0:
64,192,297396,1,0,0:0:0:0:
320,192,297396,1,0,0:0:0:0:
192,192,297471,1,0,0:0:0:0:
320,192,297546,1,0,0:0:0:0:
192,192,297621,1,0,0:0:0:0:
448,192,297696,1,0,0:0:0:0:
320,192,297696,1,0,0:0:0:0:
192,192,297771,1,0,0:0:0:0:
64,192,297846,1,0,0:0:0:0:
320,192,297846,1,0,0:0:0:0:
448,192,297921,1,0,0:0:0:0:
192,192,297996,1,0,0:0:0:0:
320,192,298071,1,0,0:0:0:0:
64,192,298146,1,0,0:0:0:0:
192,192,298146,1,0,0:0:0:0:
320,192,298221,1,0,0:0:0:0:
64,192,298296,1,0,0:0:0:0:
448,192,298296,1,0,0:0:0:0:
192,192,298371,1,0,0:0:0:0:
320,192,298446,1,0,0:0:0:0:
448,192,298446,1,0,0:0:0:0:
192,192,298521,1,0,0:0:0:0:
448,192,298596,1,0,0:0:0:0:
64,192,298596,1,0,0:0:0:0:
320,192,298671,1,0,0:0:0:0:
448,192,298746,1,0,0:0:0:0:
192,192,298746,1,0,0:0:0:0:
320,192,298821,1,0,0:0:0:0:
192,192,298896,1,0,0:0:0:0:
64,192,298896,1,0,0:0:0:0:
448,192,298971,1,0,0:0:0:0:
320,192,298971,1,0,0:0:0:0:
192,192,299046,1,0,0:0:0:0:
64,192,299046,1,0,0:0:0:0:
320,192,299121,1,0,0:0:0:0:
448,192,299196,1,0,0:0:0:0:
64,192,299196,1,0,0:0:0:0:
192,192,299271,1,0,0:0:0:0:
448,192,299346,1,0,0:0:0:0:
320,192,299346,1,0,0:0:0:0:
192,192,299421,1,0,0:0:0:0:
64,192,299496,1,0,0:0:0:0:
320,192,299496,1,0,0:0:0:0:
192,192,299571,1,0,0:0:0:0:
320,192,299646,1,0,0:0:0:0:
192,192,299721,1,0,0:0:0:0:
448,192,299796,1,0,0:0:0:0:
320,192,299796,1,0,0:0:0:0:
64,192,299796,1,0,0:0:0:0:
192,192,299871,1,0,0:0:0:0:
64,192,299946,1,0,0:0:0:0:
448,192,299946,1,0,0:0:0:0:
320,192,300021,1,0,0:0:0:0:
64,192,300096,1,0,0:0:0:0:
192,192,300096,1,0,0:0:0:0:
448,192,300171,1,0,0:0:0:0:
320,192,300246,1,0,0:0:0:0:
64,192,300246,1,0,0:0:0:0:
192,192,300321,1,0,0:0:0:0:
64,192,300396,1,0,0:0:0:0:
448,192,300396,1,0,0:0:0:0:
320,192,300471,1,0,0:0:0:0:
192,192,300546,1,0,0:0:0:0:
448,192,300546,1,0,0:0:0:0:
64,192,300621,1,0,0:0:0:0:
448,192,300696,1,0,0:0:0:0:
320,192,300696,1,0,0:0:0:0:
192,192,300771,1,0,0:0:0:0:
64,192,300846,1,0,0:0:0:0:
320,192,300846,1,0,0:0:0:0:
448,192,300921,1,0,0:0:0:0:
192,192,300996,1,0,0:0:0:0:
320,192,300996,1,0,0:0:0:0:
64,192,301071,1,0,0:0:0:0:
448,192,301146,1,0,0:0:0:0:
192,192,301146,1,0,0:0:0:0:
320,192,301221,1,0,0:0:0:0:
64,192,301296,1,0,0:0:0:0:
192,192,301296,1,0,0:0:0:0:
448,192,301371,1,0,0:0:0:0:
320,192,301446,1,0,0:0:0:0:
64,192,301446,1,0,0:0:0:0:
192,192,301521,1,0,0:0:0:0:
448,192,301596,1,0,0:0:0:0:
64,192,301596,1,0,0:0:0:0:
320,192,301671,1,0,0:0:0:0:
192,192,301746,1,0,0:0:0:0:
448,192,301746,1,0,0:0:0:0:
64,192,301821,1,0,0:0:0:0:
320,192,301896,1,0,0:0:0:0:
448,192,301896,1,0,0:0:0:0:
192,192,301896,1,0,0:0:0:0:
192,192,302196,1,0,0:0:0:0:
64,192,302196,1,0,0:0:0:0:
448,192,302196,1,0,0:0:0:0:
320,192,302271,1,0,0:0:0:0:
448,192,302346,1,0,0:0:0:0:
192,192,302346,1,0,0:0:0:0:
64,192,302421,1,0,0:0:0:0:
192,192,302496,1,0,0:0:0:0:
320,192,302496,1,0,0:0:0:0:
448,192,302571,1,0,0:0:0:0:
64,192,302646,1,0,0:0:0:0:
320,192,302646,1,0,0:0:0:0:
192,192,302721,1,0,0:0:0:0:
320,192,302796,1,0,0:0:0:0:
448,192,302796,1,0,0:0:0:0:
64,192,302871,1,0,0:0:0:0:
192,192,302946,1,0,0:0:0:0:
448,192,302946,1,0,0:0:0:0:
320,192,303021,1,0,0:0:0:0:
448,192,303096,1,0,0:0:0:0:
64,192,303096,1,0,0:0:0:0:
192,192,303171,1,0,0:0:0:0:
320,192,303246,1,0,0:0:0:0:
64,192,303246,1,0,0:0:0:0:
448,192,303321,1,0,0:0:0:0:
64,192,303396,1,0,0:0:0:0:
192,192,303396,1,0,0:0:0:0:
320,192,303471,1,0,0:0:0:0:
448,192,303546,1,0,0:0:0:0:
192,192,303546,1,0,0:0:0:0:
64,192,303621,1,0,0:0:0:0:
320,192,303696,1,0,0:0:0:0:
192,192,303696,1,0,0:0:0:0:
448,192,303771,1,0,0:0:0:0:
64,192,303846,1,0,0:0:0:0:
320,192,303846,1,0,0:0:0:0:
192,192,303921,1,0,0:0:0:0:
320,192,303996,1,0,0:0:0:0:
448,192,303996,1,0,0:0:0:0:
64,192,304071,1,0,0:0:0:0:
192,192,304146,1,0,0:0:0:0:
448,192,304146,1,0,0:0:0:0:
320,192,304221,1,0,0:0:0:0:
64,192,304296,1,0,0:0:0:0:
448,192,304296,1,0,0:0:0:0:
192,192,304296,1,0,0:0:0:0:
448,192,304596,1,0,0:0:0:0:
320,192,304596,1,0,0:0:0:0:
64,192,304671,1,0,0:0:0:0:
192,192,304671,1,0,0:0:0:0:
448,192,304746,1,0,0:0:0:0:
320,192,304746,1,0,0:0:0:0:
192,192,304821,1,0,0:0:0:0:
64,192,304821,1,0,0:0:0:0:
320,192,304896,1,0,0:0:0:0:
448,192,304896,1,0,0:0:0:0:
64,192,304971,1,0,0:0:0:0:
192,192,304971,1,0,0:0:0:0:
320,192,305046,1,0,0:0:0:0:
448,192,305046,1,0,0:0:0:0:
64,192,305121,1,0,0:0:0:0:
192,192,305121,1,0,0:0:0:0:
448,192,305196,1,0,0:0:0:0:
320,192,305196,1,0,0:0:0:0:
192,192,305271,1,0,0:0:0:0:
64,192,305271,1,0,0:0:0:0:
320,192,305346,1,0,0:0:0:0:
448,192,305346,1,0,0:0:0:0:
64,192,305421,1,0,0:0:0:0:
192,192,305421,1,0,0:0:0:0:
320,192,305496,1,0,0:0:0:0:
448,192,305496,1,0,0:0:0:0:
64,192,305796,1,0,0:0:0:0:
192,192,305796,1,0,0:0:0:0:
448,192,305871,1,0,0:0:0:0:
320,192,305871,1,0,0:0:0:0:
192,192,305946,1,0,0:0:0:0:
64,192,305946,1,0,0:0:0:0:
320,192,306021,1,0,0:0:0:0:
448,192,306021,1,0,0:0:0:0:
64,192,306096,1,0,0:0:0:0:
192,192,306096,1,0,0:0:0:0:
320,192,306171,1,0,0:0:0:0:
448,192,306171,1,0,0:0:0:0:
64,192,306246,1,0,0:0:0:0:
192,192,306246,1,0,0:0:0:0:
320,192,306321,1,0,0:0:0:0:
448,192,306321,1,0,0:0:0:0:
64,192,306396,1,0,0:0:0:0:
192,192,306396,1,0,0:0:0:0:
448,192,306471,1,0,0:0:0:0:
320,192,306471,1,0,0:0:0:0:
192,192,306546,1,0,0:0:0:0:
64,192,306546,1,0,0:0:0:0:
320,192,306621,1,0,0:0:0:0:
448,192,306621,1,0,0:0:0:0:
64,192,306696,1,0,0:0:0:0:
192,192,306696,1,0,0:0:0:0:
448,192,306996,1,0,0:0:0:0:
320,192,307033,1,0,0:0:0:0:
192,192,307071,1,0,0:0:0:0:
64,192,307108,1,0,0:0:0:0:
320,192,307146,1,0,0:0:0:0:
448,192,307146,1,0,0:0:0:0:
192,192,307221,1,0,0:0:0:0:
64,192,307221,1,0,0:0:0:0:
448,192,307296,1,0,0:0:0:0:
320,192,307296,1,0,0:0:0:0:
64,192,307371,1,0,0:0:0:0:
192,192,307371,1,0,0:0:0:0:
320,192,307446,1,0,0:0:0:0:
448,192,307446,1,0,0:0:0:0:
192,192,307521,1,0,0:0:0:0:
64,192,307521,1,0,0:0:0:0:
448,192,307596,1,0,0:0:0:0:
320,192,307633,1,0,0:0:0:0:
64,192,307671,1,0,0:0:0:0:
192,192,307708,1,0,0:0:0:0:
320,192,307746,1,0,0:0:0:0:
448,192,307746,1,0,0:0:0:0:
192,192,307821,1,0,0:0:0:0:
64,192,307821,1,0,0:0:0:0:
448,192,307896,1,0,0:0:0:0:
320,192,307896,1,0,0:0:0:0:
192,192,307971,1,0,0:0:0:0:
64,192,307971,1,0,0:0:0:0:
448,192,308046,1,0,0:0:0:0:
320,192,308046,1,0,0:0:0:0:
64,192,308121,1,0,0:0:0:0:
192,192,308121,1,0,0:0:0:0:
448,192,308196,1,0,0:0:0:0:
320,192,308233,1,0,0:0:0:0:
192,192,308271,1,0,0:0:0:0:
64,192,308308,1,0,0:0:0:0:
448,192,308346,1,0,0:0:0:0:
320,192,308383,1,0,0:0:0:0:
192,192,308421,1,0,0:0:0:0:
64,192,308458,1,0,0:0:0:0:
320,192,308496,1,0,0:0:0:0:
448,192,308533,1,0,0:0:0:0:
192,192,308571,1,0,0:0:0:0:
64,192,308608,1,0,0:0:0:0:
320,192,308646,1,0,0:0:0:0:
448,192,308683,1,0,0:0:0:0:
192,192,308721,1,0,0:0:0:0:
64,192,308758,1,0,0:0:0:0:
448,192,308796,1,0,0:0:0:0:
320,192,308821,1,0,0:0:0:0:
64,192,308846,1,0,0:0:0:0:
192,192,308871,1,0,0:0:0:0:
448,192,308896,1,0,0:0:0:0:
320,192,308921,1,0,0:0:0:0:
64,192,308946,1,0,0:0:0:0:
192,192,308971,1,0,0:0:0:0:
448,192,308996,1,0,0:0:0:0:
320,192,309021,1,0,0:0:0:0:
64,192,309046,1,0,0:0:0:0:
192,192,309071,1,0,0:0:0:0:
448,192,309096,1,0,0:0:0:0:
320,192,309121,1,0,0:0:0:0:
64,192,309146,1,0,0:0:0:0:
192,192,309171,1,0,0:0:0:0:
448,192,309196,1,0,0:0:0:0:
320,192,309221,1,0,0:0:0:0:
64,192,309246,1,0,0:0:0:0:
192,192,309271,1,0,0:0:0:0:
448,192,309296,1,0,0:0:0:0:
320,192,309321,1,0,0:0:0:0:
64,192,309346,1,0,0:0:0:0:
192,192,309371,1,0,0:0:0:0:
320,192,309396,1,0,0:0:0:0:
448,192,309396,1,0,0:0:0:0:
192,192,309546,1,0,0:0:0:0:
64,192,309696,1,0,0:0:0:0:
448,192,309696,1,0,0:0:0:0:
320,192,309846,1,0,0:0:0:0:
448,192,309846,1,0,0:0:0:0:
192,192,309996,1,0,0:0:0:0:
64,192,309996,1,0,0:0:0:0:
448,192,310146,1,0,0:0:0:0:
64,192,310146,1,0,0:0:0:0:
320,192,310296,1,0,0:0:0:0:
192,192,310296,1,0,0:0:0:0:
64,192,310446,1,0,0:0:0:0:
320,192,310446,1,0,0:0:0:0:
64,192,310596,1,0,0:0:0:0:
448,192,310596,1,0,0:0:0:0:
320,192,310746,1,0,0:0:0:0:
192,192,310746,1,0,0:0:0:0:
320,192,310896,1,0,0:0:0:0:
192,192,310896,1,0,0:0:0:0:
64,192,311046,1,0,0:0:0:0:
448,192,311046,1,0,0:0:0:0:
192,192,311196,1,0,0:0:0:0:
64,192,311196,1,0,0:0:0:0:
320,192,311196,1,0,0:0:0:0:
192,192,311346,1,0,0:0:0:0:
320,192,311346,1,0,0:0:0:0:
448,192,311346,1,0,0:0:0:0:
192,192,311496,1,0,0:0:0:0:
64,192,311496,1,0,0:0:0:0:
448,192,311496,1,0,0:0:0:0:
448,192,311796,1,0,0:0:0:0:
320,192,311796,1,0,0:0:0:0:
192,192,311796,1,0,0:0:0:0:
64,192,311796,1,4,0:0:0:0:
320,192,311871,1,0,0:0:0:0:
192,192,311946,1,0,0:0:0:0:
64,192,312021,1,0,0:0:0:0:
448,192,312096,1,4,0:0:0:0:
320,192,312096,1,8,0:0:0:0:
192,192,312171,1,0,0:0:0:0:
64,192,312246,1,0,0:0:0:0:
448,192,312246,1,0,0:0:0:0:
320,192,312321,1,0,0:0:0:0:
192,192,312396,1,2,0:0:0:0:
64,192,312396,1,4,0:0:0:0:
320,192,312471,1,0,0:0:0:0:
448,192,312546,1,0,0:0:0:0:
64,192,312546,1,0,0:0:0:0:
192,192,312621,1,0,0:0:0:0:
64,192,312696,1,4,0:0:0:0:
320,192,312696,1,0,0:0:0:0:
448,192,312696,1,8,0:0:0:0:
320,192,312996,1,6,0:0:0:0:
192,192,312996,1,0,0:0:0:0:
64,192,312996,1,0,0:0:0:0:
448,192,312996,1,0,0:0:0:0:
192,192,313071,1,0,0:0:0:0:
320,192,313146,1,0,0:0:0:0:
448,192,313221,1,0,0:0:0:0:
64,192,313296,1,8,0:0:0:0:
192,192,313296,1,4,0:0:0:0:
320,192,313371,1,0,0:0:0:0:
448,192,313446,1,0,0:0:0:0:
64,192,313446,1,0,0:0:0:0:
192,192,313521,1,0,0:0:0:0:
320,192,313596,1,2,0:0:0:0:
448,192,313596,1,4,0:0:0:0:
192,192,313671,1,0,0:0:0:0:
64,192,313746,1,0,0:0:0:0:
448,192,313746,1,0,0:0:0:0:
320,192,313821,1,0,0:0:0:0:
192,192,313896,1,4,0:0:0:0:
64,192,313896,1,8,0:0:0:0:
448,192,313896,1,0,0:0:0:0:
192,192,314196,1,4,0:0:0:0:
320,192,314196,1,2,0:0:0:0:
448,192,314196,1,0,0:0:0:0:
64,192,314196,1,0,0:0:0:0:
320,192,314271,1,0,0:0:0:0:
192,192,314346,1,0,0:0:0:0:
64,192,314421,1,0,0:0:0:0:
448,192,314496,1,4,0:0:0:0:
320,192,314496,1,8,0:0:0:0:
192,192,314571,1,0,0:0:0:0:
64,192,314646,1,0,0:0:0:0:
448,192,314646,1,0,0:0:0:0:
192,192,314721,1,0,0:0:0:0:
448,192,314796,1,4,0:0:0:0:
320,192,314796,1,2,0:0:0:0:
64,192,314871,1,0,0:0:0:0:
448,192,314946,1,0,0:0:0:0:
192,192,314946,1,0,0:0:0:0:
320,192,315021,1,0,0:0:0:0:
64,192,315096,1,8,0:0:0:0:
448,192,315096,1,0,0:0:0:0:
192,192,315096,1,4,0:0:0:0:
320,192,315396,1,2,0:0:0:0:
192,192,315396,1,4,0:0:0:0:
64,192,315396,1,0,0:0:0:0:
448,192,315396,1,0,0:0:0:0:
192,192,315471,1,0,0:0:0:0:
320,192,315546,1,0,0:0:0:0:
448,192,315621,1,0,0:0:0:0:
64,192,315696,1,8,0:0:0:0:
192,192,315696,1,4,0:0:0:0:
320,192,315771,1,0,0:0:0:0:
448,192,315846,1,0,0:0:0:0:
64,192,315846,1,0,0:0:0:0:
320,192,315921,1,0,0:0:0:0:
192,192,315996,1,6,0:0:0:0:
64,192,315996,1,0,0:0:0:0:
448,192,316071,1,0,0:0:0:0:
320,192,316146,1,0,0:0:0:0:
192,192,316146,1,0,0:0:0:0:
64,192,316221,1,0,0:0:0:0:
448,192,316296,1,4,0:0:0:0:
192,192,316296,1,8,0:0:0:0:
320,192,316296,1,0,0:0:0:0:
192,192,316596,1,0,0:0:0:0:
448,192,316596,1,0,0:0:0:0:
320,192,316596,1,2,0:0:0:0:
64,192,316596,1,4,0:0:0:0:
320,192,316671,1,0,0:0:0:0:
192,192,316746,1,0,0:0:0:0:
64,192,316821,1,0,0:0:0:0:
320,192,316896,1,4,0:0:0:0:
448,192,316896,1,8,0:0:0:0:
192,192,316971,1,0,0:0:0:0:
64,192,317046,1,0,0:0:0:0:
448,192,317046,1,0,0:0:0:0:
320,192,317121,1,0,0:0:0:0:
64,192,317196,1,4,0:0:0:0:
192,192,317196,1,2,0:0:0:0:
320,192,317271,1,0,0:0:0:0:
448,192,317346,1,0,0:0:0:0:
64,192,317346,1,0,0:0:0:0:
192,192,317421,1,0,0:0:0:0:
320,192,317496,1,0,0:0:0:0:
64,192,317496,1,8,0:0:0:0:
448,192,317496,1,4,0:0:0:0:
320,192,317796,1,2,0:0:0:0:
192,192,317796,1,4,0:0:0:0:
64,192,317796,1,0,0:0:0:0:
448,192,317796,1,0,0:0:0:0:
192,192,317871,1,0,0:0:0:0:
320,192,317946,1,0,0:0:0:0:
448,192,318021,1,0,0:0:0:0:
192,192,318096,1,4,0:0:0:0:
64,192,318096,1,8,0:0:0:0:
320,192,318171,1,0,0:0:0:0:
64,192,318246,1,0,0:0:0:0:
448,192,318246,1,0,0:0:0:0:
192,192,318321,1,0,0:0:0:0:
320,192,318396,1,2,0:0:0:0:
448,192,318396,1,4,0:0:0:0:
192,192,318471,1,0,0:0:0:0:
64,192,318546,1,0,0:0:0:0:
448,192,318546,1,0,0:0:0:0:
320,192,318621,1,0,0:0:0:0:
64,192,318696,1,4,0:0:0:0:
448,192,318696,1,0,0:0:0:0:
192,192,318696,1,8,0:0:0:0:
64,192,318996,1,0,0:0:0:0:
192,192,318996,1,2,0:0:0:0:
448,192,318996,1,0,0:0:0:0:
320,192,318996,1,4,0:0:0:0:
320,192,319071,1,0,0:0:0:0:
192,192,319146,1,0,0:0:0:0:
64,192,319221,1,0,0:0:0:0:
448,192,319296,1,8,0:0:0:0:
320,192,319296,1,4,0:0:0:0:
192,192,319371,1,0,0:0:0:0:
64,192,319446,1,0,0:0:0:0:
448,192,319446,1,0,0:0:0:0:
320,192,319521,1,0,0:0:0:0:
64,192,319596,1,4,0:0:0:0:
192,192,319596,1,2,0:0:0:0:
320,192,319671,1,0,0:0:0:0:
448,192,319746,1,0,0:0:0:0:
64,192,319746,1,0,0:0:0:0:
192,192,319821,1,6,0:0:0:0:
448,192,319896,1,0,0:0:0:0:
320,192,319896,1,4,0:0:0:0:
64,192,319971,1,0,0:0:0:0:
192,192,319971,1,0,0:0:0:0:
320,192,320046,1,0,0:0:0:0:
192,192,320121,1,0,0:0:0:0:
64,192,320196,1,4,0:0:0:0:
448,192,320196,1,0,0:0:0:0:
320,192,320196,1,0,0:0:0:0:
192,192,320346,1,0,0:0:0:0:
320,192,320346,1,4,0:0:0:0:
64,192,320496,1,0,0:0:0:0:
448,192,320496,1,4,0:0:0:0:
192,192,320496,1,8,0:0:0:0:
320,192,320646,1,4,0:0:0:0:
448,192,320646,1,0,0:0:0:0:
64,192,320721,1,4,0:0:0:0:
192,192,320721,1,0,0:0:0:0:
320,192,320871,1,0,0:0:0:0:
192,192,320871,1,4,0:0:0:0:
320,192,321021,1,4,0:0:0:0:
64,192,321096,1,4,0:0:0:0:
192,192,321096,1,8,0:0:0:0:
448,192,321096,1,0,0:0:0:0:
320,192,321171,1,0,0:0:0:0:
192,192,321246,1,0,0:0:0:0:
448,192,321396,1,4,0:0:0:0:
320,192,321396,128,0,321546:0:0:0:0:
192,192,321546,1,0,0:0:0:0:
64,192,321546,1,0,0:0:0:0:
320,192,321696,1,4,0:0:0:0:
448,192,321696,1,8,0:0:0:0:
64,192,321696,1,0,0:0:0:0:
192,192,321771,1,0,0:0:0:0:
64,192,321846,1,0,0:0:0:0:
448,192,321846,1,0,0:0:0:0:
320,192,321921,1,0,0:0:0:0:
64,192,321996,1,2,0:0:0:0:
192,192,321996,1,4,0:0:0:0:
320,192,322071,1,0,0:0:0:0:
448,192,322146,1,0,0:0:0:0:
64,192,322146,1,0,0:0:0:0:
192,192,322221,1,0,0:0:0:0:
320,192,322296,1,4,0:0:0:0:
64,192,322296,1,0,0:0:0:0:
448,192,322296,1,8,0:0:0:0:
320,192,322596,1,2,0:0:0:0:
192,192,322596,1,0,0:0:0:0:
64,192,322596,1,4,0:0:0:0:
448,192,322596,1,0,0:0:0:0:
192,192,322671,1,0,0:0:0:0:
320,192,322746,1,0,0:0:0:0:
448,192,322821,1,0,0:0:0:0:
192,192,322896,1,4,0:0:0:0:
64,192,322896,1,8,0:0:0:0:
320,192,322971,1,0,0:0:0:0:
64,192,323046,1,0,0:0:0:0:
448,192,323046,1,0,0:0:0:0:
192,192,323121,1,0,0:0:0:0:
320,192,323196,1,4,0:0:0:0:
448,192,323196,1,2,0:0:0:0:
192,192,323271,1,0,0:0:0:0:
64,192,323346,1,0,0:0:0:0:
448,192,323346,1,0,0:0:0:0:
320,192,323421,1,0,0:0:0:0:
64,192,323496,1,8,0:0:0:0:
448,192,323496,1,0,0:0:0:0:
192,192,323496,1,4,0:0:0:0:
64,192,323796,1,0,0:0:0:0:
192,192,323796,1,2,0:0:0:0:
448,192,323796,1,0,0:0:0:0:
320,192,323796,1,4,0:0:0:0:
320,192,323871,1,0,0:0:0:0:
192,192,323946,1,0,0:0:0:0:
64,192,324021,1,0,0:0:0:0:
448,192,324096,1,4,0:0:0:0:
320,192,324096,1,8,0:0:0:0:
192,192,324171,1,0,0:0:0:0:
64,192,324246,1,0,0:0:0:0:
448,192,324246,1,0,0:0:0:0:
192,192,324321,1,0,0:0:0:0:
448,192,324396,1,2,0:0:0:0:
320,192,324396,1,4,0:0:0:0:
64,192,324471,1,0,0:0:0:0:
192,192,324546,1,0,0:0:0:0:
320,192,324546,1,0,0:0:0:0:
448,192,324621,1,0,0:0:0:0:
64,192,324696,1,0,0:0:0:0:
320,192,324696,1,4,0:0:0:0:
192,192,324696,1,8,0:0:0:0:
448,192,324996,1,0,0:0:0:0:
320,192,324996,1,2,0:0:0:0:
64,192,324996,1,0,0:0:0:0:
192,192,324996,1,4,0:0:0:0:
192,192,325071,1,0,0:0:0:0:
320,192,325146,1,0,0:0:0:0:
448,192,325221,1,0,0:0:0:0:
64,192,325296,1,8,0:0:0:0:
192,192,325296,1,4,0:0:0:0:
320,192,325371,1,0,0:0:0:0:
448,192,325446,1,0,0:0:0:0:
192,192,325521,1,0,0:0:0:0:
64,192,325521,1,0,0:0:0:0:
320,192,325596,1,0,0:0:0:0:
64,192,325671,1,0,0:0:0:0:
448,192,325671,1,0,0:0:0:0:
320,192,325746,1,0,0:0:0:0:
192,192,325821,1,0,0:0:0:0:
64,192,325821,1,0,0:0:0:0:
448,192,325896,1,12,0:0:0:0:
320,192,325971,1,0,0:0:0:0:
192,192,326046,1,0,0:0:0:0:
64,192,326046,1,0,0:0:0:0:
320,192,326121,1,0,0:0:0:0:
192,192,326196,1,0,0:0:0:0:
64,192,326196,1,4,0:0:0:0:
448,192,326196,1,2,0:0:0:0:
320,192,326271,1,0,0:0:0:0:
64,192,326346,1,0,0:0:0:0:
192,192,326421,1,0,0:0:0:0:
448,192,326496,1,4,0:0:0:0:
320,192,326496,1,8,0:0:0:0:
192,192,326571,1,0,0:0:0:0:
320,192,326646,1,0,0:0:0:0:
192,192,326721,1,0,0:0:0:0:
64,192,326721,1,4,0:0:0:0:
448,192,326796,1,2,0:0:0:0:
64,192,326871,1,0,0:0:0:0:
320,192,326871,1,4,0:0:0:0:
192,192,326946,1,0,0:0:0:0:
448,192,327021,1,0,0:0:0:0:
320,192,327021,1,4,0:0:0:0:
192,192,327096,128,4,327396:0:0:0:0:
64,192,327096,128,4,327396:0:0:0:0:
320,192,327396,1,0,0:0:0:0:
448,192,327396,1,4,0:0:0:0:
448,192,327546,1,4,0:0:0:0:
192,192,327546,1,0,0:0:0:0:
320,192,327621,1,0,0:0:0:0:
64,192,327696,1,4,0:0:0:0:
192,192,327696,1,8,0:0:0:0:
448,192,327696,1,0,0:0:0:0:
320,192,327771,1,0,0:0:0:0:
192,192,327846,1,0,0:0:0:0:
448,192,327921,1,0,0:0:0:0:
64,192,327921,1,0,0:0:0:0:
320,192,327996,1,0,0:0:0:0:
192,192,328071,1,0,0:0:0:0:
64,192,328071,1,4,0:0:0:0:
448,192,328146,1,0,0:0:0:0:
64,192,328221,1,4,0:0:0:0:
192,192,328221,1,0,0:0:0:0:
320,192,328296,1,0,0:0:0:0:
320,192,328371,1,0,0:0:0:0:
320,192,328446,1,0,0:0:0:0:
320,192,328521,1,0,0:0:0:0:
192,192,328596,1,0,0:0:0:0:
64,192,328596,1,4,0:0:0:0:
320,192,330996,1,0,0:0:0:0:
64,192,330996,1,0,0:0:0:0:
192,192,330996,1,4,0:0:0:0:
448,192,330996,1,2,0:0:0:0:
320,192,331071,1,0,0:0:0:0:
192,192,331146,1,0,0:0:0:0:
64,192,331221,1,0,0:0:0:0:
448,192,331296,1,8,0:0:0:0:
320,192,331296,1,4,0:0:0:0:
192,192,331371,1,0,0:0:0:0:
448,192,331446,1,0,0:0:0:0:
64,192,331446,1,0,0:0:0:0:
320,192,331521,1,0,0:0:0:0:
192,192,331596,1,4,0:0:0:0:
64,192,331596,1,2,0:0:0:0:
320,192,331671,1,0,0:0:0:0:
64,192,331746,1,0,0:0:0:0:
448,192,331746,1,0,0:0:0:0:
192,192,331821,1,0,0:0:0:0:
448,192,331896,1,0,0:0:0:0:
64,192,331896,1,4,0:0:0:0:
320,192,331896,1,8,0:0:0:0:
192,192,331971,1,0,0:0:0:0:
320,192,332046,1,0,0:0:0:0:
192,192,332121,1,0,0:0:0:0:
64,192,332196,1,0,0:0:0:0:
448,192,332196,1,4,0:0:0:0:
320,192,332196,1,2,0:0:0:0:
192,192,332196,1,0,0:0:0:0:
448,192,332271,1,0,0:0:0:0:
64,192,332346,1,0,0:0:0:0:
192,192,332421,1,0,0:0:0:0:
320,192,332496,1,12,0:0:0:0:
448,192,332496,1,0,0:0:0:0:
192,192,332571,1,0,0:0:0:0:
448,192,332646,1,0,0:0:0:0:
64,192,332646,1,0,0:0:0:0:
320,192,332721,1,0,0:0:0:0:
192,192,332796,1,0,0:0:0:0:
64,192,332796,1,6,0:0:0:0:
320,192,332871,1,0,0:0:0:0:
448,192,332946,1,0,0:0:0:0:
64,192,332946,1,0,0:0:0:0:
192,192,333021,1,0,0:0:0:0:
448,192,333096,1,0,0:0:0:0:
64,192,333096,1,8,0:0:0:0:
320,192,333096,1,4,0:0:0:0:
192,192,333171,1,0,0:0:0:0:
320,192,333246,1,0,0:0:0:0:
192,192,333321,1,0,0:0:0:0:
448,192,333396,1,0,0:0:0:0:
320,192,333396,1,4,0:0:0:0:
64,192,333396,1,0,0:0:0:0:
192,192,333396,1,2,0:0:0:0:
448,192,333471,1,0,0:0:0:0:
64,192,333546,1,0,0:0:0:0:
192,192,333621,1,0,0:0:0:0:
320,192,333696,1,12,0:0:0:0:
448,192,333696,1,0,0:0:0:0:
192,192,333771,1,0,0:0:0:0:
448,192,333846,1,0,0:0:0:0:
64,192,333846,1,0,0:0:0:0:
320,192,333921,1,0,0:0:0:0:
192,192,333996,1,6,0:0:0:0:
64,192,333996,1,0,0:0:0:0:
320,192,334071,1,0,0:0:0:0:
64,192,334146,1,0,0:0:0:0:
448,192,334146,1,0,0:0:0:0:
192,192,334221,1,0,0:0:0:0:
64,192,334296,1,8,0:0:0:0:
448,192,334296,1,0,0:0:0:0:
320,192,334296,1,4,0:0:0:0:
192,192,334371,1,0,0:0:0:0:
320,192,334446,1,0,0:0:0:0:
192,192,334521,1,0,0:0:0:0:
64,192,334596,1,0,0:0:0:0:
192,192,334596,1,4,0:0:0:0:
448,192,334596,1,0,0:0:0:0:
320,192,334596,1,2,0:0:0:0:
448,192,334671,1,0,0:0:0:0:
64,192,334746,1,0,0:0:0:0:
192,192,334821,1,0,0:0:0:0:
320,192,334896,1,12,0:0:0:0:
448,192,334896,1,0,0:0:0:0:
192,192,334971,1,0,0:0:0:0:
448,192,335046,1,0,0:0:0:0:
64,192,335046,1,0,0:0:0:0:
320,192,335121,1,0,0:0:0:0:
192,192,335196,1,6,0:0:0:0:
64,192,335196,1,0,0:0:0:0:
320,192,335271,1,0,0:0:0:0:
64,192,335346,1,0,0:0:0:0:
448,192,335346,1,0,0:0:0:0:
192,192,335421,1,0,0:0:0:0:
64,192,335496,1,8,0:0:0:0:
448,192,335496,1,0,0:0:0:0:
320,192,335496,1,4,0:0:0:0:
192,192,335571,1,0,0:0:0:0:
320,192,335646,1,0,0:0:0:0:
192,192,335721,1,0,0:0:0:0:
192,192,335796,1,4,0:0:0:0:
448,192,335796,1,0,0:0:0:0:
320,192,335796,1,2,0:0:0:0:
64,192,335796,1,0,0:0:0:0:
448,192,335871,1,0,0:0:0:0:
192,192,335946,1,0,0:0:0:0:
64,192,335946,1,0,0:0:0:0:
320,192,336021,1,0,0:0:0:0:
448,192,336096,1,8,0:0:0:0:
64,192,336096,1,4,0:0:0:0:
192,192,336171,1,0,0:0:0:0:
448,192,336246,1,0,0:0:0:0:
320,192,336246,1,0,0:0:0:0:
192,192,336321,1,0,0:0:0:0:
320,192,336396,1,6,0:0:0:0:
448,192,336396,1,0,0:0:0:0:
192,192,336471,1,0,0:0:0:0:
448,192,336546,1,0,0:0:0:0:
64,192,336546,1,0,0:0:0:0:
320,192,336621,1,0,0:0:0:0:
64,192,336696,1,8,0:0:0:0:
448,192,336696,1,0,0:0:0:0:
192,192,336696,1,4,0:0:0:0:
320,192,336771,1,0,0:0:0:0:
192,192,336846,1,0,0:0:0:0:
320,192,336921,1,0,0:0:0:0:
320,192,336996,1,4,0:0:0:0:
192,192,336996,1,0,0:0:0:0:
64,192,336996,1,2,0:0:0:0:
448,192,336996,1,0,0:0:0:0:
64,192,337071,1,0,0:0:0:0:
448,192,337146,1,0,0:0:0:0:
320,192,337221,1,0,0:0:0:0:
192,192,337296,1,12,0:0:0:0:
64,192,337296,1,0,0:0:0:0:
320,192,337371,1,0,0:0:0:0:
64,192,337446,1,0,0:0:0:0:
448,192,337446,1,0,0:0:0:0:
192,192,337521,1,0,0:0:0:0:
320,192,337596,1,6,0:0:0:0:
448,192,337596,1,0,0:0:0:0:
192,192,337671,1,0,0:0:0:0:
64,192,337746,1,0,0:0:0:0:
448,192,337746,1,0,0:0:0:0:
320,192,337821,1,0,0:0:0:0:
64,192,337896,1,0,0:0:0:0:
448,192,337896,1,8,0:0:0:0:
192,192,337896,1,4,0:0:0:0:
320,192,337971,1,0,0:0:0:0:
192,192,338046,1,0,0:0:0:0:
320,192,338121,1,0,0:0:0:0:
64,192,338196,1,0,0:0:0:0:
192,192,338196,1,2,0:0:0:0:
448,192,338196,1,0,0:0:0:0:
320,192,338196,1,4,0:0:0:0:
64,192,338271,1,0,0:0:0:0:
320,192,338346,1,0,0:0:0:0:
448,192,338346,1,0,0:0:0:0:
192,192,338421,1,0,0:0:0:0:
64,192,338421,1,0,0:0:0:0:
320,192,338496,1,0,0:0:0:0:
448,192,338496,1,0,0:0:0:0:
192,192,338571,1,0,0:0:0:0:
320,192,338646,1,0,0:0:0:0:
192,192,338721,1,4,0:0:0:0:
64,192,338721,1,0,0:0:0:0:
448,192,338796,1,0,0:0:0:0:
320,192,338796,1,4,0:0:0:0:
192,192,338871,1,0,0:0:0:0:
320,192,338946,1,0,0:0:0:0:
448,192,338946,1,0,0:0:0:0:
64,192,339021,1,0,0:0:0:0:
192,192,339021,1,0,0:0:0:0:
320,192,339096,1,0,0:0:0:0:
192,192,339171,1,0,0:0:0:0:
64,192,339171,1,0,0:0:0:0:
448,192,339246,1,0,0:0:0:0:
320,192,339246,1,0,0:0:0:0:
192,192,339321,1,0,0:0:0:0:
320,192,339396,1,4,0:0:0:0:
448,192,339396,1,0,0:0:0:0:
64,192,339396,1,0,0:0:0:0:
192,192,339471,1,0,0:0:0:0:
64,192,339546,1,0,0:0:0:0:
448,192,339546,1,0,0:0:0:0:
320,192,339621,1,0,0:0:0:0:
64,192,339696,1,4,0:0:0:0:
448,192,339696,1,8,0:0:0:0:
192,192,339696,1,0,0:0:0:0:
320,192,339771,1,0,0:0:0:0:
192,192,339846,1,4,0:0:0:0:
64,192,339846,1,0,0:0:0:0:
64,192,339921,1,4,0:0:0:0:
448,192,339921,1,0,0:0:0:0:
64,192,340071,1,0,0:0:0:0:
192,192,340071,1,4,0:0:0:0:
320,192,340146,1,4,0:0:0:0:
448,192,340146,1,0,0:0:0:0:
192,192,340221,1,4,0:0:0:0:
64,192,340221,1,0,0:0:0:0:
448,192,340296,1,0,0:0:0:0:
320,192,340296,1,4,0:0:0:0:
192,192,340446,1,8,0:0:0:0:
448,192,340446,1,0,0:0:0:0:
64,192,340446,1,4,0:0:0:0:
320,192,340596,1,0,0:0:0:0:
64,192,340596,1,0,0:0:0:0:
192,192,340596,1,4,0:0:0:0:
448,192,340596,1,8,0:0:0:0:
320,192,340671,1,0,0:0:0:0:
192,192,340746,1,0,0:0:0:0:
64,192,340821,1,0,0:0:0:0:
448,192,340896,1,4,0:0:0:0:
320,192,340896,1,8,0:0:0:0:
192,192,340971,1,0,0:0:0:0:
448,192,341046,1,0,0:0:0:0:
64,192,341046,1,0,0:0:0:0:
320,192,341121,1,0,0:0:0:0:
192,192,341196,1,4,0:0:0:0:
64,192,341196,1,8,0:0:0:0:
320,192,341271,1,0,0:0:0:0:
64,192,341346,1,0,0:0:0:0:
448,192,341346,1,0,0:0:0:0:
192,192,341421,1,0,0:0:0:0:
448,192,341496,1,0,0:0:0:0:
64,192,341496,1,8,0:0:0:0:
320,192,341496,1,4,0:0:0:0:
192,192,341571,1,0,0:0:0:0:
320,192,341646,1,0,0:0:0:0:
192,192,341721,1,0,0:0:0:0:
64,192,341796,1,2,0:0:0:0:
448,192,341796,1,0,0:0:0:0:
320,192,341796,1,4,0:0:0:0:
192,192,341796,1,0,0:0:0:0:
448,192,341871,1,0,0:0:0:0:
64,192,341946,1,0,0:0:0:0:
192,192,342021,1,0,0:0:0:0:
320,192,342096,1,12,0:0:0:0:
448,192,342096,1,0,0:0:0:0:
192,192,342171,1,0,0:0:0:0:
448,192,342246,1,0,0:0:0:0:
64,192,342246,1,0,0:0:0:0:
320,192,342321,1,0,0:0:0:0:
192,192,342396,1,6,0:0:0:0:
64,192,342396,1,0,0:0:0:0:
320,192,342471,1,0,0:0:0:0:
448,192,342546,1,0,0:0:0:0:
64,192,342546,1,0,0:0:0:0:
192,192,342621,1,0,0:0:0:0:
448,192,342696,1,8,0:0:0:0:
64,192,342696,1,4,0:0:0:0:
320,192,342696,1,0,0:0:0:0:
192,192,342771,1,0,0:0:0:0:
320,192,342846,1,0,0:0:0:0:
192,192,342921,1,0,0:0:0:0:
448,192,342996,1,0,0:0:0:0:
320,192,342996,1,4,0:0:0:0:
64,192,342996,1,0,0:0:0:0:
192,192,342996,1,2,0:0:0:0:
448,192,343071,1,0,0:0:0:0:
64,192,343146,1,0,0:0:0:0:
192,192,343221,1,0,0:0:0:0:
448,192,343296,1,8,0:0:0:0:
320,192,343296,1,4,0:0:0:0:
192,192,343371,1,0,0:0:0:0:
64,192,343446,1,0,0:0:0:0:
448,192,343446,1,0,0:0:0:0:
320,192,343521,1,0,0:0:0:0:
64,192,343596,1,4,0:0:0:0:
192,192,343596,1,2,0:0:0:0:
320,192,343671,1,0,0:0:0:0:
448,192,343746,1,0,0:0:0:0:
64,192,343746,1,0,0:0:0:0:
192,192,343821,1,0,0:0:0:0:
320,192,343896,1,4,0:0:0:0:
64,192,343896,1,0,0:0:0:0:
448,192,343896,1,8,0:0:0:0:
192,192,343971,1,0,0:0:0:0:
320,192,344046,1,0,0:0:0:0:
192,192,344121,1,0,0:0:0:0:
64,192,344196,1,0,0:0:0:0:
192,192,344196,1,4,0:0:0:0:
448,192,344196,1,0,0:0:0:0:
320,192,344196,1,2,0:0:0:0:
448,192,344271,1,0,0:0:0:0:
192,192,344346,1,0,0:0:0:0:
64,192,344346,1,0,0:0:0:0:
320,192,344421,1,0,0:0:0:0:
448,192,344496,1,8,0:0:0:0:
64,192,344496,1,4,0:0:0:0:
192,192,344571,1,0,0:0:0:0:
320,192,344646,1,4,0:0:0:0:
448,192,344646,1,0,0:0:0:0:
192,192,344721,1,4,0:0:0:0:
64,192,344721,1,0,0:0:0:0:
64,192,344796,1,0,0:0:0:0:
448,192,344796,1,4,0:0:0:0:
320,192,344871,1,4,0:0:0:0:
192,192,344946,1,4,0:0:0:0:
64,192,344946,1,0,0:0:0:0:
320,192,345021,1,4,0:0:0:0:
192,192,345096,1,4,0:0:0:0:
64,192,345096,1,8,0:0:0:0:
320,192,345171,1,4,0:0:0:0:
448,192,345171,1,0,0:0:0:0:
192,192,345246,1,4,0:0:0:0:
64,192,345246,1,0,0:0:0:0:
320,192,345321,1,4,0:0:0:0:
448,192,345321,1,0,0:0:0:0:
192,192,345396,128,4,345621:0:0:0:0:
64,192,345396,128,2,345546:0:0:0:0:
320,192,345696,1,0,0:0:0:0:
448,192,345696,1,0,0:0:0:0:
192,192,345771,1,0,0:0:0:0:
64,192,345771,1,0,0:0:0:0:
320,192,345846,1,0,0:0:0:0:
448,192,345846,1,0,0:0:0:0:
192,192,345921,1,0,0:0:0:0:
64,192,345921,1,0,0:0:0:0:
320,192,345996,1,0,0:0:0:0:
448,192,345996,1,0,0:0:0:0:
192,192,346071,1,0,0:0:0:0:
64,192,346071,1,0,0:0:0:0:
320,192,346146,1,0,0:0:0:0:
448,192,346146,1,0,0:0:0:0:
192,192,346221,1,0,0:0:0:0:
64,192,346221,1,0,0:0:0:0:
320,192,346296,1,0,0:0:0:0:
448,192,346296,1,0,0:0:0:0:
192,192,346371,1,0,0:0:0:0:
64,192,346371,1,0,0:0:0:0:
320,192,346446,1,0,0:0:0:0:
448,192,346446,1,0,0:0:0:0:
192,192,346521,1,0,0:0:0:0:
64,192,346521,1,0,0:0:0:0:
320,192,346596,1,0,0:0:0:0:
448,192,346596,1,0,0:0:0:0:
192,192,346896,1,0,0:0:0:0:
64,192,346896,1,0,0:0:0:0:
320,192,346971,1,0,0:0:0:0:
448,192,346971,1,0,0:0:0:0:
192,192,347046,1,0,0:0:0:0:
64,192,347046,1,0,0:0:0:0:
320,192,347121,1,0,0:0:0:0:
448,192,347121,1,0,0:0:0:0:
192,192,347196,1,0,0:0:0:0:
64,192,347196,1,0,0:0:0:0:
448,192,347271,1,0,0:0:0:0:
320,192,347271,1,0,0:0:0:0:
64,192,347346,1,0,0:0:0:0:
192,192,347346,1,0,0:0:0:0:
320,192,347421,1,0,0:0:0:0:
448,192,347421,1,0,0:0:0:0:
192,192,347496,1,0,0:0:0:0:
64,192,347496,1,0,0:0:0:0:
320,192,347571,1,0,0:0:0:0:
192,192,347646,1,0,0:0:0:0:
320,192,347721,1,0,0:0:0:0:
192,192,347796,1,0,0:0:0:0:
64,192,347796,1,0,0:0:0:0:
320,192,347871,1,0,0:0:0:0:
448,192,347871,1,0,0:0:0:0:
192,192,347946,1,0,0:0:0:0:
64,192,347946,1,0,0:0:0:0:
320,192,348021,1,0,0:0:0:0:
448,192,348021,1,0,0:0:0:0:
192,192,348096,1,0,0:0:0:0:
64,192,348096,1,0,0:0:0:0:
320,192,348171,1,0,0:0:0:0:
448,192,348171,1,0,0:0:0:0:
192,192,348246,1,0,0:0:0:0:
64,192,348246,1,0,0:0:0:0:
320,192,348321,1,0,0:0:0:0:
448,192,348321,1,0,0:0:0:0:
192,192,348396,1,0,0:0:0:0:
64,192,348396,1,0,0:0:0:0:
320,192,348471,1,0,0:0:0:0:
448,192,348471,1,0,0:0:0:0:
192,192,348546,1,0,0:0:0:0:
64,192,348546,1,0,0:0:0:0:
320,192,348621,1,0,0:0:0:0:
448,192,348621,1,0,0:0:0:0:
192,192,348696,1,0,0:0:0:0:
64,192,348696,1,0,0:0:0:0:
448,192,348996,1,0,0:0:0:0:
320,192,348996,1,0,0:0:0:0:
192,192,349071,1,0,0:0:0:0:
64,192,349071,1,0,0:0:0:0:
320,192,349146,1,0,0:0:0:0:
448,192,349146,1,0,0:0:0:0:
192,192,349221,1,0,0:0:0:0:
64,192,349221,1,0,0:0:0:0:
320,192,349296,1,0,0:0:0:0:
448,192,349296,1,0,0:0:0:0:
192,192,349371,1,0,0:0:0:0:
64,192,349371,1,0,0:0:0:0:
320,192,349446,1,0,0:0:0:0:
448,192,349446,1,0,0:0:0:0:
192,192,349521,1,0,0:0:0:0:
64,192,349521,1,0,0:0:0:0:
320,192,349596,1,0,0:0:0:0:
448,192,349596,1,0,0:0:0:0:
192,192,349671,1,0,0:0:0:0:
64,192,349671,1,0,0:0:0:0:
320,192,349746,1,0,0:0:0:0:
448,192,349746,1,0,0:0:0:0:
192,192,349821,1,0,0:0:0:0:
64,192,349821,1,0,0:0:0:0:
320,192,349896,1,0,0:0:0:0:
448,192,349896,1,0,0:0:0:0:
448,192,350196,1,0,0:0:0:0:
320,192,350233,1,0,0:0:0:0:
192,192,350271,1,0,0:0:0:0:
64,192,350308,1,0,0:0:0:0:
320,192,350346,1,0,0:0:0:0:
448,192,350346,1,0,0:0:0:0:
192,192,350421,1,0,0:0:0:0:
64,192,350421,1,0,0:0:0:0:
320,192,350496,1,0,0:0:0:0:
448,192,350496,1,0,0:0:0:0:
192,192,350571,1,0,0:0:0:0:
64,192,350571,1,0,0:0:0:0:
320,192,350646,1,0,0:0:0:0:
448,192,350646,1,0,0:0:0:0:
192,192,350721,1,0,0:0:0:0:
64,192,350721,1,0,0:0:0:0:
448,192,350796,1,0,0:0:0:0:
320,192,350833,1,0,0:0:0:0:
192,192,350871,1,0,0:0:0:0:
64,192,350908,1,0,0:0:0:0:
320,192,350946,1,0,0:0:0:0:
448,192,350946,1,0,0:0:0:0:
192,192,351021,1,0,0:0:0:0:
64,192,351021,1,0,0:0:0:0:
320,192,351096,1,0,0:0:0:0:
448,192,351096,1,0,0:0:0:0:
192,192,351171,1,0,0:0:0:0:
64,192,351171,1,0,0:0:0:0:
320,192,351246,1,0,0:0:0:0:
448,192,351246,1,0,0:0:0:0:
192,192,351321,1,0,0:0:0:0:
64,192,351321,1,0,0:0:0:0:
448,192,351396,1,0,0:0:0:0:
320,192,351433,1,0,0:0:0:0:
64,192,351471,1,0,0:0:0:0:
192,192,351508,1,0,0:0:0:0:
448,192,351546,1,0,0:0:0:0:
320,192,351583,1,0,0:0:0:0:
64,192,351621,1,0,0:0:0:0:
192,192,351658,1,0,0:0:0:0:
448,192,351696,1,0,0:0:0:0:
320,192,351733,1,0,0:0:0:0:
64,192,351771,1,0,0:0:0:0:
192,192,351808,1,0,0:0:0:0:
448,192,351846,1,0,0:0:0:0:
320,192,351883,1,0,0:0:0:0:
64,192,351921,1,0,0:0:0:0:
192,192,351958,1,0,0:0:0:0:
448,192,351996,1,0,0:0:0:0:
320,192,351996,1,0,0:0:0:0:
192,192,352596,1,8,0:0:0:0:
64,192,352596,1,0,0:0:0:0:
448,192,352596,128,0,352896:0:0:0:0:
320,192,352746,128,0,353046:0:0:0:0:
192,192,352896,128,0,353196:0:0:0:0:
64,192,353046,128,0,353796:0:0:0:0:
448,192,353796,128,0,354096:0:0:0:0:
192,192,353946,128,0,354246:0:0:0:0:
320,192,354096,128,0,354396:0:0:0:0:
448,192,354246,128,0,354996:0:0:0:0:
64,192,354696,128,0,354996:0:0:0:0:
320,192,354996,128,0,355296:0:0:0:0:
192,192,355146,128,0,355446:0:0:0:0:
448,192,355296,128,0,355596:0:0:0:0:
64,192,355446,128,0,355896:0:0:0:0:
448,192,355896,128,0,355971:0:0:0:0:
320,192,355971,128,0,356046:0:0:0:0:
192,192,356046,128,0,356121:0:0:0:0:
64,192,356121,128,0,356196:0:0:0:0:
448,192,356196,128,0,356496:0:0:0:0:
320,192,356346,128,0,356646:0:0:0:0:
192,192,356496,128,0,356796:0:0:0:0:
64,192,356646,128,0,356946:0:0:0:0:
320,192,356796,128,0,357096:0:0:0:0:
448,192,356946,128,0,357246:0:0:0:0:
192,192,357096,128,0,357396:0:0:0:0:
64,192,357246,128,0,357546:0:0:0:0:
448,192,357396,128,0,357696:0:0:0:0:
320,192,357546,128,0,357846:0:0:0:0:
192,192,357696,128,0,357996:0:0:0:0:
64,192,357846,128,0,358596:0:0:0:0:
448,192,358596,128,0,358896:0:0:0:0:
192,192,358746,128,0,359046:0:0:0:0:
320,192,358896,128,0,359196:0:0:0:0:
448,192,359046,128,0,359796:0:0:0:0:
64,192,359496,128,0,359796:0:0:0:0:
320,192,359796,128,0,360096:0:0:0:0:
192,192,359946,128,0,360246:0:0:0:0:
448,192,360096,128,0,360396:0:0:0:0:
64,192,360246,128,0,361596:0:0:0:0:
192,192,360696,128,0,360771:0:0:0:0:
320,192,360771,128,0,360846:0:0:0:0:
448,192,360846,128,0,360921:0:0:0:0:
192,192,360996,128,0,361596:0:0:0:0:
320,192,361596,128,0,361896:0:0:0:0:
64,192,361896,128,0,362196:0:0:0:0:
192,192,362046,128,0,362196:0:0:0:0:
448,192,362196,128,0,363396:0:0:0:0:
320,192,362196,128,0,362496:0:0:0:0:
192,192,362346,128,0,362646:0:0:0:0:
64,192,362496,128,0,362796:0:0:0:0:
320,192,362646,128,0,362946:0:0:0:0:
64,192,363396,128,0,363696:0:0:0:0:
192,192,363546,128,0,363846:0:0:0:0:
320,192,363696,128,0,363996:0:0:0:0:
448,192,363846,128,0,364146:0:0:0:0:
64,192,363996,128,0,364146:0:0:0:0:
192,192,364146,128,0,364296:0:0:0:0:
448,192,364296,128,0,364446:0:0:0:0:
320,192,364446,128,0,364596:0:0:0:0:
64,192,364596,128,0,364896:0:0:0:0:
448,192,364596,128,0,364746:0:0:0:0:
320,192,364746,128,0,365046:0:0:0:0:
192,192,364746,128,0,364896:0:0:0:0:
448,192,364896,128,0,365196:0:0:0:0:
192,192,365046,128,0,365346:0:0:0:0:
64,192,365496,128,0,365571:0:0:0:0:
192,192,365571,128,0,365646:0:0:0:0:
320,192,365646,128,0,365721:0:0:0:0:
448,192,365721,128,0,365796:0:0:0:0:
64,192,365796,128,0,365946:0:0:0:0:
192,192,365946,128,0,366096:0:0:0:0:
320,192,366096,128,0,366246:0:0:0:0:
448,192,366246,128,0,366396:0:0:0:0:
192,192,366396,128,0,366546:0:0:0:0:
64,192,366396,128,0,366696:0:0:0:0:
320,192,366546,128,0,366696:0:0:0:0:
448,192,366696,128,0,366996:0:0:0:0:
64,192,366996,128,0,367146:0:0:0:0:
320,192,366996,128,0,367746:0:0:0:0:
192,192,367146,128,0,367296:0:0:0:0:
448,192,367446,128,0,367746:0:0:0:0:
64,192,367896,128,0,368046:0:0:0:0:
192,192,368046,128,0,368946:0:0:0:0:
448,192,368196,128,0,368496:0:0:0:0:
320,192,368346,128,0,368646:0:0:0:0:
64,192,368496,128,0,368796:0:0:0:0:
64,192,368946,128,0,369096:0:0:0:0:
320,192,369096,128,0,369246:0:0:0:0:
448,192,369096,128,0,369396:0:0:0:0:
192,192,369096,128,0,369246:0:0:0:0:
64,192,369246,128,0,370596:0:0:0:0:
192,192,369396,128,0,369696:0:0:0:0:
320,192,369546,128,0,369846:0:0:0:0:
448,192,369696,128,0,369996:0:0:0:0:
192,192,369846,128,0,370146:0:0:0:0:
448,192,370296,128,0,370371:0:0:0:0:
192,192,370371,128,0,370446:0:0:0:0:
320,192,370446,128,0,370521:0:0:0:0:
448,192,370521,128,0,370596:0:0:0:0:
192,192,370596,128,0,371796:0:0:0:0:
320,192,371796,1,0,0:0:0:0:
448,192,371796,1,0,0:0:0:0:
192,192,371946,1,0,0:0:0:0:
64,192,372096,1,0,0:0:0:0:
448,192,372246,1,0,0:0:0:0:
192,192,372246,1,0,0:0:0:0:
320,192,372396,1,0,0:0:0:0:
192,192,372546,1,0,0:0:0:0:
448,192,372696,1,0,0:0:0:0:
64,192,372696,1,0,0:0:0:0:
320,192,372846,1,0,0:0:0:0:
192,192,372996,1,0,0:0:0:0:
448,192,373146,1,0,0:0:0:0:
64,192,373146,1,0,0:0:0:0:
320,192,373296,1,0,0:0:0:0:
192,192,373446,1,0,0:0:0:0:
64,192,373596,1,0,0:0:0:0:
448,192,373596,1,0,0:0:0:0:
192,192,373746,1,0,0:0:0:0:
448,192,373896,1,0,0:0:0:0:
320,192,373896,1,0,0:0:0:0:
192,192,374046,1,0,0:0:0:0:
320,192,374196,1,0,0:0:0:0:
64,192,374196,1,0,0:0:0:0:
192,192,374346,1,0,0:0:0:0:
320,192,374496,1,0,0:0:0:0:
448,192,374646,1,0,0:0:0:0:
64,192,374646,1,0,0:0:0:0:
192,192,374796,1,0,0:0:0:0:
320,192,374946,1,0,0:0:0:0:
64,192,375096,1,0,0:0:0:0:
448,192,375096,1,0,0:0:0:0:
192,192,375246,1,0,0:0:0:0:
320,192,375396,1,0,0:0:0:0:
64,192,375546,1,0,0:0:0:0:
448,192,375546,1,0,0:0:0:0:
192,192,375696,1,0,0:0:0:0:
320,192,375846,1,0,0:0:0:0:
64,192,375996,1,0,0:0:0:0:
448,192,375996,1,0,0:0:0:0:
320,192,376146,1,0,0:0:0:0:
192,192,376296,1,0,0:0:0:0:
448,192,376296,1,0,0:0:0:0:
320,192,376446,1,0,0:0:0:0:
448,192,376596,1,0,0:0:0:0:
64,192,376596,1,0,0:0:0:0:
320,192,376746,1,0,0:0:0:0:
192,192,376896,1,0,0:0:0:0:
64,192,377046,1,0,0:0:0:0:
448,192,377046,1,0,0:0:0:0:
320,192,377196,1,0,0:0:0:0:
192,192,377346,1,0,0:0:0:0:
448,192,377496,1,0,0:0:0:0:
64,192,377496,1,0,0:0:0:0:
320,192,377646,1,0,0:0:0:0:
192,192,377796,1,0,0:0:0:0:
448,192,377946,1,0,0:0:0:0:
64,192,377946,1,0,0:0:0:0:
320,192,378096,1,0,0:0:0:0:
192,192,378246,1,0,0:0:0:0:
448,192,378396,1,0,0:0:0:0:
320,192,378396,1,0,0:0:0:0:
192,192,378546,1,0,0:0:0:0:
64,192,378696,1,0,0:0:0:0:
320,192,378696,1,0,0:0:0:0:
448,192,378846,1,0,0:0:0:0:
64,192,378996,1,0,0:0:0:0:
320,192,378996,1,0,0:0:0:0:
192,192,379146,1,0,0:0:0:0:
320,192,379296,1,0,0:0:0:0:
448,192,379446,1,0,0:0:0:0:
64,192,379446,1,0,0:0:0:0:
192,192,379596,1,0,0:0:0:0:
320,192,379746,1,0,0:0:0:0:
448,192,379896,1,0,0:0:0:0:
64,192,379896,1,0,0:0:0:0:
192,192,380046,1,0,0:0:0:0:
320,192,380196,1,0,0:0:0:0:
448,192,380346,1,0,0:0:0:0:
64,192,380346,1,0,0:0:0:0:
192,192,380496,1,0,0:0:0:0:
320,192,380646,1,0,0:0:0:0:
192,192,380796,1,0,0:0:0:0:
64,192,380796,1,0,0:0:0:0:
320,192,380946,1,0,0:0:0:0:
448,192,381096,1,0,0:0:0:0:
192,192,381096,1,0,0:0:0:0:
64,192,381246,1,0,0:0:0:0:
192,192,381396,1,0,0:0:0:0:
448,192,381396,1,0,0:0:0:0:
320,192,381546,1,0,0:0:0:0:
192,192,381696,1,0,0:0:0:0:
64,192,381846,1,0,0:0:0:0:
448,192,381846,1,0,0:0:0:0:
320,192,381996,1,0,0:0:0:0:
192,192,382146,1,0,0:0:0:0:
448,192,382296,1,0,0:0:0:0:
64,192,382296,1,0,0:0:0:0:
320,192,382446,1,0,0:0:0:0:
192,192,382596,1,0,0:0:0:0:
448,192,382746,1,0,0:0:0:0:
64,192,382746,1,0,0:0:0:0:
320,192,382896,1,0,0:0:0:0:
192,192,383046,1,0,0:0:0:0:
64,192,383196,1,0,0:0:0:0:
448,192,383196,1,0,0:0:0:0:
320,192,383346,1,0,0:0:0:0:
192,192,383496,1,0,0:0:0:0:
448,192,383496,1,0,0:0:0:0:
64,192,383646,1,0,0:0:0:0:
448,192,383796,1,0,0:0:0:0:
320,192,383796,1,0,0:0:0:0:
192,192,383946,1,0,0:0:0:0:
64,192,384096,1,0,0:0:0:0:
448,192,384246,1,0,0:0:0:0:
192,192,384246,1,0,0:0:0:0:
320,192,384396,1,0,0:0:0:0:
192,192,384546,1,0,0:0:0:0:
448,192,384696,1,0,0:0:0:0:
64,192,384696,1,0,0:0:0:0:
320,192,384846,1,0,0:0:0:0:
192,192,384996,1,0,0:0:0:0:
64,192,385146,1,0,0:0:0:0:
448,192,385146,1,0,0:0:0:0:
192,192,385296,1,0,0:0:0:0:
320,192,385446,1,0,0:0:0:0:
448,192,385596,1,0,0:0:0:0:
64,192,385596,1,0,0:0:0:0:
192,192,385746,1,0,0:0:0:0:
448,192,385896,1,0,0:0:0:0:
320,192,385896,1,0,0:0:0:0:
192,192,386046,1,0,0:0:0:0:
448,192,386196,1,0,0:0:0:0:
64,192,386196,1,0,0:0:0:0:
320,192,386346,1,0,0:0:0:0:
192,192,386496,1,0,0:0:0:0:
320,192,386646,1,0,0:0:0:0:
448,192,386646,1,0,0:0:0:0:
192,192,386796,1,0,0:0:0:0:
64,192,386946,1,0,0:0:0:0:
320,192,387096,1,0,0:0:0:0:
448,192,387096,1,0,0:0:0:0:
192,192,387246,1,0,0:0:0:0:
320,192,387396,1,0,0:0:0:0:
64,192,387546,1,0,0:0:0:0:
448,192,387546,1,0,0:0:0:0:
192,192,387696,1,0,0:0:0:0:
320,192,387846,1,0,0:0:0:0:
448,192,387846,1,0,0:0:0:0:
192,192,387996,1,0,0:0:0:0:
64,192,388146,1,0,0:0:0:0:
320,192,388296,1,0,0:0:0:0:
192,192,388446,1,0,0:0:0:0:
448,192,388596,1,0,0:0:0:0:
64,192,388596,1,0,0:0:0:0:
320,192,388746,1,0,0:0:0:0:
192,192,388896,1,0,0:0:0:0:
448,192,389046,1,0,0:0:0:0:
64,192,389046,1,0,0:0:0:0:
320,192,389196,1,0,0:0:0:0:
192,192,389346,1,0,0:0:0:0:
448,192,389496,1,0,0:0:0:0:
320,192,389496,1,0,0:0:0:0:
192,192,389646,1,0,0:0:0:0:
320,192,389796,1,0,0:0:0:0:
448,192,389946,1,0,0:0:0:0:
64,192,390096,1,0,0:0:0:0:
192,192,390246,1,0,0:0:0:0:
320,192,390396,1,0,0:0:0:0:
192,192,390546,1,0,0:0:0:0:
320,192,390696,1,0,0:0:0:0:
448,192,390846,1,0,0:0:0:0:
320,192,390996,1,0,0:0:0:0:
192,192,391146,1,0,0:0:0:0:
64,192,391296,1,0,0:0:0:0:
192,192,391446,1,0,0:0:0:0:
448,192,391596,1,0,0:0:0:0:
320,192,391746,1,0,0:0:0:0:
192,192,391896,1,0,0:0:0:0:
448,192,392046,1,0,0:0:0:0:
320,192,392196,1,0,0:0:0:0:
448,192,392346,1,0,0:0:0:0:
64,192,392496,1,0,0:0:0:0:
192,192,392646,1,0,0:0:0:0:
64,192,392796,1,0,0:0:0:0:
448,192,392946,1,0,0:0:0:0:
320,192,393096,1,0,0:0:0:0:
192,192,393246,1,0,0:0:0:0:
320,192,393396,1,0,0:0:0:0:
448,192,393546,1,0,0:0:0:0:
320,192,393696,1,0,0:0:0:0:
192,192,393846,1,0,0:0:0:0:
64,192,393996,1,0,0:0:0:0:
320,192,394146,1,0,0:0:0:0:
448,192,394296,1,0,0:0:0:0:
320,192,394446,1,0,0:0:0:0:
192,192,394596,1,0,0:0:0:0:
64,192,394746,1,0,0:0:0:0:
192,192,394896,1,0,0:0:0:0:
320,192,395046,1,0,0:0:0:0:
192,192,395196,1,0,0:0:0:0:
448,192,395346,1,0,0:0:0:0:
320,192,395496,1,0,0:0:0:0:
192,192,395646,1,0,0:0:0:0:
64,192,395796,1,0,0:0:0:0:
192,192,395946,1,0,0:0:0:0:
320,192,396096,1,0,0:0:0:0:
448,192,396246,1,0,0:0:0:0:
192,192,396396,1,0,0:0:0:0:
64,192,396546,1,0,0:0:0:0:
320,192,396696,1,0,0:0:0:0:
192,192,396846,1,0,0:0:0:0:
448,192,396996,1,0,0:0:0:0:
320,192,397146,1,0,0:0:0:0:
192,192,397296,1,0,0:0:0:0:
64,192,397446,1,0,0:0:0:0:
192,192,397596,1,0,0:0:0:0:
320,192,397746,1,0,0:0:0:0:
192,192,397896,1,0,0:0:0:0:
448,192,398046,1,0,0:0:0:0:
320,192,398196,1,0,0:0:0:0:
192,192,398346,1,0,0:0:0:0:
192,192,398796,1,0,0:0:0:0:
192,192,399296,1,0,0:0:0:0:
192,192,399746,1,0,0:0:0:0:
192,192,400196,1,0,0:0:0:0:
192,192,400646,1,0,0:0:0:0:
192,192,401096,1,0,0:0:0:0:
192,192,401396,1,0,0:0:0:0:
192,192,401546,1,0,0:0:0:0:
