osu file format v14

[General]
AudioFilename: 25. - Chirality.mp3
AudioLeadIn: 0
PreviewTime: 67799
Countdown: 0
SampleSet: Soft
StackLeniency: 0.7
Mode: 0
LetterboxInBreaks: 1
WidescreenStoryboard: 0

[Editor]
DistanceSpacing: 1.1
BeatDivisor: 4
GridSize: 4
TimelineZoom: 1.6

[Metadata]
Title:Chirality
TitleUnicode:Chirality
Artist:Camellia
ArtistUnicode:かめりあ
Creator:RLC
Version:Advanced
Source:REFLEC BEAT groovin'!!
Tags:
BeatmapID:687826
BeatmapSetID:227598

[Difficulty]
HPDrainRate:5
CircleSize:4
OverallDifficulty:5
ApproachRate:6.5
SliderMultiplier:1.2
SliderTickRate:1

[Events]
//Background and Video events
0,0,"bg.jpg",0,0
//Break Periods
//Storyboard Layer 0 (Background)
//Storyboard Layer 1 (Fail)
//Storyboard Layer 2 (Pass)
//Storyboard Layer 3 (Foreground)
//Storyboard Sound Samples

[TimingPoints]
934,298.507462686567,4,2,1,70,1,0
9292,-100,4,2,1,70,0,0
29441,-100,4,2,0,40,0,0
29590,-100,4,2,1,70,0,0
41083,-100,4,2,2,70,0,0
41307,-100,4,2,1,70,0,0
55262,-100,4,1,1,70,0,0
55859,-100,4,2,1,70,0,0
58247,-100,4,2,1,70,0,0
67799,-100,4,2,1,70,0,1
74963,-100,4,1,1,70,0,1
76157,-100,4,2,1,70,0,1
77351,-100,4,1,2,70,0,0
77650,-100,4,2,1,70,0,1
86904,-100,4,2,1,70,0,0

[Colours]
Combo1 : 188,122,122
Combo2 : 193,132,255
Combo3 : 140,198,255
Combo4 : 255,128,192

[HitObjects]
24,276,10486,6,0,B|60:270|86:259|86:259|132:293|132:293|166:277|198:276,1,180,0|0,1:0|0:0,0:0:0:0:
255,302,11083,2,0,L|257:378,2,60,8|0|0,0:0|1:0|0:0,0:0:0:0:
302,247,11531,1,0,1:0:0:0:
302,247,12575,2,0,L|384:257,1,60,0|0,3:0|3:0,0:0:0:0:
404,312,12874,6,0,B|387:257|387:257|404:198|404:198|388:128,1,180,0|0,1:0|0:0,0:0:0:0:
415,70,13471,2,0,L|476:46,2,60,8|0|0,0:0|1:0|0:0,0:0:0:0:
343,82,13919,1,0,1:0:0:0:
269,284,14366,6,0,L|261:200,1,60,2|0,3:0|0:0,0:0:0:0:
194,245,14665,2,0,L|186:161,1,60,2|0,3:0|0:0,0:0:0:0:
118,202,14963,2,0,L|110:118,1,60,2|4,3:0|3:0,0:0:0:0:
106,70,15262,5,0,1:0:0:0:
256,192,15411,12,2,18844,3:2:0:0:
426,336,20038,6,0,P|442:266|426:214,1,120,4|0,1:0|0:0,0:0:0:0:
384,164,20486,1,0,0:0:0:0:
328,209,20635,2,0,L|230:224,2,90,10|2|2,0:1|0:1|0:1,0:0:0:0:
315,137,21232,6,0,B|325:94|325:94|314:61|314:61|326:-3,1,120,0|0,1:0|0:0,0:0:0:0:
189,128,21829,2,0,B|199:171|199:171|188:204|188:204|200:268,1,120,8|0,3:1|3:0,0:0:0:0:
125,353,22426,6,0,P|73:361|5:315,1,120,4|0,1:2|0:0,0:0:0:0:
28,258,22874,1,0,0:0:0:0:
42,187,23023,2,0,L|55:72,2,90,10|2|2,0:1|0:1|0:1,0:0:0:0:
98,232,23620,5,0,1:0:0:0:
226,296,23919,2,0,L|360:285,2,120,0|10|2,0:0|0:2|0:2,0:0:0:0:
150,173,24814,6,0,P|139:126|163:38,1,120,4|0,1:2|0:0,0:0:0:0:
224,46,25262,1,0,0:0:0:0:
289,75,25411,2,0,P|296:119|286:173,2,90,10|2|2,0:1|0:1|0:1,0:0:0:0:
345,30,26008,5,0,1:0:0:0:
398,163,26307,2,0,L|394:249,1,60,2|2,0:2|0:2,0:0:0:0:
421,289,26605,2,0,L|417:375,2,60,8|0|0,3:1|3:0|3:0,0:0:0:0:
277,296,27202,6,0,B|242:296|219:283|219:283|194:315|194:315|160:309|160:309|137:333|107:337,1,180,4|2,1:0|0:2,0:0:0:0:
53,312,27799,1,8,0:0:0:0:
54,167,28098,2,0,B|102:160|138:181|162:214|162:214|176:185|212:177,1,180,4|2,1:0|1:2,0:0:0:0:
275,177,28695,1,0,1:0:0:0:
390,91,28993,5,8,0:0:0:0:
351,230,29292,2,0,L|362:303,1,60,2|8,0:1|0:0,0:0:0:0:
415,334,29590,6,0,P|348:317|279:339,1,120,4|0,1:0|0:0,0:0:0:0:
230,348,30038,1,0,0:0:0:0:
159,364,30187,2,0,P|116:370|59:361,2,90,10|2|2,0:1|0:1|0:1,0:0:0:0:
178,294,30784,6,0,B|196:253|196:253|175:165,1,120,0|0,1:0|0:0,0:0:0:0:
298,39,31381,2,0,B|280:80|280:80|301:168,1,120,8|0,3:1|3:0,0:0:0:0:
448,199,31978,6,0,P|394:230|335:216,1,120,4|0,1:2|0:0,0:0:0:0:
267,219,32426,1,0,0:0:0:0:
303,281,32575,2,0,P|324:317|331:366,2,90,10|2|2,0:1|0:1|0:1,0:0:0:0:
230,284,33172,5,0,1:0:0:0:
99,346,33471,2,0,L|90:215,2,120,0|10|2,0:0|3:2|3:2,0:0:0:0:
176,219,34366,6,0,B|223:184|281:200|312:255|312:255|344:222|344:222|378:250|378:250|401:235|401:235|435:267|481:248,1,360,0|8,1:0|0:0,0:0:0:0:
496,107,35560,6,0,B|446:64|446:64|334:98,1,180,0|0,1:0|0:0,0:0:0:0:
269,123,36157,1,8,0:0:0:0:
213,75,36307,1,0,0:0:0:0:
141,78,36456,1,0,0:0:0:0:
94,219,36754,6,0,L|73:351,1,120,4|8,1:1|0:0,0:0:0:0:
200,253,37351,2,0,L|192:375,1,120,0|8,1:0|0:0,0:0:0:0:
308,253,37948,2,0,L|316:375,1,120,2|10,1:2|0:2,0:0:0:0:
418,219,38545,2,0,L|428:295,2,60,2|0|10,1:2|1:0|0:2,0:0:0:0:
467,83,39142,5,4,1:0:0:0:
467,83,39292,2,0,L|330:100,1,120,0|0,1:0|1:0,0:0:0:0:
308,158,39739,2,0,L|167:149,1,120,8|0,0:0|1:0,0:0:0:0:
120,125,40187,5,0,1:0:0:0:
13,222,40486,1,0,1:0:0:0:
13,222,40635,1,0,1:0:0:0:
128,307,40933,2,0,L|121:236,2,60,8|8|8,0:0|0:0|0:0,0:0:0:0:
256,373,41531,5,0,1:0:0:0:
256,373,41680,2,0,L|269:248,1,120,0|0,1:0|1:0,0:0:0:0:
337,233,42128,2,0,L|324:108,1,120,8|0,0:0|1:0,0:0:0:0:
271,65,42575,5,0,1:0:0:0:
402,123,42874,1,0,1:0:0:0:
402,123,43023,1,0,1:0:0:0:
499,16,43322,1,10,0:2:0:0:
430,295,43919,5,0,1:0:0:0:
430,295,44068,2,0,P|376:310|289:298,1,120,0|0,1:0|1:0,0:0:0:0:
241,317,44516,2,0,P|181:312|123:327,1,120,8|0,0:0|1:0,0:0:0:0:
52,338,44963,6,0,P|53:291|43:259,1,60,0|0,1:0|0:0,0:0:0:0:
103,229,45262,1,0,1:0:0:0:
50,180,45411,2,0,P|43:123|58:61,1,120,0|8,1:0|0:0,0:0:0:0:
126,42,45859,1,2,0:1:0:0:
126,42,46008,1,2,0:1:0:0:
228,143,46307,5,0,1:0:0:0:
228,143,46456,2,0,P|236:184|226:264,1,120,0|0,1:0|1:0,0:0:0:0:
177,313,46904,2,0,P|236:293|312:299,1,120,8|0,0:0|1:0,0:0:0:0:
351,336,47351,6,0,P|384:340|415:332,1,60,0|0,1:0|0:0,0:0:0:0:
459,281,47650,1,0,1:0:0:0:
407,231,47799,2,0,B|384:198|384:198|405:106,1,120,0|8,1:0|0:0,0:0:0:0:
115,81,48695,6,0,L|101:155,1,60,0|4,1:0|1:2,0:0:0:0:
155,273,49142,1,0,1:0:0:0:
155,273,49292,2,0,L|185:131,1,120,12|0,1:2|1:0,0:0:0:0:
199,86,49739,2,0,B|255:105|255:105|312:86,1,120,4|0,1:2|1:0,0:0:0:0:
332,155,50187,2,0,L|357:273,1,120,4|8,1:2|0:0,0:0:0:0:
429,274,50635,1,2,0:1:0:0:
429,274,50784,1,2,0:1:0:0:
478,138,51083,6,0,L|408:153,1,60,0|4,1:0|1:2,0:0:0:0:
305,239,51531,1,0,1:0:0:0:
305,239,51680,2,0,L|322:107,1,120,12|0,1:2|1:0,0:0:0:0:
314,47,52128,2,0,P|255:33|196:47,1,120,4|0,1:2|1:0,0:0:0:0:
191,119,52575,2,0,L|207:239,2,120,4|10|2,1:2|0:2|0:2,0:0:0:0:
79,210,53471,6,0,L|11:219,1,60,0|4,1:0|1:2,0:0:0:0:
89,331,53919,1,0,1:0:0:0:
89,331,54068,2,0,L|220:307,1,120,12|0,1:2|1:0,0:0:0:0:
256,248,54516,2,0,L|256:376,1,120,4|0,1:2|1:0,0:0:0:0:
304,309,54963,2,2,L|423:331,2,120,4|8|0,1:2|2:0|2:0,0:0:0:0:
173,249,55859,5,0,1:0:0:0:
173,249,56008,1,0,1:0:0:0:
195,106,56307,1,0,1:0:0:0:
195,106,56456,1,0,1:0:0:0:
337,84,56754,1,0,1:0:0:0:
337,84,56904,1,0,1:0:0:0:
398,214,57202,1,0,1:0:0:0:
398,214,57351,1,2,2:0:0:0:
254,197,57650,6,0,L|113:177,1,120,0|0,3:0|3:2,0:0:0:0:
72,144,58098,1,0,3:2:0:0:
64,221,58247,6,0,B|49:372|49:372|132:314,1,240,4|8,1:0|0:0,0:0:0:0:
172,262,58993,2,0,P|202:314|185:371,1,120,0|0,3:0|3:0,0:0:0:0:
480,95,60635,6,0,B|437:106|414:126|414:126|373:76|373:76|326:101|262:78,1,240,6|8,1:1|0:0,0:0:0:0:
228,145,61381,2,0,P|272:160|351:159,1,120,0|0,3:0|3:0,0:0:0:0:
239,377,62128,6,0,L|226:303,1,60,2|0,3:0|0:0,0:0:0:0:
305,333,62426,2,0,L|292:259,1,60,2|0,3:0|0:0,0:0:0:0:
371,296,62725,2,0,L|358:222,1,60,2|4,3:0|3:0,0:0:0:0:
344,160,63023,5,6,1:1:0:0:
256,192,63172,12,2,66605,3:2:0:0:
97,316,67799,6,0,L|84:386,2,60,4|2|8,1:0|0:1|0:0,0:0:0:0:
116,240,68247,1,0,0:0:0:0:
58,187,68396,2,0,B|39:148|39:148|59:70,1,120,2|8,1:1|0:0,0:0:0:0:
133,95,68844,2,0,L|146:165,2,60,2|0|0,0:1|1:0|0:0,0:0:0:0:
181,33,69292,1,10,0:1:0:0:
284,149,69590,6,0,L|352:134,1,60,2|2,1:2|0:2,0:0:0:0:
387,200,69889,2,0,L|319:215,1,60,10|2,0:2|0:2,0:0:0:0:
274,269,70187,6,0,L|264:337,2,60,0|2|8,1:0|0:1|0:0,0:0:0:0:
350,286,70635,1,0,0:0:0:0:
425,304,70784,2,0,B|454:264|454:264|444:181,1,120,2|8,1:1|0:0,0:0:0:0:
442,115,71232,2,0,L|510:125,2,60,2|0|0,0:1|1:0|0:0,0:0:0:0:
375,73,71680,1,10,0:1:0:0:
284,199,71978,6,0,L|280:274,1,60,2|2,1:2|0:2,0:0:0:0:
205,280,72277,2,0,L|209:205,1,60,10|2,0:2|0:2,0:0:0:0:
164,155,72575,6,0,L|90:147,2,60,0|2|8,1:0|0:1|0:0,0:0:0:0:
221,101,73023,1,0,0:0:0:0:
292,130,73172,2,0,B|330:99|330:99|324:15,1,120,2|8,1:1|0:0,0:0:0:0:
401,43,73620,2,0,L|406:122,1,60,2|0,0:1|1:0,0:0:0:0:
385,178,73919,1,0,0:0:0:0:
455,210,74068,6,0,P|468:257|451:335,1,120,10|2,0:1|1:2,0:0:0:0:
379,308,74516,2,0,L|370:374,2,60,2|10|2,0:2|0:2|0:2,0:0:0:0:
302,292,74963,6,0,L|290:157,1,120,2|2,0:0|2:0,0:0:0:0:
220,205,75411,1,2,2:0:0:0:
148,235,75560,2,0,L|136:100,1,120,2|2,0:0|2:0,0:0:0:0:
64,145,76008,1,2,2:0:0:0:
19,80,76157,5,4,1:0:0:0:
38,239,76456,1,8,0:0:0:0:
38,239,76605,2,0,P|80:257|147:235,1,120,4|0,1:0|1:0,0:0:0:0:
220,205,77053,2,0,L|286:209,1,60,8|0,0:0|1:0,0:0:0:0:
321,267,77351,6,0,L|311:130,1,120,8|12,2:0|0:1,0:0:0:0:
360,93,77799,1,0,0:0:0:0:
430,107,77948,2,0,P|474:146|470:208,1,120,2|8,1:1|0:0,0:0:0:0:
437,266,78396,2,0,P|442:308|452:332,2,60,2|0|0,0:1|1:0|0:0,0:0:0:0:
376,226,78844,1,10,0:1:0:0:
286,113,79142,6,0,L|208:104,1,60,2|2,1:2|0:2,0:0:0:0:
175,157,79441,2,0,L|97:148,1,60,10|2,0:2|0:2,0:0:0:0:
46,170,79739,6,0,P|44:141|55:102,2,60,0|2|8,1:0|0:1|0:0,0:0:0:0:
60,240,80187,1,0,0:0:0:0:
39,314,80336,2,0,P|84:339|160:324,1,120,2|8,1:1|0:0,0:0:0:0:
205,283,80784,2,0,P|213:238|228:211,2,60,2|0|0,0:1|1:0|0:0,0:0:0:0:
224,352,81232,1,10,0:1:0:0:
358,300,81531,6,0,P|393:294|421:298,1,60,2|2,1:2|0:2,0:0:0:0:
455,236,81829,2,0,P|477:208|490:171,1,60,10|2,0:2|0:2,0:0:0:0:
430,141,82128,6,0,P|383:146|309:118,1,120,2|8,1:1|0:0,0:0:0:0:
256,80,82575,1,0,0:0:0:0:
196,122,82725,2,0,P|141:144|82:141,1,120,2|8,1:1|0:0,0:0:0:0:
25,185,83172,1,2,0:1:0:0:
58,249,83322,6,0,L|62:312,1,60,0|0,1:0|0:0,0:0:0:0:
132,323,83620,2,0,L|136:260,1,60,10|0,0:1|0:0,0:0:0:0:
205,242,83919,2,0,L|209:305,1,60,2|2,1:2|0:2,0:0:0:0:
279,316,84217,2,0,L|283:253,1,60,10|2,0:2|1:2,0:0:0:0:
328,199,84516,5,4,1:0:0:0:
411,316,84814,1,2,0:0:0:0:
479,190,85113,2,0,B|401:146|401:146|328:199,1,180,8|0,0:0|1:0,0:0:0:0:
255,194,85710,5,2,1:1:0:0:
173,312,86008,2,0,L|177:233,1,60,8|0,0:0|1:0,0:0:0:0:
147,185,86307,1,2,1:1:0:0:
66,50,86605,2,2,L|70:129,1,60,8|2,2:0|1:0,1:0:0:0:
40,177,86904,1,4,1:0:0:0:
256,192,87053,12,4,92277,3:0:0:0:
256,192,92874,5,6,3:2:0:0:
