osu file format v14

[General]
AudioFilename: ablepsia.mp3
AudioLeadIn: 0
PreviewTime: 90125
Countdown: 0
SampleSet: Soft
StackLeniency: 0.3
Mode: 0
LetterboxInBreaks: 0
WidescreenStoryboard: 1

[Editor]
Bookmarks: 866,23192,45518,67843,90169,112494,123657,145983,168308,190634,212960,235285,257611,279936,302262
DistanceSpacing: 1.8
BeatDivisor: 3
GridSize: 4
TimelineZoom: 2.899999

[Metadata]
Title:A+B+L+E+P+S+I+A
TitleUnicode:A+B+L+E+P+S+I+A
Artist:Camellia
ArtistUnicode:かめりあ
Creator:winber1
Version:Myopia
Source:
Tags:me_irl
BeatmapID:1393084
BeatmapSetID:657679

[Difficulty]
HPDrainRate:4.4
CircleSize:3.9
OverallDifficulty:8.9
ApproachRate:9.4
SliderMultiplier:1.9
SliderTickRate:1

[Events]
//Background and Video events
0,0,"bg.jpg",0,0
//Break Periods
2,146183,156257
//Storyboard Layer 0 (Background)
//Storyboard Layer 1 (Fail)
//Storyboard Layer 2 (Pass)
//Storyboard Layer 3 (Foreground)
//Storyboard Sound Samples

[TimingPoints]
867,348.837209302326,4,2,1,30,1,0
867,-133.333333333333,4,2,1,30,0,0
22843,-50,4,2,1,30,0,0
23192,-33.3333333333333,4,2,1,70,0,0
23715,-133.333333333333,4,2,1,30,0,0
28250,-57.1428571428571,4,2,1,30,0,0
28773,-33.3333333333333,4,2,1,50,0,0
29122,-133.333333333333,4,2,1,50,0,0
31564,-76.9230769230769,4,2,1,50,0,0
31739,-100,4,2,1,50,0,0
31913,-80,4,2,1,50,0,0
32087,-133.333333333333,4,2,1,50,0,0
32262,-125,4,2,1,50,0,0
32436,-76.9230769230769,4,2,1,50,0,0
32611,-66.6666666666667,4,2,1,50,0,0
32785,-133.333333333333,4,2,1,50,0,0
33832,-50,4,2,1,50,0,0
34355,-33.3333333333333,4,2,1,50,0,0
34704,-133.333333333333,4,2,1,50,0,0
38367,-133.333333333333,4,2,1,70,0,0
39413,-50,4,2,1,50,0,0
39936,-33.3333333333333,4,2,1,50,0,0
40285,-133.333333333333,4,2,1,50,0,0
44994,-50,4,2,1,50,0,0
60867,-66.6666666666667,4,2,1,50,0,0
61215,-50,4,2,1,50,0,0
61739,-66.6666666666667,4,2,1,50,0,0
62087,-50,4,2,1,50,0,0
62262,-66.6666666666667,4,2,1,50,0,0
65053,-50,4,2,1,50,0,0
65576,-42.9184549356223,4,2,1,50,0,0
65750,-37.593984962406,4,2,1,50,0,0
65925,-33.3333333333333,4,2,1,50,0,0
66099,-166.666666666667,4,2,1,50,0,0
66448,-80,4,2,1,50,0,0
67146,-200,4,2,1,50,0,0
67843,-28.5714285714286,4,2,1,70,0,1
68192,-66.6666666666667,4,2,1,70,0,1
68367,-33.3333333333333,4,2,1,70,0,1
68803,-100,4,2,1,70,0,1
68977,-33.3333333333333,4,2,1,70,0,1
69413,-66.6666666666667,4,2,1,70,0,1
69587,-33.3333333333333,4,2,1,70,0,1
69849,-40,4,2,1,70,0,1
70634,-33.3333333333333,4,2,1,70,0,1
70983,-66.6666666666667,4,2,1,70,0,1
71332,-33.3333333333333,4,2,1,70,0,1
71593,-200,4,2,1,70,0,1
71855,-33.3333333333333,4,2,1,70,0,1
72553,-28.5714285714286,4,2,1,70,0,1
72901,-40,4,2,1,70,0,1
73425,-28.5714285714286,4,2,1,70,0,1
73773,-66.6666666666667,4,2,1,70,0,1
74122,-28.5714285714286,4,2,1,70,0,1
74646,-100,4,2,1,70,0,1
74907,-66.6666666666667,4,2,1,70,0,1
75256,-33.3333333333333,4,2,1,70,0,1
75430,-40,4,2,1,70,0,1
75692,-133.333333333333,4,2,1,70,0,1
76215,-66.6666666666667,4,2,1,70,0,1
76564,-40,4,2,1,70,0,1
77175,-200,4,2,1,70,0,1
77349,-50,4,2,1,70,0,1
77611,-40,4,2,1,70,0,1
78308,-66.6666666666667,4,2,1,70,0,1
79006,-28.5714285714286,4,2,1,70,0,1
79355,-66.6666666666667,4,2,1,70,0,1
79529,-33.3333333333333,4,2,1,70,0,1
79965,-100,4,2,1,70,0,1
80140,-33.3333333333333,4,2,1,70,0,1
80576,-66.6666666666667,4,2,1,70,0,1
80750,-33.3333333333333,4,2,1,70,0,1
81099,-40,4,2,1,70,0,1
81273,-33.3333333333333,4,2,1,70,0,1
82146,-66.6666666666667,4,2,1,70,0,1
82494,-40,4,2,1,70,0,1
82756,-200,4,2,1,70,0,1
83018,-33.3333333333333,4,2,1,70,0,1
84239,-40,4,2,1,70,0,1
84587,-33.3333333333333,4,2,1,70,0,1
84936,-66.6666666666667,4,2,1,70,0,1
85547,-28.5714285714286,4,2,1,70,0,1
85808,-100,4,2,1,70,0,1
86070,-66.6666666666667,4,2,1,70,0,1
86332,-33.3333333333333,4,2,1,70,0,1
86593,-40,4,2,1,70,0,1
86855,-133.333333333333,4,2,1,70,0,1
87378,-200,4,2,1,70,0,0
88773,-500,4,2,1,30,0,0
90169,-28.5714285714286,4,2,1,70,0,1
90518,-100,4,2,1,70,0,1
90867,-66.6666666666667,4,2,1,70,0,1
91128,-50,4,2,1,70,0,1
91390,-40,4,2,1,70,0,1
91651,-33.3333333333333,4,2,1,70,0,1
91913,-28.5714285714286,4,2,1,70,0,1
92175,-33.3333333333333,4,2,1,70,0,1
92611,-133.333333333333,4,2,1,70,0,1
92960,-133.333333333333,4,2,1,70,0,1
93308,-50,4,2,1,70,0,1
93657,-33.3333333333333,4,2,1,70,0,1
93919,-40,4,2,1,70,0,1
94180,-50,4,2,1,70,0,1
94878,-33.3333333333333,4,2,1,70,0,1
95401,-100,4,2,1,70,0,1
95750,-33.3333333333333,4,2,1,70,0,1
96099,-100,4,2,1,70,0,1
96448,-66.6666666666667,4,2,1,70,0,1
96710,-50,4,2,1,70,0,1
96971,-40,4,2,1,70,0,1
97233,-33.3333333333333,4,2,1,70,0,1
97494,-33.3333333333333,4,2,1,70,0,1
98541,-66.6666666666667,4,2,1,70,0,1
99239,-50,4,2,1,70,0,1
99936,-66.6666666666667,4,2,1,70,0,1
100721,-50,4,2,1,70,0,1
100983,-66.6666666666667,4,2,1,70,0,1
101332,-28.5714285714286,4,2,1,70,0,1
101680,-100,4,2,1,70,0,1
102029,-66.6666666666667,4,2,1,70,0,1
102291,-50,4,2,1,70,0,1
102553,-40,4,2,1,70,0,1
102814,-33.3333333333333,4,2,1,70,0,1
103599,-133.333333333333,4,2,1,70,0,1
104122,-133.333333333333,4,2,1,70,0,1
104471,-50,4,2,1,70,0,1
104820,-33.3333333333333,4,2,1,70,0,1
105081,-40,4,2,1,70,0,1
105343,-50,4,2,1,70,0,1
106041,-33.3333333333333,4,2,1,70,0,1
106390,-100,4,2,1,70,0,1
106913,-33.3333333333333,4,2,1,70,0,1
107262,-100,4,2,1,70,0,1
107523,-66.6666666666667,4,2,1,70,0,1
107698,-50,4,2,1,70,0,1
107785,-40,4,2,1,70,0,1
108134,-40,4,2,1,70,0,1
108396,-33.3333333333333,4,2,1,70,0,1
108657,-33.3333333333333,4,2,1,70,0,1
109093,-28.5714285714286,4,2,1,70,0,1
109704,-133.333333333333,4,2,1,70,0,0
112582,-133.333333333333,4,2,1,5,0,0
118076,-133.333333333333,4,2,1,70,0,0
120518,-66.6666666666667,4,2,1,70,0,0
122262,-200,4,2,1,70,0,0
123657,-40,4,2,1,70,0,0
125750,-33.3333333333333,4,2,1,70,0,0
126448,-40,4,2,1,70,0,0
131332,-33.3333333333333,4,2,1,70,0,0
132029,-40,4,2,1,70,0,0
133425,-133.333333333333,4,2,1,70,0,0
134471,-40,4,2,1,70,0,0
136913,-33.3333333333333,4,2,1,70,0,0
137611,-40,4,2,1,70,0,0
142494,-33.3333333333333,4,2,1,70,0,0
143192,-68.9655172413793,4,2,1,70,0,0
146070,-68.9655172413793,4,2,1,5,0,0
156797,-666.666666666667,4,2,1,30,0,0
168308,-33.3333333333333,4,2,1,70,0,0
168657,-133.333333333333,4,2,1,30,0,0
173367,-50,4,2,1,30,0,0
173890,-33.3333333333333,4,2,1,70,0,0
174239,-133.333333333333,4,2,1,70,0,0
178948,-50,4,2,1,70,0,0
179471,-33.3333333333333,4,2,1,70,0,0
179994,-133.333333333333,4,2,1,70,0,0
184529,-50,4,2,1,70,0,0
185053,-33.3333333333333,4,2,1,70,0,0
185401,-133.333333333333,4,2,1,70,0,0
190111,-50,4,2,1,70,0,0
190634,-200,4,2,1,30,0,0
196215,-133.333333333333,4,2,1,30,0,0
201797,-100,4,2,1,30,0,0
202494,-90.9090909090909,4,2,1,30,0,0
203192,-83.3333333333333,4,2,1,30,0,0
203890,-76.9230769230769,4,2,1,30,0,0
204587,-71.4285714285714,4,2,1,30,0,0
205285,-66.6666666666667,4,2,1,30,0,0
205983,-62.5,4,2,1,30,0,0
206680,-58.8235294117647,4,2,1,30,0,0
207378,-55.5555555555556,4,2,1,30,0,0
210169,-66.6666666666667,4,2,1,30,0,0
212960,-28.5714285714286,4,2,1,70,0,1
213308,-33.3333333333333,4,2,1,70,0,1
213832,-66.6666666666667,4,2,1,70,0,1
214006,-33.3333333333333,4,2,1,70,0,1
214529,-50,4,2,1,70,0,1
214704,-33.3333333333333,4,2,1,70,0,1
215401,-133.333333333333,4,2,1,70,0,1
215750,-66.6666666666667,4,2,1,70,0,1
216099,-33.3333333333333,4,2,1,70,0,1
216622,-66.6666666666667,4,2,1,70,0,1
216797,-33.3333333333333,4,2,1,70,0,1
217320,-50,4,2,1,70,0,1
217494,-33.3333333333333,4,2,1,70,0,1
218192,-50,4,2,1,70,0,1
218541,-28.5714285714286,4,2,1,70,0,1
218890,-33.3333333333333,4,2,1,70,0,1
219413,-66.6666666666667,4,2,1,70,0,1
219587,-33.3333333333333,4,2,1,70,0,1
220111,-66.6666666666667,4,2,1,70,0,1
220285,-33.3333333333333,4,2,1,70,0,1
220983,-133.333333333333,4,2,1,70,0,1
221332,-66.6666666666667,4,2,1,70,0,1
221680,-33.3333333333333,4,2,1,70,0,1
222204,-66.6666666666667,4,2,1,70,0,1
222378,-33.3333333333333,4,2,1,70,0,1
222727,-50,4,2,1,70,0,1
223076,-33.3333333333333,4,2,1,70,0,1
224122,-28.5714285714286,4,2,1,70,0,1
224471,-33.3333333333333,4,2,1,70,0,1
224994,-66.6666666666667,4,2,1,70,0,1
225169,-33.3333333333333,4,2,1,70,0,1
225692,-66.6666666666667,4,2,1,70,0,1
225867,-33.3333333333333,4,2,1,70,0,1
226564,-133.333333333333,4,2,1,70,0,1
226913,-33.3333333333333,4,2,1,70,0,1
227262,-66.6666666666667,4,2,1,70,0,1
227436,-33.3333333333333,4,2,1,70,0,1
227785,-66.6666666666667,4,2,1,70,0,1
227960,-33.3333333333333,4,2,1,70,0,1
228483,-50,4,2,1,70,0,1
228657,-33.3333333333333,4,2,1,70,0,1
229355,-50,4,2,1,70,0,1
229704,-33.3333333333333,4,2,1,70,0,1
230053,-100,4,2,1,70,0,1
230314,-33.3333333333333,4,2,1,70,0,1
230750,-100,4,2,1,70,0,1
231012,-33.3333333333333,4,2,1,70,0,1
231971,-133.333333333333,4,2,1,70,0,1
232494,-133.333333333333,4,2,1,70,0,0
232843,-200,4,2,1,70,0,0
233890,-500,4,2,1,30,0,0
234587,-50,4,2,1,30,0,0
235285,-28.5714285714286,4,2,1,70,0,1
235634,-33.3333333333333,4,2,1,70,0,1
235896,-66.6666666666667,4,2,1,70,0,1
236070,-50,4,2,1,70,0,1
236332,-40,4,2,1,70,0,1
236593,-33.3333333333333,4,2,1,70,0,1
237204,-28.5714285714286,4,2,1,70,0,1
237727,-100,4,2,1,70,0,1
238076,-33.3333333333333,4,2,1,70,0,1
238425,-66.6666666666667,4,2,1,70,0,1
238599,-28.5714285714286,4,2,1,70,0,1
238948,-33.3333333333333,4,2,1,70,0,1
239122,-33.3333333333333,4,2,1,70,0,1
239384,-40,4,2,1,70,0,1
239646,-50,4,2,1,70,0,1
239820,-66.6666666666667,4,2,1,70,0,1
239994,-28.5714285714286,4,2,1,70,0,1
240518,-133.333333333333,4,2,1,70,0,1
240867,-28.5714285714286,4,2,1,70,0,1
241215,-33.3333333333333,4,2,1,70,0,1
241477,-66.6666666666667,4,2,1,70,0,1
241739,-50,4,2,1,70,0,1
241913,-40,4,2,1,70,0,1
242175,-33.3333333333333,4,2,1,70,0,1
242872,-28.5714285714286,4,2,1,70,0,1
243134,-133.333333333333,4,2,1,70,0,1
243657,-50,4,2,1,70,0,1
243919,-33.3333333333333,4,2,1,70,0,1
244704,-50,4,2,1,70,0,1
244965,-33.3333333333333,4,2,1,70,0,1
245401,-28.5714285714286,4,2,1,70,0,1
245663,-50,4,2,1,70,0,1
246448,-28.5714285714286,4,2,1,70,0,1
246797,-33.3333333333333,4,2,1,70,0,1
247058,-66.6666666666667,4,2,1,70,0,1
247233,-50,4,2,1,70,0,1
247494,-40,4,2,1,70,0,1
247756,-33.3333333333333,4,2,1,70,0,1
248454,-28.5714285714286,4,2,1,70,0,1
248890,-133.333333333333,4,2,1,70,0,1
249239,-33.3333333333333,4,2,1,70,0,1
249587,-66.6666666666667,4,2,1,70,0,1
249849,-28.5714285714286,4,2,1,70,0,1
250111,-33.3333333333333,4,2,1,70,0,1
250547,-40,4,2,1,70,0,1
250808,-50,4,2,1,70,0,1
250983,-66.6666666666667,4,2,1,70,0,1
251244,-33.3333333333333,4,2,1,70,0,1
251680,-133.333333333333,4,2,1,70,0,1
252029,-33.3333333333333,4,2,1,70,0,1
254820,-80,4,2,1,70,0,0
254907,-80,4,2,1,5,0,0
255692,-133.333333333333,4,2,1,70,0,0
255779,-133.333333333333,4,2,1,5,0,0
256041,-100,4,2,1,70,0,0
256913,-133.333333333333,4,2,1,70,0,0
257611,-33.3333333333333,4,2,1,50,0,1
257698,-33.3333333333333,4,2,1,50,0,0
257960,-200,4,2,1,50,0,0
258570,-133.333333333333,4,2,1,50,0,0
258832,-200,4,2,1,50,0,0
259442,-66.6666666666667,4,2,1,50,0,0
259617,-200,4,2,1,50,0,0
260053,-66.6666666666667,4,2,1,50,0,0
260227,-200,4,2,1,50,0,0
260750,-66.6666666666667,4,2,1,50,0,0
260925,-200,4,2,1,50,0,0
261361,-133.333333333333,4,2,1,50,0,0
261622,-200,4,2,1,50,0,0
262146,-66.6666666666667,4,2,1,50,0,0
262320,-200,4,2,1,50,0,0
262843,-40,4,2,1,50,0,0
263192,-33.3333333333333,4,2,1,50,0,0
263541,-200,4,2,1,50,0,0
264151,-133.333333333333,4,2,1,50,0,0
264326,-200,4,2,1,50,0,0
265023,-66.6666666666667,4,2,1,50,0,0
265198,-200,4,2,1,50,0,0
265634,-66.6666666666667,4,2,1,50,0,0
265808,-200,4,2,1,50,0,0
266942,-133.333333333333,4,2,1,50,0,0
267117,-200,4,2,1,50,0,0
267727,-66.6666666666667,4,2,1,50,0,0
267901,-200,4,2,1,50,0,0
268773,-33.3333333333333,4,2,1,50,0,0
269122,-200,4,2,1,50,0,0
269733,-133.333333333333,4,2,1,50,0,0
269907,-200,4,2,1,50,0,0
270605,-66.6666666666667,4,2,1,50,0,0
270779,-200,4,2,1,50,0,0
271215,-66.6666666666667,4,2,1,50,0,0
271390,-200,4,2,1,50,0,0
271913,-66.6666666666667,4,2,1,50,0,0
272087,-200,4,2,1,50,0,0
272523,-133.333333333333,4,2,1,50,0,0
272785,-200,4,2,1,50,0,0
273308,-66.6666666666667,4,2,1,50,0,0
273483,-200,4,2,1,50,0,0
274006,-40,4,2,1,50,0,0
274355,-33.3333333333333,4,2,1,50,0,0
274704,-200,4,2,1,50,0,0
275314,-133.333333333333,4,2,1,50,0,0
275489,-200,4,2,1,50,0,0
276186,-66.6666666666667,4,2,1,50,0,0
276361,-200,4,2,1,50,0,0
276797,-66.6666666666667,4,2,1,50,0,0
276971,-200,4,2,1,50,0,0
278541,-100,4,2,1,50,0,0
279413,-58.8235294117647,4,2,1,50,0,0
304355,-1000,4,2,1,70,0,0
304355,-1000,4,2,1,30,0,0
304442,-25,4,2,1,70,0,0
304442,-25,4,2,1,70,0,0

[Colours]
Combo1 : 180,139,139
Combo2 : 140,175,179
Combo3 : 235,95,90
Combo4 : 192,192,192

[HitObjects]
69,28,867,5,0,0:0:0:0:
73,41,954,1,0,0:0:0:0:
77,54,1041,2,0,L|92:101,1,35.625001358986
110,163,1215,1,0,0:0:0:0:
226,133,1390,2,0,P|197:108|160:102,1,71.2500027179719
29,144,1739,1,0,0:0:0:0:
184,206,1913,1,0,0:0:0:0:
201,209,2000,1,0,0:0:0:0:
218,214,2087,2,0,L|265:226,1,35.625001358986
331,243,2262,5,0,0:0:0:0:
140,281,2436,2,0,P|132:317|121:368,1,71.2500027179719
288,319,2785,1,0,0:0:0:0:
270,321,2872,1,0,0:0:0:0:
252,324,2960,2,0,L|206:333,1,35.625001358986
44,353,3134,1,0,0:0:0:0:
41,199,3308,2,0,P|49:234|58:275,1,71.2500027179719
218,214,3657,5,0,0:0:0:0:
201,211,3744,1,0,0:0:0:0:
184,206,3832,2,0,L|137:194,1,35.625001358986
95,130,4006,1,0,0:0:0:0:
195,51,4180,2,0,P|195:90|175:122,1,71.2500027179719
95,130,4529,1,0,0:0:0:0:
260,140,4704,5,0,0:0:0:0:
277,137,4791,1,0,0:0:0:0:
294,132,4878,2,0,L|341:120,1,35.625001358986
409,157,5053,1,0,0:0:0:0:
422,13,5227,2,0,P|400:45|395:84,1,71.2500027179719
495,225,5576,5,0,0:0:0:0:
493,207,5663,1,0,0:0:0:0:
491,189,5750,2,0,L|486:141,1,35.625001358986
478,80,5925,5,0,0:0:0:0:
346,215,6099,2,0,P|350:250|353:292,1,71.2500027179719
328,101,6448,5,0,0:0:0:0:
310,97,6535,1,0,0:0:0:0:
292,92,6622,2,0,L|239:78,1,35.625001358986
179,63,6797,1,0,0:0:0:0:
215,216,6971,2,0,P|207:177|199:144,1,71.2500027179719
179,63,7320,1,0,0:0:0:0:
109,124,7494,1,0,0:0:0:0:
112,141,7582,1,0,0:0:0:0:
116,158,7669,2,0,L|126:204,1,35.625001358986
179,63,7843,5,0,0:0:0:0:
20,90,8018,2,0,P|28:125|37:172,1,71.2500027179719
251,134,8367,1,0,0:0:0:0:
254,117,8454,1,0,0:0:0:0:
258,100,8541,2,0,L|267:53,1,35.625001358986
92,36,8715,1,0,0:0:0:0:
123,192,8890,2,0,P|115:152|108:118,1,71.2500027179719
194,258,9239,5,0,0:0:0:0:
190,275,9326,1,0,0:0:0:0:
186,292,9413,2,0,L|176:347,1,35.625001358986
100,352,9587,1,0,0:0:0:0:
43,289,9762,2,0,P|79:269|108:269,1,71.2500027179719
267,307,10111,1,0,0:0:0:0:
342,216,10285,1,0,0:0:0:0:
324,219,10372,1,0,0:0:0:0:
306,221,10460,2,0,L|245:232,1,35.625001358986
203,176,10634,5,0,0:0:0:0:
267,307,10808,2,0,P|305:302|340:296,1,71.2500027179719
362,130,11157,1,0,0:0:0:0:
344,133,11244,1,0,0:0:0:0:
326,135,11332,2,0,L|265:146,1,35.625001358986
425,199,11506,5,0,0:0:0:0:
399,45,11680,1,0,0:0:0:0:
240,76,11855,5,0,0:0:0:0:
240,76,11942,1,0,0:0:0:0:
240,76,12029,2,0,P|237:111|234:157,1,71.2500027179719
228,229,12378,1,0,0:0:0:0:
316,341,12553,2,0,P|308:306|303:267,1,71.2500027179719
312,255,12814,1,0,0:0:0:0:
321,239,12901,1,0,0:0:0:0:
449,266,13076,2,0,P|416:289|381:289,1,71.2500027179719
228,229,13425,5,0,0:0:0:0:
384,174,13599,1,0,0:0:0:0:
386,156,13686,1,0,0:0:0:0:
389,138,13773,2,0,L|396:95,1,35.625001358986
367,20,13948,1,0,0:0:0:0:
484,89,14122,2,0,P|471:52|441:27,1,71.2500027179719
308,82,14471,1,0,0:0:0:0:
306,100,14558,1,0,0:0:0:0:
303,118,14646,2,0,L|296:161,1,35.625001358986
228,229,14820,6,0,P|232:267|237:306,1,71.2500027179719
163,360,15169,1,0,0:0:0:0:
80,229,15343,2,0,P|120:231|152:247,1,71.2500027179719
150,261,15605,1,0,0:0:0:0:
152,278,15692,1,0,0:0:0:0:
36,374,15867,2,0,P|32:335|26:295,1,71.2500027179719
5,170,16215,5,0,0:0:0:0:
132,145,16390,1,0,0:0:0:0:
137,127,16477,1,0,0:0:0:0:
141,109,16564,2,0,L|154:51,1,35.625001358986
50,34,16739,2,0,P|56:72|61:116,1,71.2500027179719
80,229,17087,1,0,0:0:0:0:
207,206,17262,1,0,0:0:0:0:
212,188,17349,1,0,0:0:0:0:
216,170,17436,2,0,L|229:112,1,35.625001358986
275,70,17611,6,0,P|314:67|347:49,1,71.2500027179719
420,85,17960,1,0,0:0:0:0:
339,244,18134,2,0,L|333:166,1,71.2500027179719
343,157,18396,1,0,0:0:0:0:
352,142,18483,1,0,0:0:0:0:
484,212,18657,2,0,P|450:196|412:197,1,71.2500027179719
315,332,19006,5,0,0:0:0:0:
469,325,19180,1,0,0:0:0:0:
451,321,19268,1,0,0:0:0:0:
433,318,19355,2,0,L|398:310,1,35.625001358986
254,269,19529,1,0,0:0:0:0:
333,172,19704,2,0,P|335:210|339:244,1,71.2500027179719
268,50,20053,1,0,0:0:0:0:
267,67,20140,1,0,0:0:0:0:
266,84,20227,2,0,L|264:143,1,35.625001358986
207,191,20401,6,0,P|171:195|129:201,1,71.2500027179719
65,147,20750,1,0,0:0:0:0:
62,304,20925,2,0,P|64:270|45:231,1,71.2500027179719
32,229,21186,1,0,0:0:0:0:
15,222,21273,1,0,0:0:0:0:
65,75,21448,2,0,P|64:111|64:150,1,71.2500027179719
62,304,21797,5,0,0:0:0:0:
154,349,21971,1,0,0:0:0:0:
154,349,22058,1,0,0:0:0:0:
154,349,22146,2,0,L|147:298,1,35.625001358986
236,255,22320,1,0,0:0:0:0:
236,255,22407,1,0,0:0:0:0:
236,255,22494,2,0,L|229:306,3,35.625001358986
231,290,22843,6,0,B|266:280|306:285|306:285|327:229|294:164|231:160|185:194,1,285
140,267,23192,6,0,B|71:218|71:218|98:111|98:111|329:67,1,427.500016307831
326,67,23541,5,0,0:0:0:0:
417,126,23715,2,0,L|456:135,3,35.625001358986
325,176,24064,1,0,0:0:0:0:
332,203,24151,1,0,0:0:0:0:
338,231,24239,2,0,L|390:243,1,35.625001358986
272,303,24413,2,0,L|220:315,1,35.625001358986
475,337,24587,6,0,P|468:298|461:260,1,71.2500027179719
445,157,24936,1,0,0:0:0:0:
338,231,25111,2,0,L|291:219,3,35.625001358986
249,127,25460,1,0,0:0:0:0:
221,135,25547,1,0,0:0:0:0:
193,142,25634,2,0,L|178:190,1,35.625001358986
118,68,25808,2,0,L|103:20,1,35.625001358986
79,248,25983,6,0,P|65:212|50:170,1,71.2500027179719
111,339,26332,1,0,0:0:0:0:
177,267,26506,2,0,L|222:274,3,35.625001358986
275,344,26855,1,0,0:0:0:0:
302,337,26942,1,0,0:0:0:0:
329,331,27029,2,0,L|342:282,1,35.625001358986
392,193,27204,2,0,L|405:242,1,35.625001358986
464,353,27378,6,0,P|472:312|480:276,1,71.2500027179719
392,193,27727,1,0,0:0:0:0:
270,245,27901,5,0,0:0:0:0:
254,188,27989,1,0,0:0:0:0:
250,237,28076,5,0,0:0:0:0:
241,210,28163,1,0,0:0:0:0:
229,230,28250,6,0,B|301:205|301:205|315:110|315:110|153:67|153:67|168:99|188:138,1,415.625003963709
269,334,28773,6,0,B|113:293|113:293|47:167|47:167|104:188|103:267,1,427.500016307831
31,336,29122,5,0,0:0:0:0:
192,276,29297,2,0,L|184:238,3,35.625001358986
269,334,29646,1,0,0:0:0:0:
296,339,29733,1,0,0:0:0:0:
323,345,29820,2,0,L|367:336,1,35.625001358986
498,290,29994,2,0,L|454:281,1,35.625001358986
279,239,30169,6,0,P|313:247|354:256,1,71.2500027179719
424,205,30518,1,0,0:0:0:0:
233,167,30692,2,0,L|224:131,3,35.625001358986
328,79,31041,1,0,0:0:0:0:
300,73,31128,1,0,0:0:0:0:
272,66,31215,2,0,L|260:18,1,35.625001358986
434,34,31390,2,0,L|422:82,1,35.625001358986
459,161,31564,6,0,P|414:161|370:186,1,92.6249957599642
372,183,31739,2,0,P|376:208|381:246,1,47.5
287,251,31913,2,0,P|278:281|277:311,1,59.375
276,308,32087,2,0,P|269:283|265:266,1,35.625001358986
184,227,32262,2,0,P|182:246|178:264,1,38
178,344,32436,2,0,P|147:341|115:314,1,61.7499971733095
38,328,32611,2,0,P|39:290|20:257,1,71.2500027179719
23,261,32785,2,0,L|71:273,1,35.625001358986
103,179,32960,6,0,P|97:142|92:101,1,71.2500027179719
78,28,33308,1,0,0:0:0:0:
190,133,33483,5,0,0:0:0:0:
206,76,33570,1,0,0:0:0:0:
210,125,33657,5,0,0:0:0:0:
218,97,33744,1,0,0:0:0:0:
231,118,33832,6,0,B|182:34|182:34|274:40|346:42|346:42|391:106|356:190|273:203,1,475
15,101,34355,6,0,B|114:111|114:111|226:291|226:291|359:300,1,427.500016307831
341,298,34704,5,0,0:0:0:0:
461,240,34878,1,0,0:0:0:0:
456,211,34965,1,0,0:0:0:0:
451,182,35053,1,0,0:0:0:0:
447,153,35140,1,0,0:0:0:0:
443,124,35227,2,0,L|433:68,1,35.625001358986
361,27,35401,1,0,0:0:0:0:
333,34,35489,1,0,0:0:0:0:
310,50,35576,2,0,L|304:94,1,35.625001358986
262,162,35750,6,0,P|269:194|277:240,1,71.2500027179719
461,240,36099,1,0,0:0:0:0:
227,324,36273,1,0,0:0:0:0:
255,328,36361,1,0,0:0:0:0:
283,332,36448,1,0,0:0:0:0:
311,336,36535,1,0,0:0:0:0:
338,340,36622,2,0,L|395:351,1,35.625001358986
461,240,36797,1,0,0:0:0:0:
432,235,36884,1,0,0:0:0:0:
403,231,36971,2,0,L|357:225,1,35.625001358986
262,162,37146,6,0,P|255:124|245:79,1,71.2500027179719
89,53,37494,1,0,0:0:0:0:
175,205,37669,1,0,0:0:0:0:
151,188,37756,1,0,0:0:0:0:
123,179,37843,1,0,0:0:0:0:
94,178,37930,1,0,0:0:0:0:
65,183,38018,2,0,L|41:227,1,35.625001358986
180,101,38192,1,0,0:0:0:0:
203,84,38279,1,0,0:0:0:0:
213,57,38367,2,0,L|204:18,1,35.625001358986
46,28,38541,6,0,P|53:63|63:102,1,71.2500027179719
103,292,38890,1,0,0:0:0:0:
262,162,39064,5,0,0:0:0:0:
320,150,39151,5,0,0:0:0:0:
297,186,39239,5,0,0:0:0:0:
291,157,39326,5,0,0:0:0:0:
285,128,39413,6,0,B|266:26|266:26|339:-17|339:-17|433:82|433:82|384:162|384:162|394:220,1,475
459,377,39936,6,0,B|417:345|417:345|400:246|400:246|291:160|291:160|302:231|312:293,1,427.500016307831
312,293,40285,5,0,0:0:0:0:
188,366,40460,1,0,0:0:0:0:
159,363,40547,1,0,0:0:0:0:
133,350,40634,1,0,0:0:0:0:
113,329,40721,1,0,0:0:0:0:
101,303,40808,2,0,L|93:257,1,35.625001358986
210,183,40983,1,0,0:0:0:0:
205,211,41070,1,0,0:0:0:0:
200,239,41157,2,0,L|192:292,1,35.625001358986
76,183,41332,6,0,P|83:146|89:109,1,71.2500027179719
235,67,41680,1,0,0:0:0:0:
45,19,41855,1,0,0:0:0:0:
41,47,41942,1,0,0:0:0:0:
46,75,42029,1,0,0:0:0:0:
64,97,42117,1,0,0:0:0:0:
88,112,42204,2,0,L|145:108,1,35.625001358986
235,67,42378,1,0,0:0:0:0:
262,73,42465,1,0,0:0:0:0:
290,79,42553,2,0,L|339:87,1,35.625001358986
478,31,42727,6,0,P|440:37|389:41,1,71.2500027179719
290,79,43076,1,0,0:0:0:0:
499,125,43250,1,0,0:0:0:0:
470,127,43337,1,0,0:0:0:0:
441,129,43425,1,0,0:0:0:0:
412,132,43512,1,0,0:0:0:0:
383,136,43599,2,0,L|339:141,1,35.625001358986
246,214,43773,1,0,0:0:0:0:
274,217,43861,1,0,0:0:0:0:
302,221,43948,2,0,L|347:226,1,35.625001358986
456,238,44122,6,0,P|461:276|467:312,1,71.2500027179719
285,345,44471,1,0,0:0:0:0:
196,134,44646,5,0,0:0:0:0:
215,78,44733,5,0,0:0:0:0:
232,115,44820,5,0,0:0:0:0:
204,107,44907,5,0,0:0:0:0:
176,96,44994,6,0,B|67:65|67:65|143:305|143:305|34:277,1,475
36,277,45518,1,0,0:0:0:0:
256,192,45605,12,0,56593,0:0:0:0:
448,324,56680,5,0,0:0:0:0:
436,236,56855,1,0,0:0:0:0:
348,248,57029,1,0,0:0:0:0:
360,336,57204,1,0,0:0:0:0:
64,324,57378,5,0,0:0:0:0:
76,236,57553,1,0,0:0:0:0:
164,248,57727,1,0,0:0:0:0:
152,336,57901,1,0,0:0:0:0:
436,236,58076,5,0,0:0:0:0:
404,96,58250,1,0,0:0:0:0:
164,248,58425,1,0,0:0:0:0:
312,160,58599,1,0,0:0:0:0:
76,236,58773,5,0,0:0:0:0:
108,96,58948,1,0,0:0:0:0:
348,248,59122,1,0,0:0:0:0:
200,160,59297,1,0,0:0:0:0:
300,48,59471,5,0,0:0:0:0:
312,160,59646,1,0,0:0:0:0:
212,48,59820,5,0,0:0:0:0:
200,160,59994,1,0,0:0:0:0:
400,72,60169,5,0,0:0:0:0:
436,236,60343,1,0,0:0:0:0:
112,72,60518,5,0,0:0:0:0:
76,236,60692,1,0,0:0:0:0:
316,308,60867,6,0,P|320:272|328:224,1,71.2500027179719
196,308,61041,2,0,P|192:272|184:224,1,71.2500027179719
412,356,61215,2,0,P|429:311|452:260,1,95
100,356,61390,2,0,P|83:311|60:260,1,95
31,130,61564,6,0,P|80:136|125:160,1,95
345,34,61739,2,0,P|326:66|312:102,1,71.2500027179719
167,34,61913,2,0,P|186:66|200:102,1,71.2500027179719
481,130,62087,2,0,P|432:136|387:160,1,95
196,308,62262,5,0,0:0:0:0:
190,272,62349,1,0,0:0:0:0:
177,238,62436,1,0,0:0:0:0:
151,212,62523,1,0,0:0:0:0:
118,196,62611,1,0,0:0:0:0:
82,193,62698,1,0,0:0:0:0:
46,198,62785,2,0,P|46:234|43:277,1,71.2500027179719
284,320,62960,5,0,0:0:0:0:
325,347,63047,1,0,0:0:0:0:
374,355,63134,1,0,0:0:0:0:
423,351,63221,1,0,0:0:0:0:
467,328,63308,1,0,0:0:0:0:
499,289,63396,1,0,0:0:0:0:
510,240,63483,2,0,P|507:200|502:154,1,71.2500027179719
196,308,63657,5,0,0:0:0:0:
227,259,63744,1,0,0:0:0:0:
234,202,63832,1,0,0:0:0:0:
216,148,63919,1,0,0:0:0:0:
178,105,64006,1,0,0:0:0:0:
127,78,64093,1,0,0:0:0:0:
70,78,64180,2,0,P|72:116|74:161,1,71.2500027179719
284,320,64355,5,0,0:0:0:0:
347,325,64442,1,0,0:0:0:0:
407,305,64529,1,0,0:0:0:0:
453,260,64617,1,0,0:0:0:0:
472,199,64704,1,0,0:0:0:0:
469,135,64791,1,0,0:0:0:0:
434,81,64878,2,0,P|398:78|347:71,1,71.2500027179719
267,22,65053,6,0,P|274:46|281:74,2,47.5
172,57,65227,2,0,P|175:82|178:110,2,47.5
73,30,65401,2,0,P|72:54|69:85,2,47.5
13,183,65576,6,0,P|16:210|22:241,2,55.3375022165061
116,243,65750,2,0,P|111:273|105:318,2,63.1749973972703
221,218,65925,2,0,P|256:211|304:199,2,71.2500027179719
405,174,66099,6,0,L|412:150,7,14.2499995651245
405,174,66448,1,0,0:0:0:0:
304,70,66971,6,0,P|318:93|329:133,1,59.375
328,124,67146,2,0,P|329:86|331:43,1,71.25
483,226,67494,5,0,0:0:0:0:
478,201,67582,1,0,0:0:0:0:
412,294,67669,5,0,0:0:0:0:
407,319,67756,1,0,0:0:0:0:
286,241,67843,6,0,B|258:128|258:128|365:180|365:180|411:265|377:349|269:374|204:310,1,498.750004756451
193,212,68192,6,0,B|202:249|202:249|163:234,1,71.2500027179719
65,365,68367,1,0,0:0:0:0:
101,341,68454,1,0,0:0:0:0:
145,345,68541,2,0,B|86:337|70:278|70:278|54:190|54:190|131:121,1,285.000010871888
37,57,68803,6,0,P|68:76|47:47,1,95
330,37,69064,6,0,B|302:73|197:86|158:46|158:46|211:34|282:57|313:117|287:194,1,427.500016307831
244,290,69413,2,0,P|276:285|315:279,1,71.2500027179719
377,217,69587,5,0,0:0:0:0:
155,132,69675,2,0,B|139:164|139:164|160:275,1,142.500005435944
402,100,69849,5,0,0:0:0:0:
402,100,69936,2,0,B|422:75|426:52|426:52|445:123,1,118.75
471,272,70111,1,0,0:0:0:0:
477,245,70198,1,0,0:0:0:0:
501,352,70285,6,0,P|447:352|388:297,1,118.75
184,289,70460,2,0,P|238:289|297:234,1,118.75
330,37,70634,6,0,B|273:43|226:89|207:151|215:208|215:208|241:173|282:160|322:173|322:173|296:141|290:101,1,427.500016307831
161,44,70983,6,0,P|152:64|146:34,1,71.2500027179719
68,208,71157,1,0,0:0:0:0:
84,251,71244,1,0,0:0:0:0:
68,294,71332,6,0,B|136:342|136:342|90:244|109:134,1,285.000010871888
42,83,71593,6,0,P|35:53|29:22,1,47.5
402,219,71855,6,0,B|455:208|483:245|483:245|462:302|375:327|328:254,1,285.000010871888
466,131,72117,1,0,0:0:0:0:
502,96,72204,2,0,P|426:141|371:128,1,142.500005435944
236,70,72378,5,0,0:0:0:0:
254,198,72465,1,0,0:0:0:0:
232,232,72553,2,0,B|224:313|271:383|375:391|456:357|465:294|465:294|389:263|333:338,1,498.750004756451
161,340,72901,5,0,0:0:0:0:
149,312,72989,1,0,0:0:0:0:
63,291,73076,2,0,B|104:231|104:231|63:53|63:53|130:132,1,356.25
279,340,73425,6,0,B|318:314|318:314|473:324|473:324|476:246|410:240|410:240|232:231,1,498.750004756451
236,70,73773,6,0,B|251:42|263:4|263:4|288:153,1,213.750008153916
466,121,74122,5,0,0:0:0:0:
427,152,74210,1,0,0:0:0:0:
377,149,74297,1,0,0:0:0:0:
399,68,74384,2,0,B|364:54|364:54|230:71,1,166.250001585484
236,70,74646,6,0,P|240:126|213:82,1,142.5
53,37,74994,6,0,P|52:73|47:119,1,71.2500027179719
223,268,75169,1,0,0:0:0:0:
42,318,75256,2,0,P|83:264|73:178,1,142.500005435944
80,192,75430,6,0,B|125:146|138:88|138:88|140:149|165:201,1,237.5
223,268,75692,1,0,0:0:0:0:
243,273,75779,1,0,0:0:0:0:
263,279,75867,2,0,P|258:256|256:236,1,35.625001358986
331,206,76041,2,0,P|336:229|338:249,1,35.625001358986
354,337,76215,6,0,B|428:311|485:341|485:341|457:309|432:281,1,213.750008153916
409,138,76564,2,0,B|436:60|436:60|447:191|503:240|503:240|515:195|503:158,1,356.25
361,32,76913,2,0,B|344:85|344:85|163:115,1,237.5
98,48,77175,6,0,L|19:40,1,47.5
114,343,77436,2,0,P|104:294|94:248,1,95
94,250,77611,6,0,P|157:242|206:286,1,118.75
375,188,77785,2,0,P|311:209|285:265,1,118.75
267,349,77960,1,0,0:0:0:0:
470,322,78047,2,0,P|429:284|367:276,1,118.75
267,349,78221,5,0,0:0:0:0:
244,370,78308,2,0,P|217:373|188:376,5,47.5000018119813
63,332,78657,5,0,0:0:0:0:
57,289,78744,1,0,0:0:0:0:
49,246,78832,1,0,0:0:0:0:
119,180,78919,1,0,0:0:0:0:
182,280,79006,6,0,B|299:254|299:254|370:81|370:81|297:65|266:127|266:127|240:198,1,498.750004756451
369,286,79355,6,0,P|380:255|396:215,1,71.2500027179719
491,194,79529,1,0,0:0:0:0:
465,159,79617,1,0,0:0:0:0:
476,116,79704,2,0,B|468:32|468:32|392:223,1,285.000010871888
451,311,79965,6,0,P|476:335|467:298,1,95
63,332,80227,6,0,B|138:365|211:310|211:310|283:253|369:289|369:289|312:320|292:364,1,427.500016307831
120,248,80576,2,0,P|80:243|44:219,1,71.2500027179719
314,185,80750,5,0,0:0:0:0:
109,155,80837,2,0,B|90:123|90:123|104:19,1,142.500005435944
309,95,81012,5,0,0:0:0:0:
309,95,81099,2,0,B|281:77|263:57|263:57|264:82|254:114,1,118.75
202,199,81273,1,0,0:0:0:0:
196,174,81361,1,0,0:0:0:0:
120,250,81448,6,0,P|182:294|245:289,1,142.500005435944
439,146,81622,2,0,P|377:190|314:185,1,142.500005435944
176,79,81797,6,0,B|168:26|103:1|43:34|43:34|83:210|83:210|35:286,1,427.500016307831
82,353,82146,6,0,B|117:366|117:366|100:329,1,71.2500027179719
279,320,82320,1,0,0:0:0:0:
240,299,82407,1,0,0:0:0:0:
198,307,82494,2,0,B|218:265|218:265|174:73,1,237.5
252,30,82756,6,0,P|259:57|268:88,1,47.5
433,280,83018,6,0,B|500:209|466:117|375:78|303:134|295:207|295:207|336:196|388:209,1,427.500016307831
481,351,83367,2,0,P|423:315|349:309,1,142.500005435944
234,355,83541,5,0,0:0:0:0:
182,233,83628,1,0,0:0:0:0:
187,201,83715,2,0,B|199:144|232:97|232:97|153:80|69:136|43:226|43:226|83:215|108:212,1,427.500016307831
296,187,84064,5,0,0:0:0:0:
326,181,84151,1,0,0:0:0:0:
398,227,84239,2,0,B|474:204|503:110|447:39|447:39|373:42|345:104,1,356.25
142,302,84587,6,0,B|307:269|307:269|343:325|408:329|408:329|334:351|276:307,1,427.500016307831
187,201,84936,6,0,B|130:179|130:179|281:144,1,213.750008153916
445,52,85285,5,0,0:0:0:0:
436,100,85372,1,0,0:0:0:0:
393,126,85460,1,0,0:0:0:0:
357,45,85547,2,0,B|231:72|231:72|194:57,1,166.250001585484
196,57,85808,6,0,P|159:97|166:42,1,142.5
37,38,86157,2,0,P|43:72|47:117,1,71.2500027179719
79,274,86332,1,0,0:0:0:0:
272,237,86419,2,0,P|216:204|140:215,1,142.500005435944
141,214,86593,6,0,B|117:359|117:359|167:348|163:279,1,237.5
62,191,86855,1,0,0:0:0:0:
41,186,86942,1,0,0:0:0:0:
20,180,87029,2,0,P|14:154|10:131,1,35.625001358986
108,80,87204,2,0,P|114:106|118:129,1,35.625001358986
163,292,87378,5,0,0:0:0:0:
181,295,87465,1,0,0:0:0:0:
199,298,87553,1,0,0:0:0:0:
217,301,87640,1,0,0:0:0:0:
235,304,87727,6,0,L|261:309,5,15.8333333333333
314,360,88076,2,0,L|353:354,3,23.75
391,285,88425,2,0,L|397:245,2,31.6666666666667
464,348,88773,6,0,L|471:321,2,25.3333333333333
438,359,89646,5,0,0:0:0:0:
470,323,89820,1,0,0:0:0:0:
482,368,89994,1,0,0:0:0:0:
369,22,90169,6,0,B|402:99|479:120|479:120|450:216|450:216|201:204,1,498.750004756451
166,114,90518,2,0,P|236:116|314:121,1,142.5
106,30,90867,6,0,P|68:82|80:169,1,142.500005435944
176,336,91128,2,0,P|125:264|2:248,1,190
206,226,91390,2,0,B|233:256|243:279|243:279|420:300,1,237.5
460,136,91651,1,0,0:0:0:0:
439,97,91739,2,0,P|384:142|378:209,1,142.500005435944
482,368,91913,5,0,0:0:0:0:
176,336,92087,1,0,0:0:0:0:
209,304,92175,2,0,B|242:94|242:94|217:72|187:30,1,285.000010871888
110,129,92436,1,0,0:0:0:0:
110,129,92523,1,0,0:0:0:0:
110,129,92611,2,0,L|51:119,1,35.625001358986
332,210,92785,2,0,L|391:200,1,35.625001358986
46,317,92960,6,0,P|45:273|67:306,1,106.875004076958
49,340,93308,2,0,B|27:227|27:227|81:157|60:59,1,285
314,45,93657,6,0,B|169:118|169:118|166:184|137:238,1,285.000010871888
297,303,93919,2,0,B|270:172|270:172|262:227|235:285,1,237.5
49,340,94180,2,0,B|129:347|129:347|151:366|151:366|231:371,1,190
495,359,94442,5,0,0:0:0:0:
459,334,94529,2,0,P|413:331|371:357,1,95
210,281,94704,2,0,P|256:278|298:304,1,95
486,234,94878,6,0,B|424:218|373:245|373:245|433:193|451:110|422:55|422:55|385:95|401:157,1,427.500016307831
308,170,95227,1,0,0:0:0:0:
303,141,95314,1,0,0:0:0:0:
223,81,95401,6,0,L|230:31,1,47.5
143,202,95576,2,0,L|136:152,1,47.5
37,61,95750,6,0,B|79:12|141:10|204:44|218:152|135:197|59:162|59:162|99:132|141:158,1,427.500016307831
232,246,96099,2,0,P|178:283|90:291,1,142.5
262,152,96448,6,0,B|272:110|267:79|267:79|306:147,1,142.500005435944
463,178,96710,2,0,B|412:169|412:169|340:35,1,190
232,246,96971,2,0,B|331:260|331:260|363:243|363:243|467:260,1,237.5
174,339,97233,1,0,0:0:0:0:
135,353,97320,2,0,P|92:307|91:208,1,142.500005435944
193,75,97494,5,0,0:0:0:0:
462,179,97669,1,0,0:0:0:0:
479,136,97756,2,0,B|465:88|459:40|459:40|386:55|342:97|364:176,1,285.000010871888
415,280,98018,1,0,0:0:0:0:
442,286,98105,1,0,0:0:0:0:
469,293,98192,1,0,0:0:0:0:
232,246,98367,1,0,0:0:0:0:
99,366,98541,6,0,P|180:356|216:352,2,95.0000036239625
232,246,98890,2,0,P|151:256|115:260,2,95.0000036239625
13,168,99239,6,0,P|94:158|148:152,2,126.666666666667
216,44,99587,2,0,P|135:54|81:60,2,126.666666666667
413,40,99936,6,0,P|405:114|398:196,1,142.500005435944
386,177,100198,2,0,P|392:106|400:36,1,142.500005435944
388,29,100460,2,0,P|379:99|373:170,1,142.500005435944
461,249,100721,2,0,P|456:325|425:269,1,190
479,153,100983,6,0,P|483:109|488:76,1,71.2500027179719
304,67,101157,2,0,P|300:111|295:144,1,71.2500027179719
331,316,101332,6,0,B|313:222|221:175|123:189|123:189|151:231|158:305|158:305|218:286|239:234,1,498.750004756451
296,137,101680,2,0,P|237:115|150:105,1,142.5
400,35,102029,6,0,P|391:106|386:177,1,142.500005435944
331,316,102291,2,0,B|332:256|289:204|289:204|296:133,1,190
482,57,102553,2,0,B|470:178|464:241|464:241|410:283,1,237.5
215,360,102814,1,0,0:0:0:0:
177,374,102901,2,0,P|175:308|225:251,1,142.500005435944
386,176,103076,5,0,0:0:0:0:
132,71,103250,1,0,0:0:0:0:
94,53,103337,2,0,B|46:107|71:194|154:201|154:201|191:171|191:128,1,285.000010871888
247,34,103599,5,0,0:0:0:0:
247,34,103686,1,0,0:0:0:0:
247,34,103773,2,0,L|254:87,1,35.625001358986
331,316,103948,2,0,L|338:263,1,35.625001358986
42,351,104122,6,0,P|48:310|69:347,1,106.875004076958
76,229,104471,2,0,B|124:243|148:288|148:288|141:193|133:95,1,285
490,66,104820,6,0,B|275:40|275:40|255:63|211:90,1,285.000010871888
256,360,105082,2,0,B|243:178|243:178|291:141,1,237.5
498,173,105343,2,0,B|407:166|407:166|329:225,1,190
256,360,105605,1,0,0:0:0:0:
295,337,105692,2,0,P|341:341|392:343,1,95
136,288,105867,2,0,P|90:292|39:294,1,95
431,247,106041,6,0,B|498:172|498:172|378:118|266:192|266:192|265:150|231:109,1,427.500016307831
314,81,106390,1,0,0:0:0:0:
319,57,106477,1,0,0:0:0:0:
398,69,106564,6,0,L|461:61,1,47.5
176,185,106739,2,0,L|113:177,1,47.5
34,82,106913,5,0,0:0:0:0:
162,49,107000,2,0,P|164:125|115:188,1,142.500005435944
28,276,107175,1,0,0:0:0:0:
58,307,107262,2,0,P|129:301|172:296,1,95
152,298,107523,6,0,P|191:304|228:308,1,71.2500027179719
416,270,107698,2,0,B|336:259|336:259|311:237|311:237|234:225,1,190
411,155,107960,2,0,B|472:55|472:55|482:181,1,237.5
454,364,108221,2,0,P|413:359|334:347,1,118.75
85,361,108396,6,0,B|51:248|51:248|138:186|138:186|191:223,1,285.000010871888
416,270,108657,2,0,B|314:255|314:255|249:310|249:310|150:297,1,285.000010871888
491,211,108919,2,0,P|480:136|471:69,1,142.500005435944
276,18,109093,6,0,B|353:37|353:37|378:206|378:206|307:262|307:262,1,332.500003170967
103,97,109355,2,0,B|149:89|149:89|271:117,1,166.250001585484
265,115,109529,2,0,B|219:123|219:123|97:95,1,166.250001585484,0|0,0:0|0:0,0:0:0:0:
70,65,109704,6,0,B|138:106|103:224|30:228|30:228|60:161|132:150|172:174|172:174|160:246|96:284|96:284|134:273|185:277,1,605.625023102761
258,224,111273,2,0,L|272:264,1,35.625001358986
361,178,111448,2,0,L|360:220,1,35.625001358986
449,252,111622,6,0,L|454:282,18,17.812500679493
449,252,112494,1,0,0:0:0:0:
256,192,112582,12,0,117989,0:0:0:0:
68,110,118076,5,0,0:0:0:0:
80,122,118163,1,0,0:0:0:0:
94,130,118250,1,0,0:0:0:0:
110,137,118337,1,0,0:0:0:0:
127,142,118425,1,0,0:0:0:0:
144,144,118512,1,0,0:0:0:0:
161,146,118599,1,0,0:0:0:0:
178,146,118686,1,0,0:0:0:0:
195,142,118773,1,0,0:0:0:0:
211,136,118861,1,0,0:0:0:0:
226,126,118948,1,0,0:0:0:0:
240,116,119035,1,0,0:0:0:0:
253,104,119122,1,0,0:0:0:0:
264,89,119210,1,0,0:0:0:0:
272,72,119297,1,0,0:0:0:0:
278,55,119384,1,0,0:0:0:0:
281,37,119471,5,0,0:0:0:0:
293,54,119558,1,0,0:0:0:0:
301,77,119646,1,0,0:0:0:0:
305,105,119733,1,0,0:0:0:0:
301,136,119820,1,0,0:0:0:0:
288,169,119907,1,0,0:0:0:0:
264,200,119994,1,0,0:0:0:0:
224,218,120082,1,0,0:0:0:0:
178,224,120169,1,0,0:0:0:0:
129,212,120256,1,0,0:0:0:0:
88,177,120343,1,0,0:0:0:0:
69,123,120430,1,0,0:0:0:0:
82,63,120518,2,0,P|116:56|150:34,1,71.2500027179719
235,99,120692,2,0,P|201:106|167:128,1,71.2500027179719
88,177,120867,5,0,0:0:0:0:
278,148,122262,6,0,P|305:145|336:141,1,47.5
461,162,122523,6,0,P|434:165|403:169,1,47.5
346,139,122785,6,0,P|322:141|298:144,1,47.5
389,170,123047,6,0,P|412:167|436:164,1,47.5
323,122,123308,5,0,0:0:0:0:
298,109,123396,1,0,0:0:0:0:
389,67,123483,1,0,0:0:0:0:
470,335,123657,6,0,B|438:296|438:296|375:354|375:354|188:334,1,316.666666666667
195,334,124006,2,0,B|182:213|182:213|150:187,2,158.333333333333
158,96,124355,5,0,0:0:0:0:
77,141,124471,1,0,0:0:0:0:
153,189,124588,1,0,0:0:0:0:
158,96,124704,1,0,0:0:0:0:
158,96,124936,5,0,0:0:0:0:
383,30,125053,2,0,B|456:10|456:10|396:93|396:93|413:246,1,316.666666666667
336,284,125401,2,0,L|320:126,2,158.333333333333
460,312,125750,6,0,L|76:352,1,380.00001449585
33,270,126099,2,0,L|417:230,1,380.00001449585
136,172,126448,6,0,B|336:152|336:152|244:80,1,316.666666666667
61,114,126797,2,0,L|29:290,2,158.333333333333
124,260,127146,5,0,0:0:0:0:
86,346,127262,1,0,0:0:0:0:
32,269,127378,1,0,0:0:0:0:
124,260,127494,1,0,0:0:0:0:
124,260,127727,5,0,0:0:0:0:
316,345,127843,2,0,B|391:354|452:281|446:205|446:205|406:236|406:294,1,316.666666666667
486,355,128192,1,0,0:0:0:0:
448,207,128309,1,0,0:0:0:0:
308,183,128425,1,0,0:0:0:0:
202,361,128541,6,0,P|147:250|265:113,1,316.666666666667
448,207,128890,1,0,0:0:0:0:
256,114,129006,1,0,0:0:0:0:
440,56,129123,1,0,0:0:0:0:
262,262,129239,6,0,B|182:300|182:300|27:231|27:231|12:167,1,316.666666666667
124,19,129587,2,0,B|92:120|92:120|104:186,2,158.333333333333
184,209,129936,5,0,0:0:0:0:
101,171,130053,1,0,0:0:0:0:
174,120,130169,1,0,0:0:0:0:
184,209,130285,1,0,0:0:0:0:
184,209,130518,5,0,0:0:0:0:
396,249,130634,2,0,B|281:262|281:262|236:305|236:305|94:319,1,316.666666666667
328,346,130983,2,0,L|490:329,2,158.333333333333
397,134,131332,6,0,B|354:55|354:55|325:361,1,380.00001449585
194,285,131680,2,0,B|236:363|236:363|263:73,1,380.00001449585
142,361,132029,6,0,B|99:298|99:298|121:47,1,316.666666666667
119,58,132378,2,0,B|232:52|232:52|268:21,2,158.333333333333
285,113,132727,5,0,0:0:0:0:
355,50,132844,1,0,0:0:0:0:
266,21,132960,1,0,0:0:0:0:
285,113,133076,1,0,0:0:0:0:
285,113,133309,5,0,0:0:0:0:
50,146,133425,2,0,B|-4:187|-5:277|76:320|139:297|166:250|171:217|171:217|131:229|92:207,1,380.00001449585
161,50,134471,5,0,0:0:0:0:
145,137,134558,1,0,0:0:0:0:
192,129,134646,1,0,0:0:0:0:
238,122,134733,1,0,0:0:0:0:
277,213,134820,6,0,B|313:304|313:304|347:83,1,316.666666666667
349,65,135169,1,0,0:0:0:0:
415,210,135285,2,0,L|437:50,1,158.333333333333
477,290,135518,5,0,0:0:0:0:
287,344,135634,1,0,0:0:0:0:
335,147,135751,1,0,0:0:0:0:
477,290,135867,1,0,0:0:0:0:
477,290,136099,5,0,0:0:0:0:
68,334,136215,2,0,B|4:295|4:295|18:202|18:202|168:176,1,316.666666666667
247,162,136564,1,0,0:0:0:0:
119,265,136681,2,0,L|287:241,1,158.333333333333
461,31,136913,6,0,B|430:58|430:58|418:212,1,190.000007247925
409,322,137146,1,0,0:0:0:0:
68,334,137262,2,0,B|99:307|99:307|111:153,1,190.000007247925
120,43,137495,1,0,0:0:0:0:
323,120,137611,6,0,B|202:111|202:111|144:142|144:142|3:129,1,316.666666666667
410,40,137960,1,0,0:0:0:0:
240,203,138076,2,0,L|405:215,1,158.333333333333
501,225,138308,5,0,0:0:0:0:
323,120,138425,1,0,0:0:0:0:
329,325,138541,1,0,0:0:0:0:
501,225,138657,1,0,0:0:0:0:
501,225,138890,5,0,0:0:0:0:
211,45,139006,2,0,L|241:367,1,316.666666666667
381,243,139355,1,0,0:0:0:0:
211,45,139471,1,0,0:0:0:0:
87,275,139588,1,0,0:0:0:0:
329,325,139704,2,0,L|299:3,1,316.666666666667
167,133,140053,1,0,0:0:0:0:
329,325,140169,1,0,0:0:0:0:
451,108,140285,1,0,0:0:0:0:
211,45,140401,6,0,B|50:29|50:29|69:190,1,316.666666666667
88,361,140750,5,0,0:0:0:0:
243,259,140867,1,0,0:0:0:0:
68,182,140983,1,0,0:0:0:0:
88,361,141099,5,0,0:0:0:0:
64,134,141216,1,0,0:0:0:0:
284,230,141332,1,0,0:0:0:0:
88,361,141448,1,0,0:0:0:0:
88,361,141681,5,0,0:0:0:0:
151,81,141797,2,0,L|489:51,1,316.666666666667
424,148,142146,5,0,0:0:0:0:
209,170,142262,1,0,0:0:0:0:
424,148,142378,1,0,0:0:0:0:
480,356,142494,6,0,L|100:327,1,380.00001449585
32,28,142843,2,0,L|412:57,1,380.00001449585
483,253,143192,6,0,B|469:318|396:350|325:333|263:240|304:169|380:146|380:146|402:212|364:286|275:277|224:239|224:239|212:325|140:360|54:341|14:272|49:205|49:205|97:209|128:241|128:241|135:192|159:160|193:144|241:150|241:150|258:118|314:60|412:56|412:56|307:34|212:102|212:102|155:29|31:28|31:28|55:40|71:54,1,1859.62505675125
8,112,145634,5,0,0:0:0:0:
15,141,145721,1,0,0:0:0:0:
111,178,145808,1,0,0:0:0:0:
31,244,145896,1,0,0:0:0:0:
23,278,145983,1,0,0:0:0:0:
206,151,156797,5,0,0:0:0:0:
181,147,156884,1,0,0:0:0:0:
306,233,157058,5,0,0:0:0:0:
331,237,157146,2,0,L|348:240,2,14.2499995651245
434,256,157669,2,0,L|451:259,2,14.2499995651245
331,237,158192,2,0,L|348:240,1,14.2499995651245
181,147,158541,6,0,L|164:144,2,14.2499995651245
78,128,159064,2,0,L|61:125,2,14.2499995651245
181,147,159587,2,0,L|164:144,1,14.2499995651245
208,300,159936,5,0,0:0:0:0:
208,300,160111,2,0,L|211:317,1,14.2499995651245
252,216,160460,2,0,L|255:233,2,14.2499995651245
296,132,160983,2,0,L|299:149,1,14.2499995651245
332,324,161332,6,0,L|335:341,2,14.2499995651245
252,216,161855,2,0,L|255:233,1,14.2499995651245
176,96,162204,5,0,0:0:0:0:
296,132,162378,2,0,L|278:126,1,14.2499995651245
176,96,162727,6,0,L|158:90,2,14.2499995651245
68,57,163250,2,0,L|50:51,2,14.2499995651245
176,96,163773,2,0,L|158:90,1,14.2499995651245
336,288,164122,6,0,L|354:294,2,14.2499995651245
444,327,164646,2,0,L|462:333,2,14.2499995651245
336,288,165169,2,0,L|354:294,1,14.2499995651245
314,135,165518,5,0,0:0:0:0:
314,135,165692,2,0,L|311:116,1,14.2499995651245
298,36,166041,2,0,L|295:17,2,14.2499995651245
314,135,166564,2,0,L|311:116,1,14.2499995651245
336,288,166913,6,0,L|333:260,1,28.4999991302491
314,135,167436,2,0,L|311:116,1,14.2499995651245
336,288,167785,5,0,0:0:0:0:
390,188,167960,1,0,0:0:0:0:
396,171,168047,1,0,0:0:0:0:
259,205,168221,1,0,0:0:0:0:
248,193,168308,6,0,B|218:152|218:152|30:121|30:121|25:206|90:221|90:221|156:231,1,427.500016307831
221,293,168657,6,0,L|228:339,3,35.625001358986
341,252,169006,2,0,L|334:298,3,35.625001358986
469,265,169355,2,0,L|438:305,3,35.625001358986
412,150,169704,5,0,0:0:0:0:
416,121,169791,1,0,0:0:0:0:
420,92,169878,2,0,L|458:57,1,35.625001358986
310,115,170053,1,0,0:0:0:0:
305,86,170140,1,0,0:0:0:0:
301,57,170227,2,0,L|322:20,1,35.625001358986
203,116,170401,1,0,0:0:0:0:
187,91,170489,1,0,0:0:0:0:
172,66,170576,2,0,L|180:21,1,35.625001358986
101,158,170750,1,0,0:0:0:0:
76,142,170837,1,0,0:0:0:0:
51,126,170925,2,0,L|46:87,1,35.625001358986
116,263,171099,6,0,P|119:295|124:342,1,71.2500027179719
224,354,171448,1,0,0:0:0:0:
255,216,171622,2,0,L|206:234,1,35.625001358986
367,308,171797,1,0,0:0:0:0:
394,313,171884,1,0,0:0:0:0:
421,318,171971,2,0,L|409:277,1,35.625001358986
347,191,172146,1,0,0:0:0:0:
345,166,172233,1,0,0:0:0:0:
353,142,172320,1,0,0:0:0:0:
370,124,172407,1,0,0:0:0:0:
392,113,172494,6,0,P|430:123|471:131,1,71.2500027179719
353,36,172843,1,0,0:0:0:0:
256,152,173018,5,0,0:0:0:0:
202,162,173105,5,0,0:0:0:0:
240,122,173192,5,0,0:0:0:0:
233,177,173279,5,0,0:0:0:0:
207,129,173367,6,0,B|179:60|179:60|103:96|103:96|73:221|73:221|157:264|157:264|167:362,1,475
18,318,173890,6,0,B|60:303|60:303|166:357|166:357|283:321|283:321|315:268|315:268|396:241,1,427.500016307831
391,242,174239,5,0,0:0:0:0:
483,301,174413,2,0,L|432:320,1,35.625001358986
449,172,174587,1,0,0:0:0:0:
453,147,174675,1,0,0:0:0:0:
459,122,174762,2,0,L|503:101,1,35.625001358986
337,34,174936,1,0,0:0:0:0:
341,62,175023,1,0,0:0:0:0:
346,90,175111,1,0,0:0:0:0:
351,117,175198,1,0,0:0:0:0:
355,144,175285,6,0,P|323:141|283:136,1,71.2500027179719
196,127,175634,1,0,0:0:0:0:
245,59,175808,2,0,L|235:12,1,35.625001358986
272,217,175983,1,0,0:0:0:0:
299,223,176070,1,0,0:0:0:0:
326,229,176157,2,0,L|336:278,1,35.625001358986
419,312,176332,2,0,L|414:361,3,35.625001358986
242,333,176680,5,0,0:0:0:0:
213,338,176768,1,0,0:0:0:0:
185,344,176855,2,0,L|130:357,1,35.625001358986
212,238,177029,1,0,0:0:0:0:
183,235,177117,1,0,0:0:0:0:
154,232,177204,2,0,L|99:229,1,35.625001358986
241,140,177378,1,0,0:0:0:0:
214,129,177465,1,0,0:0:0:0:
187,119,177553,2,0,L|136:102,1,35.625001358986
300,58,177727,1,0,0:0:0:0:
276,41,177814,1,0,0:0:0:0:
253,24,177901,2,0,L|210:-3,1,35.625001358986
408,43,178076,6,0,P|403:82|401:132,1,71.2500027179719
393,207,178425,1,0,0:0:0:0:
421,350,178599,5,0,0:0:0:0:
469,321,178686,5,0,0:0:0:0:
411,318,178773,5,0,0:0:0:0:
456,353,178861,5,0,0:0:0:0:
442,297,178948,6,0,B|334:321|334:321|232:344|216:262|216:262|328:240|328:240|404:155,1,475
469,220,179471,6,0,B|507:172|507:172|472:69|472:69|361:62|361:62|300:129|300:129|241:142,1,427.500016307831
245,140,179820,5,0,0:0:0:0:
182,75,179994,2,0,L|191:26,1,35.625001358986
43,212,180169,1,0,0:0:0:0:
69,221,180256,1,0,0:0:0:0:
97,223,180343,1,0,0:0:0:0:
125,219,180430,1,0,0:0:0:0:
150,205,180518,2,0,L|161:157,1,35.625001358986
67,64,180692,1,0,0:0:0:0:
77,90,180779,1,0,0:0:0:0:
86,117,180867,6,0,L|102:36,1,71.2500027179719
43,212,181215,1,0,0:0:0:0:
236,271,181390,2,0,L|183:266,1,35.625001358986
19,379,181564,1,0,0:0:0:0:
47,374,181651,1,0,0:0:0:0:
75,369,181739,1,0,0:0:0:0:
102,363,181826,1,0,0:0:0:0:
130,358,181913,2,0,L|178:350,1,35.625001358986
157,149,182087,1,0,0:0:0:0:
153,177,182175,1,0,0:0:0:0:
150,205,182262,6,0,P|143:243|139:280,1,71.2500027179719
80,100,182611,1,0,0:0:0:0:
229,84,182785,2,0,L|271:79,1,35.625001358986
346,217,182960,1,0,0:0:0:0:
325,197,183047,1,0,0:0:0:0:
299,184,183134,1,0,0:0:0:0:
270,182,183221,1,0,0:0:0:0:
242,189,183308,2,0,L|237:233,1,35.625001358986
407,343,183483,1,0,0:0:0:0:
412,315,183570,1,0,0:0:0:0:
416,286,183657,6,0,L|422:247|428:208,1,71.2500027179719
272,295,184006,1,0,0:0:0:0:
229,84,184180,5,0,0:0:0:0:
308,102,184268,5,0,0:0:0:0:
251,72,184355,5,0,0:0:0:0:
285,113,184442,5,0,0:0:0:0:
268,93,184529,6,0,B|318:100|318:100|482:43|482:43|433:152|433:152|300:197,1,475
407,252,185053,6,0,B|199:314|199:314|118:232|118:232|165:228|204:269,1,427.500016307831
131,370,185401,5,0,0:0:0:0:
30,251,185576,2,0,L|37:201,1,35.625001358986
149,60,185750,1,0,0:0:0:0:
155,87,185837,1,0,0:0:0:0:
152,115,185925,1,0,0:0:0:0:
140,141,186012,1,0,0:0:0:0:
119,161,186099,2,0,L|104:117,1,35.625001358986
254,122,186273,1,0,0:0:0:0:
258,150,186361,1,0,0:0:0:0:
261,178,186448,6,0,P|264:215|269:260,1,71.2500027179719
279,343,186797,1,0,0:0:0:0:
187,305,186971,2,0,L|179:253,1,35.625001358986
465,287,187146,1,0,0:0:0:0:
441,270,187233,1,0,0:0:0:0:
413,264,187320,1,0,0:0:0:0:
384,267,187407,1,0,0:0:0:0:
359,280,187494,2,0,L|366:331,1,35.625001358986
463,182,187669,1,0,0:0:0:0:
467,154,187756,1,0,0:0:0:0:
472,126,187843,6,0,P|437:121|392:115,1,71.2500027179719
327,46,188192,1,0,0:0:0:0:
261,178,188367,2,0,L|218:186,1,35.625001358986
43,83,188541,1,0,0:0:0:0:
71,87,188628,1,0,0:0:0:0:
99,91,188715,1,0,0:0:0:0:
127,95,188803,1,0,0:0:0:0:
154,100,188890,2,0,L|216:111,1,35.625001358986
366,131,189064,5,0,0:0:0:0:
371,158,189151,1,0,0:0:0:0:
376,186,189239,1,0,0:0:0:0:
261,178,189413,1,0,0:0:0:0:
426,58,189587,1,0,0:0:0:0:
448,262,189762,5,0,0:0:0:0:
369,280,189849,5,0,0:0:0:0:
426,250,189936,5,0,0:0:0:0:
392,291,190023,5,0,0:0:0:0:
409,271,190111,6,0,B|365:339|365:339|219:356|219:356|149:278|149:278|226:240|274:311,1,475
272,309,190634,6,0,L|310:314,31,23.75
272,309,193425,6,0,L|234:305,3,23.75
272,309,193773,2,0,L|276:270,3,23.75
272,309,194122,2,0,L|310:313,3,23.75
272,309,194471,2,0,L|267:347,3,23.75
172,270,194820,6,0,L|210:266,3,23.75
172,270,195169,2,0,L|168:231,3,23.75
172,270,195518,2,0,L|134:274,3,23.75
172,270,195867,2,0,L|177:308,3,23.75
73,195,196215,6,0,L|78:150,3,35.625001358986
179,185,196564,2,0,L|167:136,3,35.625001358986
273,134,196913,2,0,L|246:98,3,35.625001358986
337,47,197262,2,0,L|294:31,3,35.625001358986
164,44,197611,6,0,L|205:25,3,35.625001358986
225,130,197960,2,0,L|261:95,3,35.625001358986
316,186,198308,2,0,L|333:144,3,35.625001358986
424,198,198657,2,0,L|416:152,3,35.625001358986
463,56,199006,6,0,L|470:101,7,35.625001358986
424,198,199704,2,0,L|416:152,7,35.625001358986
327,136,200401,2,0,L|334:181,7,35.625001358986
288,278,201099,2,0,L|280:232,7,35.625001358986
224,344,201797,5,0,0:0:0:0:
196,349,201884,1,0,0:0:0:0:
167,349,201971,1,0,0:0:0:0:
139,340,202058,1,0,0:0:0:0:
112,328,202146,1,0,0:0:0:0:
88,311,202233,1,0,0:0:0:0:
71,287,202320,2,0,P|62:259|54:228,1,47.5
87,53,202494,5,0,0:0:0:0:
117,46,202582,1,0,0:0:0:0:
148,45,202669,1,0,0:0:0:0:
178,51,202756,1,0,0:0:0:0:
205,66,202843,1,0,0:0:0:0:
228,86,202930,1,0,0:0:0:0:
242,114,203018,2,0,P|247:145|251:166,1,52.2500015945435
313,344,203192,5,0,0:0:0:0:
347,346,203279,1,0,0:0:0:0:
381,342,203367,1,0,0:0:0:0:
412,329,203454,1,0,0:0:0:0:
440,310,203541,1,0,0:0:0:0:
461,283,203628,1,0,0:0:0:0:
473,251,203715,2,0,P|468:225|462:193,1,56.9999982604981
434,45,203890,5,0,0:0:0:0:
397,36,203977,1,0,0:0:0:0:
360,35,204064,1,0,0:0:0:0:
324,43,204151,1,0,0:0:0:0:
290,59,204239,1,0,0:0:0:0:
262,83,204326,1,0,0:0:0:0:
242,114,204413,2,0,L|247:147|252:180,1,61.7499971733095
89,354,204587,5,0,0:0:0:0:
61,324,204675,1,0,0:0:0:0:
44,287,204762,1,0,0:0:0:0:
40,247,204849,1,0,0:0:0:0:
45,207,204936,1,0,0:0:0:0:
61,170,205023,1,0,0:0:0:0:
87,140,205111,2,0,P|118:143|157:144,1,66.4999979705811
434,45,205285,5,0,0:0:0:0:
456,81,205372,1,0,0:0:0:0:
468,122,205460,1,0,0:0:0:0:
470,164,205547,1,0,0:0:0:0:
465,206,205634,1,0,0:0:0:0:
449,245,205721,1,0,0:0:0:0:
420,276,205808,2,0,P|386:273|344:272,1,71.2500027179719
37,38,205983,5,0,0:0:0:0:
46,82,206070,1,0,0:0:0:0:
53,126,206157,1,0,0:0:0:0:
61,170,206244,1,0,0:0:0:0:
69,215,206332,1,0,0:0:0:0:
77,259,206419,1,0,0:0:0:0:
86,303,206506,2,0,P|126:314|171:327,1,76
473,341,206680,5,0,0:0:0:0:
461,293,206768,1,0,0:0:0:0:
449,245,206855,1,0,0:0:0:0:
437,197,206942,1,0,0:0:0:0:
426,149,207029,1,0,0:0:0:0:
414,101,207117,1,0,0:0:0:0:
402,54,207204,2,0,P|362:49|322:39,1,80.750001540184
53,126,207378,6,0,L|46:72,1,42.7499986953736
82,131,207465,2,0,L|77:77,1,42.7499986953736
111,136,207553,2,0,L|107:83,1,42.7499986953736
137,122,207640,2,0,L|133:78,1,42.7499986953736
163,108,207727,2,0,L|159:66,1,42.7499986953736
189,95,207814,2,0,L|185:53,1,42.7499986953736
217,103,207901,2,0,L|212:55,1,42.7499986953736
246,111,207989,2,0,L|240:62,1,42.7499986953736
371,91,208076,6,0,L|428:80,1,42.7499986953736
348,122,208163,2,0,L|402:116,1,42.7499986953736
354,159,208250,2,0,L|400:153,1,42.7499986953736
361,196,208337,2,0,L|407:190,1,42.7499986953736
370,233,208425,2,0,L|417:225,1,42.7499986953736
406,245,208512,2,0,L|459:235,1,42.7499986953736
442,258,208599,2,0,L|491:249,1,42.7499986953736
481,275,208686,2,0,L|526:265,1,42.7499986953736
423,358,208773,6,0,L|373:373,1,42.7499986953736
377,345,208861,2,0,L|323:363,1,42.7499986953736
331,333,208948,2,0,L|277:349,1,42.7499986953736
285,320,209035,2,0,L|236:336,1,42.7499986953736
271,275,209122,2,0,L|226:288,1,42.7499986953736
262,228,209210,2,0,L|217:240,1,42.7499986953736
254,181,209297,2,0,L|211:193,1,42.7499986953736
243,134,209384,2,0,L|181:150,1,42.7499986953736
138,73,209471,6,0,L|147:21,1,42.7499986953736
90,102,209558,2,0,L|97:42,1,42.7499986953736
44,134,209646,2,0,L|50:76,1,42.7499986953736
51,188,209733,2,0,L|57:131,1,42.7499986953736
59,242,209820,2,0,L|64:188,1,42.7499986953736
68,296,209907,2,0,L|72:242,1,42.7499986953736
77,350,209994,2,0,L|87:290,1,42.7499986953736
131,364,210082,2,0,L|138:313,1,42.7499986953736
237,337,210169,6,0,L|209:347,62,17.812500679493
237,337,211564,1,0,0:0:0:0:
407,14,211739,5,0,0:0:0:0:
401,59,211826,1,0,0:0:0:0:
395,104,211913,1,0,0:0:0:0:
389,149,212000,1,0,0:0:0:0:
383,194,212087,1,0,0:0:0:0:
377,240,212175,1,0,0:0:0:0:
449,315,212262,5,0,0:0:0:0:
463,288,212349,1,0,0:0:0:0:
284,284,212436,1,0,0:0:0:0:
277,253,212523,1,0,0:0:0:0:
377,240,212611,5,0,0:0:0:0:
449,315,212698,1,0,0:0:0:0:
353,362,212785,1,0,0:0:0:0:
284,284,212872,1,0,0:0:0:0:
395,104,212960,6,0,B|454:105|477:151|471:194|471:194|449:319|449:319|352:365|352:365|377:239,1,498.750004756451
307,62,213308,2,0,B|292:100|302:134|302:134|261:68,1,142.500005435944
179,233,213483,5,0,0:0:0:0:
235,360,213570,2,0,L|270:208,1,142.500005435944
136,142,213744,5,0,0:0:0:0:
88,327,213832,2,0,P|116:335|104:308,1,71.2500027179719
32,17,214006,2,0,B|65:230|65:230|41:253|13:288,1,285.000010871888
136,142,214268,6,0,P|212:142|273:187,1,142.500005435944
367,323,214442,1,0,0:0:0:0:
236,360,214529,2,0,P|219:330|250:354,1,95
460,358,214704,5,0,0:0:0:0:
367,323,214791,1,0,0:0:0:0:
359,273,214878,1,0,0:0:0:0:
349,224,214965,1,0,0:0:0:0:
439,151,215053,6,0,B|469:132|469:132|462:186|455:241,1,142.500005435944
326,116,215227,5,0,0:0:0:0:
300,30,215314,1,0,0:0:0:0:
390,50,215401,2,0,L|432:59,1,35.625001358986
367,323,215576,2,0,L|325:314,1,35.625001358986
41,338,215750,6,0,B|105:300|183:336|183:336|151:315|132:284,1,213.750008153916
34,98,216099,6,0,B|76:96|130:69|130:69|67:249,1,285.000010871888
183,338,216361,2,0,P|205:258|153:197,1,142.500005435944
300,30,216535,5,0,0:0:0:0:
212,107,216622,2,0,P|203:129|231:116,1,71.2500027179719
426,121,216797,2,0,B|312:149|312:149|287:211|233:234|161:206,1,285.000010871888
123,134,217058,6,0,B|86:126|67:102|67:102|95:207,1,142.500005435944
366,216,217233,1,0,0:0:0:0:
274,304,217320,2,0,P|299:297|277:329,1,95
454,352,217494,5,0,0:0:0:0:
274,304,217582,2,0,B|246:282|246:282|236:209|236:209|260:176,1,142.500005435944
442,161,217756,2,0,B|479:223|431:277|431:277|325:237|325:237|376:210,1,285.000010871888
472,73,218018,5,0,0:0:0:0:
479,38,218105,1,0,0:0:0:0:
365,32,218192,2,0,B|382:55|382:55|369:137,1,95
123,134,218367,2,0,B|106:111|106:111|116:45,1,95
306,230,218541,6,0,B|240:190|177:237|177:237|111:286|42:236|42:236|42:186|22:144|22:144|102:235,1,498.750004756451
199,320,218890,2,0,P|132:346|50:330,1,142.500005435944
26,90,219064,5,0,0:0:0:0:
253,97,219151,2,0,P|184:97|116:141,1,142.500005435944
100,233,219326,5,0,0:0:0:0:
207,186,219413,2,0,P|212:215|191:193,1,71.2500027179719
26,90,219587,2,0,B|61:55|61:55|121:68|179:21|179:21|201:76|254:97,1,285.000010871888
431,32,219849,6,0,B|404:11|404:11|293:0,1,142.500005435944
253,97,220023,1,0,0:0:0:0:
465,130,220111,2,0,P|477:159|455:152,1,71.2500027179719
296,0,220285,5,0,0:0:0:0:
351,86,220372,1,0,0:0:0:0:
344,128,220460,1,0,0:0:0:0:
337,170,220547,1,0,0:0:0:0:
384,259,220634,6,0,B|425:289|425:289|414:194,1,142.500005435944
251,227,220808,5,0,0:0:0:0:
165,252,220896,1,0,0:0:0:0:
228,317,220983,2,0,L|236:360,1,35.625001358986
351,86,221157,2,0,L|343:43,1,35.625001358986
83,165,221332,6,0,B|64:90|64:90|108:99|128:160|90:205,1,213.750008153916
61,363,221680,6,0,B|57:316|36:278|36:278|238:319,1,285.000010871888
425,345,221942,2,0,P|347:340|293:381,1,142.500005435944
174,218,222117,5,0,0:0:0:0:
303,252,222204,2,0,P|326:258|309:232,1,71.2500027179719
431,120,222378,6,0,B|378:93|332:35|332:35|388:182,1,285.000010871888
425,345,222640,5,0,0:0:0:0:
503,270,222727,2,0,P|454:264|401:259,1,95
296,190,222901,2,0,L|197:212,1,95
62,361,223076,2,0,B|106:332|106:332|115:229|115:229|81:200|81:200|62:113,1,285.000010871888
39,34,223337,6,0,B|124:47|124:47|69:22,1,142.500005435944
360,75,223512,2,0,B|275:88|275:88|330:63,1,142.500005435944
156,143,223686,1,0,0:0:0:0:
296,190,223773,5,0,0:0:0:0:
290,232,223861,1,0,0:0:0:0:
284,274,223948,1,0,0:0:0:0:
180,303,224035,1,0,0:0:0:0:
156,143,224122,6,0,B|255:60|255:60|349:109|349:109|306:369,1,498.750004756451
424,200,224471,2,0,L|448:50,1,142.500005435944
208,216,224646,5,0,0:0:0:0:
475,301,224733,2,0,B|503:278|503:278|393:296,1,142.500005435944
208,216,224907,5,0,0:0:0:0:
230,364,224994,2,0,P|257:371|240:349,1,71.2500027179719
36,373,225169,2,8,B|108:383|150:325|150:325|198:252|283:273,1,285.000010871888,0|0,0:0|0:0,0:0:0:0:
43,145,225430,2,0,B|53:201|53:201|61:209|61:209|56:219|56:219|67:291,1,142.500005435944
309,99,225605,5,0,0:0:0:0:
107,67,225692,2,0,P|98:41|126:51,1,71.2500027179719
208,216,225867,5,0,0:0:0:0:
297,183,225954,1,0,0:0:0:0:
303,141,226041,1,0,0:0:0:0:
309,99,226128,1,0,0:0:0:0:
204,51,226215,6,0,B|171:21|171:21|196:131,1,142.500005435944
391,191,226390,5,0,0:0:0:0:
477,169,226477,1,0,0:0:0:0:
412,111,226564,2,0,L|417:68,1,35.625001358986
208,216,226739,2,0,L|203:259,1,35.625001358986
492,312,226913,6,0,B|434:366|364:326|364:326|284:279|234:346|234:346|302:397|364:331,1,427.500016307831
421,253,227262,6,0,L|411:105,1,142.500005435944
134,69,227523,6,0,L|144:217,1,142.500005435944
236,346,227698,1,0,0:0:0:0:
58,283,227785,2,0,P|90:291|64:303,1,71.2500027179719
421,253,227960,2,0,B|293:239|293:239|282:226|282:226|143:211,1,285.000010871888
25,196,228221,2,0,B|17:126|17:126|64:180,1,142.500005435944
222,133,228396,5,0,0:0:0:0:
236,346,228483,2,0,P|234:378|211:346,1,95
58,283,228657,5,0,0:0:0:0:
280,235,228744,2,0,B|262:220|262:220|136:210,1,142.500005435944
51,24,228919,2,0,B|0:70|-1:152|62:195|62:195|75:152|120:133,1,285.000010871888
222,133,229180,5,0,0:0:0:0:
210,107,229268,1,0,0:0:0:0:
309,42,229355,2,0,P|305:89|303:143,1,95
476,312,229529,2,0,P|480:265|482:211,1,95
280,235,229704,5,0,0:0:0:0:
504,105,229791,2,0,B|444:109|444:109|357:227|357:227|277:235,1,285.000010871888
280,235,230053,6,0,B|260:207|260:207|198:199,1,95
63,126,230314,6,0,P|73:193|83:272,1,142.500005435944
264,317,230489,2,0,P|374:278|275:238,1,285.000010871888
164,194,230750,6,0,L|176:292,1,95
445,347,231012,6,0,B|488:340|488:340|385:326,1,142.500005435944
175,288,231186,2,0,B|266:320|266:320|254:216|243:131,1,285.000010871888
285,48,231448,2,0,B|364:32|364:32|339:45|314:74,1,142.500005435944
476,166,231622,5,0,0:0:0:0:
476,166,231710,2,0,B|449:205|467:256|467:256|385:256|355:173|397:117,1,285.000010871888
486,57,231971,5,0,0:0:0:0:
465,42,232058,1,0,0:0:0:0:
444,28,232146,2,0,L|447:75,1,35.625001358986
264,317,232320,2,0,L|261:270,1,35.625001358986
182,205,232495,5,0,0:0:0:0:
183,186,232582,1,0,0:0:0:0:
184,168,232669,1,0,0:0:0:0:
186,150,232756,1,0,0:0:0:0:
187,132,232843,6,0,L|189:105,5,15.8333333333333
121,59,233192,2,0,L|115:20,3,23.75
81,178,233541,2,0,L|83:137,2,31.6666666666667
21,79,233890,6,0,L|14:52,2,25.3333333333333
21,79,234762,6,0,P|71:91|81:147,1,95
85,128,234936,2,0,P|49:165|-3:145,1,95
10,159,235111,2,0,P|-4:109|38:73,1,95
226,269,235285,6,0,B|269:250|313:290|304:362|243:392|165:378|100:315|153:215|153:215|179:166|179:166|219:172|264:173,1,498.750004756451
393,199,235634,2,0,B|378:287|378:287|372:248|355:224,1,142.500005435944
189,78,235808,5,0,0:0:0:0:
302,21,235896,2,0,P|295:55|288:95,1,71.2500027179719
189,78,236070,5,0,0:0:0:0:
393,199,236157,2,0,P|401:152|442:122,1,95
465,39,236332,6,0,B|471:130|471:130|481:135|481:135|490:276,1,237.5
389,354,236593,2,0,B|362:329|362:329|476:345,1,142.500005435944
343,133,236768,5,0,0:0:0:0:
291,283,236855,2,0,B|318:258|318:258|213:272,1,142.500005435944
68,356,237029,2,0,B|76:272|76:272|145:219|145:219|130:147|130:147|84:130,1,285.000010871888
45,7,237291,6,0,B|62:36|62:36|199:81,1,166.250001585484
359,44,237465,1,0,0:0:0:0:
359,44,237553,1,0,0:0:0:0:
359,44,237640,1,0,0:0:0:0:
276,65,237727,6,0,L|271:126,1,47.5
436,77,237901,2,0,L|441:16,1,47.5
280,70,238076,6,0,B|196:110|209:245|285:296|384:261|405:187|372:112|290:124|264:147|259:202,1,427.500016307831
172,303,238425,6,0,B|233:319|233:319|184:290|154:236,1,142.500005435944
141,38,238686,6,0,B|101:44|101:44|63:118|63:118|16:128,1,166.250001585484
72,344,238861,1,0,0:0:0:0:
41,203,238948,2,0,B|111:188|111:188|150:120,1,142.500005435944
374,177,239122,2,0,B|404:155|430:138|430:138|211:179,1,285.000010871888
141,38,239384,6,0,P|206:51|257:58,1,118.75
172,303,239558,1,0,0:0:0:0:
146,126,239646,2,0,P|92:139|45:150,1,95
321,206,239820,6,0,P|285:198|240:190,1,71.2500027179719
429,40,239994,1,0,0:0:0:0:
498,159,240082,2,0,B|507:62|507:62|492:101|460:123,1,166.250001585484
321,206,240256,5,0,0:0:0:0:
413,288,240343,1,0,0:0:0:0:
413,288,240430,1,0,0:0:0:0:
413,288,240518,2,0,L|405:239,1,35.625001358986
294,89,240692,2,0,L|302:138,1,35.625001358986
172,303,240867,6,0,B|250:283|325:326|325:326|346:236|313:157|212:122|212:122|228:158|237:206,1,498.750004756451
88,349,241215,2,0,P|85:271|136:215,1,142.500005435944
139,70,241390,5,0,0:0:0:0:
38,32,241477,2,0,P|44:65|52:115,1,71.2500027179719
139,70,241651,5,0,0:0:0:0:
29,204,241739,2,0,P|76:213|126:223,1,95
340,169,241913,6,0,B|282:182|282:182|228:290|228:290|170:303,1,237.5
31,326,242175,2,0,P|97:315|171:302,1,142.500005435944
418,230,242349,1,0,0:0:0:0:
305,328,242436,2,0,B|336:265|336:265|337:303|345:339,1,142.500005435944
500,361,242611,2,0,B|487:251|487:251|443:220|443:220|429:98,1,285.000010871888
483,34,242872,6,0,B|434:16|434:16|309:46,1,166.250001585484
190,89,243047,1,0,0:0:0:0:
190,89,243134,1,0,0:0:0:0:
190,89,243221,1,0,0:0:0:0:
270,110,243308,6,0,L|277:161,1,35.625001358986
100,61,243483,2,0,L|93:10,1,35.625001358986
31,326,243657,6,0,L|161:308,2,126.666666666667
106,181,244006,6,0,P|175:191|250:201,1,142.500005435944
452,236,244180,1,0,0:0:0:0:
468,275,244268,2,0,P|399:267|329:303,1,142.500005435944
270,374,244442,5,0,0:0:0:0:
247,200,244529,2,0,B|214:176|214:176|238:281,1,142.500005435944
341,92,244704,6,0,P|335:136|325:207,2,95
409,26,244965,6,0,B|446:40|446:40|465:145,1,142.500005435944
468,275,245140,1,0,0:0:0:0:
419,353,245227,2,0,P|382:284|414:207,1,142.500005435944
341,92,245401,6,0,B|303:45|231:56|206:115|206:115|251:204|251:204|261:129,1,332.500003170967
137,46,245663,2,0,P|93:41|26:37,1,95
42,37,245838,1,0,0:0:0:0:
93,176,245925,2,0,P|137:171|204:167,1,95
255,41,246099,5,0,0:0:0:0:
341,92,246186,1,0,0:0:0:0:
334,141,246273,1,0,0:0:0:0:
327,190,246361,1,0,0:0:0:0:
403,253,246448,6,0,B|308:293|308:293|231:225|231:225|252:37|252:37|340:91,1,498.750004756451
438,35,246797,2,0,B|420:69|420:69|433:176,1,142.500005435944
456,339,246971,5,0,0:0:0:0:
432,172,247058,2,0,L|443:259,1,71.2500027179719
456,339,247233,5,0,0:0:0:0:
327,190,247320,2,0,L|341:92,1,95
456,339,247494,6,0,B|415:313|415:313|283:341|283:341|230:309,1,237.5
60,330,247756,6,0,B|35:350|35:350|143:324,1,142.500005435944
177,185,247930,1,0,0:0:0:0:
342,218,248018,2,0,B|367:198|367:198|259:224,1,142.500005435944
103,240,248192,6,0,B|77:199|77:199|104:118|104:118|266:85,1,285.000010871888
491,104,248454,6,0,B|461:71|461:71|333:41,1,166.250001585484
190,19,248628,1,0,0:0:0:0:
190,19,248715,1,0,0:0:0:0:
190,19,248803,1,0,0:0:0:0:
252,87,248890,6,0,L|258:134,1,35.625001358986
107,78,249064,2,0,L|101:31,1,35.625001358986
399,87,249239,6,0,B|478:107|482:185|468:228|408:269|348:255|305:214|311:153|311:153|349:178|340:225,1,427.500016307831
402,317,249587,2,0,B|453:309|485:281|485:281|457:331,1,142.500005435944
42,265,249849,6,0,B|78:272|78:272|121:352|121:352|170:360,1,166.250001585484
329,364,250023,1,0,0:0:0:0:
171,272,250111,2,0,B|153:239|153:239|166:128,1,142.500005435944
252,47,250285,6,0,B|231:221|231:221|254:263|254:263|245:329,1,285.000010871888
314,195,250547,2,0,L|322:132|330:69,1,118.75
65,82,250721,5,0,0:0:0:0:
252,47,250808,2,0,P|246:93|240:154,1,95
149,187,250983,6,0,P|144:150|140:110,1,71.2500027179719
123,24,251157,1,0,0:0:0:0:
328,77,251244,2,0,P|270:48|190:59,1,142.500005435944
149,187,251419,5,0,0:0:0:0:
246,144,251506,1,0,0:0:0:0:
246,144,251593,1,0,0:0:0:0:
246,144,251680,2,0,L|236:193,1,35.625001358986
45,234,251855,2,0,L|55:185,1,35.625001358986
365,302,252029,6,0,P|296:288|226:319,1,142.500005435944
148,359,252204,5,0,0:0:0:0:
45,339,252291,1,0,0:0:0:0:
34,322,252378,1,0,0:0:0:0:
365,302,252552,5,0,0:0:0:0:
468,282,252640,1,0,0:0:0:0:
479,265,252727,1,0,0:0:0:0:
148,254,252901,5,0,0:0:0:0:
45,234,252989,1,0,0:0:0:0:
34,217,253076,1,0,0:0:0:0:
365,199,253250,5,0,0:0:0:0:
468,179,253338,1,0,0:0:0:0:
478,156,253425,1,0,0:0:0:0:
183,39,253599,5,0,0:0:0:0:
197,143,253686,1,0,0:0:0:0:
190,164,253773,1,0,0:0:0:0:
329,39,253948,5,0,0:0:0:0:
315,143,254035,1,0,0:0:0:0:
322,164,254122,1,0,0:0:0:0:
39,82,254297,5,0,0:0:0:0:
85,184,254384,1,0,0:0:0:0:
77,205,254471,1,0,0:0:0:0:
473,82,254646,5,0,0:0:0:0:
427,184,254733,1,0,0:0:0:0:
435,205,254820,2,0,B|415:267|450:316|487:316|487:316|480:277|405:262|373:313|373:313|352:348|303:362|256:340|256:340|273:292|314:274|356:284,1,534.375
341,177,255692,2,0,P|305:158|330:200,1,106.875004076958
374,86,256041,6,0,B|298:57|235:86|213:154|213:154|189:223|156:267|82:275|20:232,1,427.5
104,175,256913,2,0,B|156:119|143:46|98:28|98:28|97:73|137:93,1,249.375009512902
216,140,257611,6,0,B|206:182|184:215|184:215|271:194|343:181|343:181|341:72|230:56,1,427.500016307831
100,35,257960,5,0,0:0:0:0:
103,41,258047,1,0,0:0:0:0:
106,47,258134,1,0,0:0:0:0:
108,53,258221,1,0,0:0:0:0:
111,59,258308,2,0,L|130:100,1,23.75
160,196,258483,1,0,0:0:0:0:
200,209,258570,2,0,P|205:175|216:137,1,71.2500027179719
254,46,258832,6,0,L|244:22,3,23.75
379,190,259180,2,0,L|364:150,1,23.75
200,209,259355,5,0,0:0:0:0:
300,117,259442,2,0,P|290:151|285:187,1,71.2500027179719
357,353,259617,5,0,0:0:0:0:
355,346,259704,1,0,0:0:0:0:
353,339,259791,1,0,0:0:0:0:
351,332,259878,1,0,0:0:0:0:
293,276,259965,5,0,0:0:0:0:
499,318,260053,2,0,P|465:332|423:325,1,71.2500027179719
223,348,260227,2,0,P|218:325|214:305,1,35.625
80,45,260401,6,0,P|76:81|69:125,1,71.25
124,267,260750,6,0,P|118:226|111:190,1,71.2500027179719
155,123,260925,1,0,0:0:0:0:
159,109,261012,2,0,L|197:100,1,23.75
268,205,261186,1,0,0:0:0:0:
272,213,261273,1,0,0:0:0:0:
276,221,261361,2,0,P|239:225|200:198,1,71.2500027179719
340,130,261622,6,0,L|336:155,3,23.75
301,310,261971,2,0,L|297:335,1,23.75
432,231,262146,2,0,P|396:230|362:247,1,71.2500027179719
202,149,262320,5,0,0:0:0:0:
220,223,262407,5,0,0:0:0:0:
247,178,262494,5,0,0:0:0:0:
176,195,262582,6,0,L|146:204,1,23.75
64,168,262756,5,0,0:0:0:0:
29,371,262843,2,0,B|54:318|38:268|38:268|16:217|66:169|66:169|54:217|72:264|115:292,1,356.25
466,347,263192,6,0,B|489:275|489:275|210:300|210:300|176:364|176:364,1,427.500016307831
329,213,263541,5,0,0:0:0:0:
336,212,263628,1,0,0:0:0:0:
343,211,263715,1,0,0:0:0:0:
350,211,263803,1,0,0:0:0:0:
357,211,263890,2,0,L|394:205,1,23.75
306,77,264064,1,0,0:0:0:0:
259,65,264151,2,0,P|268:98|279:149,1,71.2500027179719
388,99,264413,6,0,L|394:61,3,23.75
359,319,264762,2,0,L|365:281,1,23.75
462,167,264936,5,0,0:0:0:0:
285,216,265023,2,0,P|320:213|358:210,1,71.2500027179719
451,256,265198,5,0,0:0:0:0:
450,263,265285,1,0,0:0:0:0:
449,270,265372,1,0,0:0:0:0:
448,277,265460,1,0,0:0:0:0:
488,360,265547,5,0,0:0:0:0:
287,324,265634,2,0,P|322:321|360:318,1,71.2500027179719
451,256,265808,2,0,P|454:238|457:214,1,35.625
242,60,265983,6,0,P|243:99|221:133,1,71.25
115,98,266332,1,0,0:0:0:0:
121,96,266419,1,0,0:0:0:0:
127,94,266506,1,0,0:0:0:0:
133,92,266593,1,0,0:0:0:0:
139,90,266680,2,0,L|174:77,1,23.75
285,216,266855,1,0,0:0:0:0:
250,245,266942,2,0,P|212:235|191:206,1,71.2500027179719
310,124,267204,6,0,L|267:138,3,23.75
467,73,267553,2,0,L|424:87,1,23.75
113,187,267727,2,0,P|108:225|101:263,1,71.2500027179719
98,18,267901,5,0,0:0:0:0:
139,90,267989,5,0,0:0:0:0:
84,74,268076,5,0,0:0:0:0:
157,35,268163,6,0,L|188:38,1,23.75
366,62,268337,5,0,0:0:0:0:
286,105,268425,1,0,0:0:0:0:
292,152,268512,1,0,0:0:0:0:
299,198,268599,1,0,0:0:0:0:
381,236,268686,1,0,0:0:0:0:
308,289,268773,6,0,B|227:273|227:273|194:128|194:128|119:99|119:99|145:217,1,427.500016307831
76,335,269122,5,0,0:0:0:0:
77,328,269210,1,0,0:0:0:0:
78,321,269297,1,0,0:0:0:0:
79,314,269384,1,0,0:0:0:0:
80,307,269471,2,0,L|85:268,1,23.75
100,110,269646,1,0,0:0:0:0:
139,90,269733,2,0,P|162:120|169:157,1,71.2500027179719
53,212,269994,6,0,L|46:182,3,23.75
184,287,270343,2,0,L|191:257,1,23.75
139,90,270518,5,0,0:0:0:0:
53,212,270605,2,0,P|87:214|123:218,1,71.2500027179719
299,151,270779,5,0,0:0:0:0:
291,152,270867,1,0,0:0:0:0:
284,153,270954,1,0,0:0:0:0:
277,154,271041,1,0,0:0:0:0:
195,167,271128,5,0,0:0:0:0:
381,133,271215,2,0,P|378:171|373:212,1,71.2500027179719
195,167,271390,2,0,P|190:145|185:124,1,35.625
473,81,271564,6,0,P|470:119|467:163,1,71.25
334,32,271913,6,0,P|370:34|398:53,1,71.2500027179719
264,270,272087,1,0,0:0:0:0:
261,258,272175,2,0,L|250:218,1,23.75
149,45,272349,1,0,0:0:0:0:
153,56,272436,1,0,0:0:0:0:
157,67,272523,2,0,P|119:69|91:41,1,71.2500027179719
252,70,272785,6,0,L|243:39,3,23.75
188,189,273134,2,0,L|197:158,1,23.75
352,223,273308,2,0,P|391:221|428:217,1,71.2500027179719
167,279,273483,5,0,0:0:0:0:
188,189,273570,5,0,0:0:0:0:
194,271,273657,5,0,0:0:0:0:
160,186,273744,6,0,L|122:178,1,23.75
48,166,273919,5,0,0:0:0:0:
84,325,274006,2,0,B|131:360|131:360|244:303|244:303|222:198|222:198|158:185,1,356.25
23,36,274355,2,0,B|48:168|48:168|160:186|160:186|213:119|213:119|315:138,1,427.500016307831
113,46,274704,5,0,0:0:0:0:
114,53,274791,1,0,0:0:0:0:
115,60,274878,1,0,0:0:0:0:
116,67,274965,1,0,0:0:0:0:
118,74,275053,2,0,L|123:111,1,23.75
120,307,275227,1,0,0:0:0:0:
84,325,275314,2,0,P|54:300|46:261,1,71.2500027179719
248,171,275576,6,0,L|253:131,3,23.75
391,232,275925,2,0,L|386:192,1,23.75
89,199,276099,5,0,0:0:0:0:
236,255,276186,2,0,P|240:291|244:329,1,71.2500027179719
206,90,276361,1,0,0:0:0:0:
204,99,276448,1,0,0:0:0:0:
202,108,276535,1,0,0:0:0:0:
200,117,276622,1,0,0:0:0:0:
177,195,276710,5,0,0:0:0:0:
345,157,276797,2,0,P|309:152|275:122,1,71.2500027179719
115,88,276971,2,0,P|119:107|122:128,1,35.625
155,292,277146,5,0,0:0:0:0:
155,292,277320,1,0,0:0:0:0:
155,292,277494,1,0,0:0:0:0:
310,305,277669,5,0,0:0:0:0:
310,305,277843,1,0,0:0:0:0:
310,305,278018,1,0,0:0:0:0:
236,255,278192,5,0,0:0:0:0:
236,255,278367,1,0,0:0:0:0:
227,342,278541,6,0,P|214:237|154:295,1,237.5
368,333,279064,5,0,0:0:0:0:
448,317,279151,5,0,0:0:0:0:
354,310,279239,5,0,0:0:0:0:
449,290,279326,5,0,0:0:0:0:
389,238,279413,6,0,B|362:213|363:172|363:172|345:226|363:289|453:305|522:266|527:200|502:149|466:129,1,403.75000770092
385,81,279936,5,0,0:0:0:0:
