osu file format v14

[General]
AudioFilename: Calvin Harris - Summer.mp3
AudioLeadIn: 0
PreviewTime: 135491
Countdown: 0
SampleSet: Soft
StackLeniency: 0.7
Mode: 0
LetterboxInBreaks: 1
WidescreenStoryboard: 1

[Editor]
DistanceSpacing: 0.6
BeatDivisor: 4
GridSize: 16
TimelineZoom: 0.8

[Metadata]
Title:Summer
TitleUnicode:Summer
Artist:Calvin Harris
ArtistUnicode:Calvin Harris
Creator:RifdiAN
Version:Insane
Source:
Tags:calvin harris summer 2013 electronic techno DJ rifdian
BeatmapID:647279
BeatmapSetID:286742

[Difficulty]
HPDrainRate:6
CircleSize:4
OverallDifficulty:7
ApproachRate:8
SliderMultiplier:1.8
SliderTickRate:1

[Events]
//Background and Video events
0,0,"calvin.jpg",0,0
//Break Periods
2,46394,52944
2,91394,105444
2,166394,172944
//Storyboard Layer 0 (Background)
//Storyboard Layer 1 (Fail)
//Storyboard Layer 2 (Pass)
//Storyboard Layer 3 (Foreground)
//Storyboard Sound Samples

[TimingPoints]
257,468.75,4,2,0,30,1,0
53225,-100,4,2,0,70,0,0
61194,-100,4,2,0,100,0,1
76194,-100,4,2,0,100,0,1
91194,-100,4,2,0,50,0,0
121194,-100,4,2,0,70,0,0
136194,-100,4,2,0,100,0,1
151194,-100,4,2,0,100,0,1
166194,-100,4,2,0,30,0,0
185178,-100,4,2,0,70,0,0
194788,-100,4,2,0,80,0,0
196194,-100,4,2,0,100,0,1
211194,-100,4,2,0,100,0,1
226194,-100,4,2,0,100,0,0

[Colours]
Combo1 : 255,0,0
Combo2 : 0,255,255
Combo3 : 255,128,255
Combo4 : 255,255,0
Combo5 : 0,255,0

[HitObjects]
96,336,16194,6,8,L|96:224,1,90
96,48,16663,2,8,L|96:160,1,90
208,256,17132,2,8,L|208:368,1,90
208,128,17600,2,8,L|208:16,1,90
320,48,18069,2,8,L|320:160,1,90
320,336,18538,2,8,L|320:224,1,90
240,208,19007,2,8,P|288:208|272:224,3,90
256,64,19944,6,8,L|256:160,1,90
256,320,20413,2,8,L|256:224,1,90
325,84,20882,2,8,L|273:165,1,90
186,299,21351,2,8,L|238:218,1,90
372,137,21819,2,8,L|285:178,1,90
139,246,22288,2,8,L|226:205,1,90
96,128,22757,5,8,0:0:0:0:
192,256,22991,1,8,0:0:0:0:
288,128,23225,1,8,0:0:0:0:
384,256,23460,1,8,0:0:0:0:
368,80,23694,2,8,L|256:80,1,90
272,112,24163,2,8,L|160:112,1,90
416,176,24632,2,8,L|304:176,1,90
320,208,25101,2,8,L|208:208,1,90
368,288,25569,5,8,0:0:0:0:
208,352,25803,1,8,0:0:0:0:
304,352,26038,1,8,0:0:0:0:
144,288,26272,1,8,0:0:0:0:
144,192,26507,2,8,L|240:192,1,90
368,192,26975,2,8,L|256:192,1,90
256,80,27444,2,8,L|256:192,1,90
192,112,27913,6,8,L|271:195,1,90
160,176,28382,2,8,L|250:176,1,90
192,240,28850,2,8,L|271:156,1,90
256,272,29319,2,8,L|256:176,1,90
320,240,29788,2,8,L|240:156,1,90
384,128,30257,1,8,0:0:0:0:
304,128,30491,2,8,L|192:128,1,90
128,128,30960,1,8,0:0:0:0:
128,128,31194,1,8,0:0:0:0:
128,304,31663,6,8,B|192:320|192:320|288:240,1,180
432,304,32600,2,8,P|432:208|384:144,1,180
144,64,33538,2,8,P|208:128|176:224,1,180
144,272,34241,1,8,0:0:0:0:
144,272,34475,1,8,0:0:0:0:
256,256,34710,2,8,L|288:160,1,90
256,64,35413,6,8,B|224:80|224:80|240:96|240:96|208:112|208:112|224:128|224:128|192:144|192:144|208:160|208:160|192:176,1,180
352,128,36350,2,8,B|320:144|320:144|336:160|336:160|320:160|320:160|320:176|320:176|320:192|224:224,1,180
160,256,37053,5,8,0:0:0:0:
240,320,37288,1,8,0:0:0:0:
336,320,37522,1,8,0:0:0:0:
416,256,37757,1,8,0:0:0:0:
416,144,37991,2,8,L|288:144,1,90
256,144,38460,2,8,B|240:176|240:176|224:176|224:176|192:144,1,90
128,144,38928,6,0,B|96:176|96:176|128:208,1,90,0|0,0:3|0:3,0:3:0:0:
288,304,39397,2,0,B|275:260|275:260|232:272,1,90,0|0,0:3|0:3,0:3:0:0:
304,64,39866,2,0,B|336:96|336:96|304:128,1,90,0|0,0:3|0:3,0:3:0:0:
224,256,40335,2,0,B|192:224|192:224|224:192,1,90,0|0,0:3|0:3,0:3:0:0:
416,192,40803,1,8,0:0:0:0:
352,192,41038,1,8,0:0:0:0:
208,80,41272,1,8,0:0:0:0:
208,144,41507,1,8,0:0:0:0:
208,304,41741,2,8,L|208:192,1,90
208,144,42210,5,8,0:0:0:0:
208,144,42444,1,8,0:0:0:0:
384,96,42913,1,8,0:0:0:0:
384,304,43382,1,8,0:0:0:0:
256,192,43850,1,8,0:0:0:0:
128,304,44319,1,8,0:0:0:0:
128,80,44788,1,8,0:0:0:0:
224,112,45022,2,8,L|320:144,1,90
336,224,45491,2,8,B|336:272|336:272|272:272,1,90
192,256,45960,1,8,0:0:0:0:
80,96,46194,1,8,0:0:0:0:
256,192,53694,5,8,0:0:0:0:
256,80,53928,1,8,0:0:0:0:
256,288,54163,1,8,0:0:0:0:
332,113,54396,1,8,0:0:0:0:
179,254,54631,1,8,0:0:0:0:
360,184,54865,1,8,0:0:0:0:
151,184,55100,1,8,0:0:0:0:
112,64,55335,6,0,L|64:160,1,90
176,144,55803,2,8,L|224:224,1,90
240,320,56272,2,8,P|288:304|256:288,3,90
304,288,57210,1,8,0:0:0:0:
384,320,57444,1,8,0:0:0:0:
256,192,57678,1,8,0:0:0:0:
320,144,57913,5,8,0:0:0:0:
208,256,58148,1,8,0:0:0:0:
208,144,58382,1,8,0:0:0:0:
304,48,58616,1,8,0:0:0:0:
160,192,58850,1,8,0:0:0:0:
368,112,59085,1,8,0:0:0:0:
224,256,59319,1,8,0:0:0:0:
208,48,59553,1,8,0:0:0:0:
352,192,59787,1,8,0:0:0:0:
144,112,60022,1,8,0:0:0:0:
288,256,60256,1,8,0:0:0:0:
448,224,60491,6,8,L|384:192,1,45
336,192,60725,1,0,0:0:0:0:
272,208,60842,2,8,L|208:240,1,45
64,224,61194,1,8,0:0:0:0:
64,48,61428,6,8,L|154:48,1,90
64,128,61897,2,8,L|154:128,1,90
160,192,62366,1,8,0:0:0:0:
224,256,62600,1,8,0:0:0:0:
144,288,62835,1,8,0:0:0:0:
304,352,63069,1,8,0:0:0:0:
208,352,63303,1,8,0:0:0:0:
368,288,63538,1,8,0:0:0:0:
256,256,63772,5,8,0:0:0:0:
256,96,64007,1,8,0:0:0:0:
352,96,64241,1,8,0:0:0:0:
352,256,64476,1,8,0:0:0:0:
160,256,64710,1,8,0:0:0:0:
160,96,64945,1,8,0:0:0:0:
448,48,65178,6,8,L|358:48,1,90
432,128,65647,1,0,0:0:0:0:
480,240,65882,1,0,0:0:0:0:
352,192,66116,2,8,L|262:192,1,90
192,32,66585,1,8,0:0:0:0:
240,80,66819,2,8,L|272:176,1,90
304,224,67288,1,8,0:0:0:0:
80,48,67522,1,8,0:0:0:0:
144,128,67756,2,8,L|176:224,1,90
208,304,68225,1,8,0:0:0:0:
352,256,68460,6,8,P|368:208|320:160,1,90
144,96,68928,1,8,0:0:0:0:
144,96,69163,1,8,0:0:0:0:
384,64,69397,1,8,0:0:0:0:
384,64,69632,1,8,0:0:0:0:
288,272,69866,1,8,0:0:0:0:
288,272,70100,1,8,0:0:0:0:
112,304,70335,6,8,L|208:224,1,90
208,256,70803,1,0,0:0:0:0:
256,112,71038,1,0,0:0:0:0:
304,256,71272,1,0,0:0:0:0:
176,176,71507,1,0,0:0:0:0:
400,80,71741,2,8,L|304:160,1,90
256,192,72210,1,8,0:0:0:0:
256,192,72444,1,8,0:0:0:0:
64,288,72678,2,8,P|96:256|160:256,1,90
224,256,73147,2,8,P|267:248|298:217,1,90
352,144,73616,2,8,P|384:112|448:112,2,90
256,192,74319,5,8,0:0:0:0:
256,192,74553,1,8,0:0:0:0:
128,288,74788,1,8,0:0:0:0:
128,288,75022,1,8,0:0:0:0:
256,192,75257,1,8,0:0:0:0:
400,288,75491,2,8,L|445:288,1,45
112,288,75725,2,8,L|32:288,1,45
256,304,75960,2,8,L|256:368,1,45
256,192,76194,1,8,0:0:0:0:
208,80,76428,5,0,0:0:0:0:
240,96,76546,1,0,0:0:0:0:
272,80,76663,2,0,L|320:80,2,45
96,304,77132,2,8,L|96:192,1,90
176,304,77600,1,0,0:0:0:0:
176,272,77717,1,0,0:0:0:0:
176,240,77835,1,0,0:0:0:0:
256,304,78069,2,8,L|256:192,1,90
256,64,78538,1,0,0:0:0:0:
368,304,78772,1,0,0:0:0:0:
480,64,79007,1,0,0:0:0:0:
112,192,79241,5,0,0:0:0:0:
80,304,79475,2,8,L|128:288,1,45
256,240,79710,2,0,L|320:192,1,45
416,112,79944,1,0,0:0:0:0:
256,64,80178,6,8,L|256:160,1,90
160,144,80647,2,8,L|202:230,1,90
320,224,81116,2,8,L|277:310,1,90
128,160,81585,1,0,0:0:0:0:
48,224,81819,1,0,0:0:0:0:
192,240,82053,1,0,0:0:0:0:
112,304,82287,1,0,0:0:0:0:
352,48,82522,2,8,L|352:144,1,90
352,224,82991,1,0,0:0:0:0:
112,320,83225,6,8,L|80:272,1,45
80,224,83460,1,0,0:0:0:0:
80,160,83577,2,8,L|112:112,1,45
256,80,83928,6,8,L|208:80,2,45
336,160,84397,2,0,L|336:272,1,90
256,304,84866,1,0,0:0:0:0:
256,80,85100,1,0,0:0:0:0:
112,192,85335,2,8,L|67:192,2,45
400,192,85803,2,8,L|464:192,2,45
256,336,86272,1,0,0:0:0:0:
256,304,86389,1,0,0:0:0:0:
256,272,86507,1,0,0:0:0:0:
256,48,86741,1,0,0:0:0:0:
256,80,86858,1,0,0:0:0:0:
256,112,86976,1,0,0:0:0:0:
112,192,87210,5,0,0:0:0:0:
400,192,87444,1,0,0:0:0:0:
96,304,87678,2,0,P|160:304|208:272,1,90
336,224,88147,2,0,P|377:174|383:117,1,90
256,48,88616,1,0,0:0:0:0:
256,96,88850,1,0,0:0:0:0:
256,192,89085,1,0,0:0:0:0:
256,240,89319,1,0,0:0:0:0:
80,208,89553,2,0,L|208:208,1,90
432,208,90022,2,0,L|304:208,1,90
256,304,90491,5,0,0:0:0:0:
256,256,90725,1,0,0:0:0:0:
256,80,90960,1,0,0:0:0:0:
256,128,91194,1,0,0:0:0:0:
96,64,106194,6,8,L|96:176,1,90
160,304,106663,2,8,L|160:192,1,90
240,64,107132,2,8,L|240:176,1,90
160,304,107600,1,0,0:0:0:0:
240,64,107835,1,0,0:0:0:0:
320,304,108069,1,0,0:0:0:0:
128,176,108303,1,0,0:0:0:0:
352,176,108538,1,0,0:0:0:0:
160,304,108772,1,0,0:0:0:0:
256,48,109007,1,8,0:0:0:0:
256,96,109241,1,8,0:0:0:0:
256,192,109475,1,8,0:0:0:0:
256,288,109710,1,8,0:0:0:0:
256,336,109944,1,8,0:0:0:0:
256,48,110178,6,8,L|256:176,1,90
256,224,110647,2,8,L|256:320,1,90
64,192,111116,2,8,L|160:192,1,90
240,192,111585,2,8,L|352:192,1,90
432,192,112053,2,8,L|512:192,2,45
320,192,112522,2,8,L|224:192,1,90
144,192,112991,2,8,L|32:192,1,90
144,112,113460,1,8,0:0:0:0:
256,64,113694,5,8,0:0:0:0:
256,144,113928,1,8,0:0:0:0:
256,224,114163,1,8,0:0:0:0:
384,320,114632,5,8,0:0:0:0:
384,240,114866,1,8,0:0:0:0:
384,160,115101,1,8,0:0:0:0:
128,160,115569,5,8,0:0:0:0:
128,240,115804,1,8,0:0:0:0:
128,320,116038,2,8,L|224:288,1,90
288,240,116507,1,8,0:0:0:0:
288,240,116741,1,8,0:0:0:0:
288,112,116975,1,8,0:0:0:0:
288,112,117210,1,8,0:0:0:0:
160,112,117444,2,8,P|96:192|96:272,1,180
256,320,118147,1,0,0:0:0:0:
352,112,118382,2,8,P|416:192|416:272,1,180
256,320,119319,6,8,L|256:112,1,180
256,64,120022,1,0,0:0:0:0:
384,160,120257,1,8,0:0:0:0:
96,160,120491,2,8,L|192:160,1,90
384,160,120960,1,8,0:0:0:0:
240,320,121194,1,8,0:0:0:0:
240,288,121428,1,8,0:0:0:0:
336,256,121663,1,8,0:0:0:0:
336,224,121897,1,8,0:0:0:0:
144,224,122132,6,8,L|240:144,1,90
384,208,122600,1,8,0:0:0:0:
384,48,122835,1,8,0:0:0:0:
272,240,123069,1,8,0:0:0:0:
240,160,123303,2,8,L|144:224,1,90
96,304,123772,1,8,0:0:0:0:
96,304,124007,1,8,0:0:0:0:
192,304,124241,5,8,0:0:0:0:
304,288,124475,1,8,0:0:0:0:
400,224,124710,1,8,0:0:0:0:
400,224,124944,1,8,0:0:0:0:
128,128,125178,2,8,L|240:128,1,90
224,176,125647,2,8,L|320:176,1,90
400,96,126116,1,8,0:0:0:0:
400,224,126350,1,8,0:0:0:0:
288,160,126585,1,8,0:0:0:0:
288,288,126819,1,8,0:0:0:0:
144,288,127053,6,8,L|144:160,1,90
144,128,127522,1,8,0:0:0:0:
144,128,127757,1,8,0:0:0:0:
144,128,127991,1,8,0:0:0:0:
144,128,128225,1,8,0:0:0:0:
352,128,128460,2,8,L|304:128,1,45
144,128,128694,1,8,0:0:0:0:
64,336,128928,6,8,L|64:224,1,90
160,176,129397,2,8,L|160:288,1,90
256,192,129866,2,8,L|256:80,1,90
352,32,130335,2,8,L|352:144,1,90
352,224,130803,1,8,0:0:0:0:
432,272,131038,1,8,0:0:0:0:
352,320,131272,1,8,0:0:0:0:
112,243,131507,6,8,L|112:288,4,45
80,64,132210,2,0,P|128:80|144:128,1,90
224,224,132678,1,8,0:0:0:0:
256,160,132913,1,8,0:0:0:0:
288,224,133147,1,8,0:0:0:0:
160,176,133382,1,8,0:0:0:0:
368,240,133616,1,8,0:0:0:0:
224,304,133850,1,8,0:0:0:0:
320,112,134085,1,8,0:0:0:0:
305,38,134319,5,8,0:0:0:0:
206,342,134553,1,8,0:0:0:0:
88,136,134788,1,8,0:0:0:0:
438,250,135022,1,8,0:0:0:0:
256,192,135257,1,8,0:0:0:0:
256,336,135491,2,8,L|256:288,1,45
256,224,135725,1,8,0:0:0:0:
240,192,135842,1,8,0:0:0:0:
256,160,135960,1,0,0:0:0:0:
240,128,136077,1,0,0:0:0:0:
256,96,136194,5,4,0:0:0:0:
416,304,136428,2,8,L|352:240,1,90
304,304,136897,2,8,L|240:240,1,90
192,304,137366,2,8,L|128:240,1,90
48,304,137835,1,8,0:0:0:0:
128,240,138069,1,8,0:0:0:0:
208,304,138303,1,8,0:0:0:0:
288,240,138538,1,8,0:0:0:0:
400,320,138772,5,8,0:0:0:0:
352,272,139007,1,8,0:0:0:0:
464,288,139241,1,8,0:0:0:0:
416,240,139475,2,8,P|368:192|304:192,1,135
256,192,139944,1,8,0:0:0:0:
96,80,140178,6,8,L|160:144,1,90
208,80,140647,2,8,L|272:144,1,90
320,80,141116,2,8,L|384:144,1,90
464,208,141585,1,8,0:0:0:0:
448,208,141702,1,0,0:0:0:0:
432,208,141819,1,0,0:0:0:0:
336,208,142053,1,0,0:0:0:0:
304,208,142171,1,8,0:0:0:0:
272,208,142288,1,0,0:0:0:0:
160,208,142522,5,0,0:0:0:0:
112,208,142639,1,0,0:0:0:0:
64,208,142757,1,8,0:0:0:0:
128,336,142991,2,0,L|128:288,1,45,8|0,0:0|0:0,0:0:0:0:
128,256,143225,1,0,0:0:0:0:
384,48,143460,2,0,L|384:96,1,45
384,128,143694,1,12,0:0:0:0:
160,192,143928,6,8,L|272:192,1,90
256,288,144397,2,8,L|256:176,1,90
320,144,144866,1,8,0:0:0:0:
384,80,145100,1,8,0:0:0:0:
192,144,145335,1,8,0:0:0:0:
256,80,145569,1,8,0:0:0:0:
80,240,145803,6,8,L|80:112,1,90
432,150,146272,2,8,L|432:240,1,90
208,144,146741,1,8,0:0:0:0:
304,144,146975,1,8,0:0:0:0:
224,224,147210,2,8,P|295:224|295:188,1,90
384,192,147678,2,8,P|400:128|352:96,2,90
320,144,148382,1,8,0:0:0:0:
256,112,148616,2,8,P|240:153|261:191,2,90
112,80,149319,6,8,L|112:176,1,90
112,256,149788,2,8,L|176:320,1,90
256,336,150257,1,8,0:0:0:0:
256,304,150374,1,8,0:0:0:0:
272,272,150491,1,8,0:0:0:0:
288,240,150608,1,0,0:0:0:0:
352,192,150725,2,0,L|305:178,1,45
128,144,150960,2,0,L|174:130,1,45
352,80,151194,1,12,0:0:0:0:
96,304,151428,6,8,L|96:192,1,90
96,112,151897,1,8,0:0:0:0:
256,112,152132,1,8,0:0:0:0:
256,304,152366,2,8,L|256:192,1,90
432,192,152835,2,8,L|304:192,1,90
432,112,153303,1,8,0:0:0:0:
352,112,153538,1,8,0:0:0:0:
256,192,153772,2,8,L|128:192,1,90
176,112,154240,1,8,0:0:0:0:
256,112,154475,1,8,0:0:0:0:
64,48,154710,5,0,0:0:0:0:
64,48,154827,1,0,0:0:0:0:
64,48,154944,1,0,0:0:0:0:
160,288,155178,1,8,0:0:0:0:
352,240,155413,1,8,0:0:0:0:
128,176,155647,1,8,0:0:0:0:
320,128,155882,1,8,0:0:0:0:
448,112,156116,2,0,L|448:224,1,90
352,112,156585,2,0,L|352:208,1,90
384,304,157053,1,0,0:0:0:0:
352,288,157171,1,0,0:0:0:0:
320,304,157288,1,0,0:0:0:0:
192,256,157522,5,0,0:0:0:0:
176,224,157639,1,0,0:0:0:0:
192,192,157757,1,0,0:0:0:0:
112,64,157991,1,0,0:0:0:0:
112,320,158225,1,0,0:0:0:0:
400,64,158460,1,0,0:0:0:0:
400,320,158694,1,0,0:0:0:0:
80,224,158928,6,0,P|80:144|112:128,1,90
400,192,159397,2,0,B|384:144|384:144|352:112,1,90
224,320,159866,2,0,P|230:254|251:244,1,90
240,64,160335,2,0,B|192:64|192:64|192:144,1,90
352,320,160803,2,0,P|400:320|416:272,1,90
432,192,161272,2,0,L|336:192,1,90
256,160,161741,1,0,0:0:0:0:
256,240,161975,1,0,0:0:0:0:
256,320,162210,2,0,B|224:320|208:320|208:320|176:288,1,90
96,224,162678,5,0,0:0:0:0:
96,192,162796,1,0,0:0:0:0:
96,160,162913,1,0,0:0:0:0:
192,160,163147,1,0,0:0:0:0:
192,192,163264,1,0,0:0:0:0:
192,224,163382,1,0,0:0:0:0:
288,237,163616,2,0,L|288:192,1,45
288,157,163850,1,0,0:0:0:0:
384,160,164085,1,0,0:0:0:0:
464,160,164319,1,0,0:0:0:0:
368,320,164553,5,0,0:0:0:0:
288,320,164788,1,0,0:0:0:0:
160,128,165022,1,0,0:0:0:0:
240,128,165257,1,0,0:0:0:0:
64,304,165491,1,0,0:0:0:0:
160,240,165725,1,0,0:0:0:0:
272,224,165960,1,0,0:0:0:0:
384,192,166194,1,12,0:0:0:0:
80,128,173694,5,8,0:0:0:0:
112,192,173928,1,8,0:0:0:0:
144,256,174163,1,8,0:0:0:0:
160,64,174397,1,8,0:0:0:0:
208,144,174632,1,8,0:0:0:0:
256,224,174866,1,8,0:0:0:0:
272,32,175100,2,8,L|368:192,1,180
288,320,175803,5,8,0:0:0:0:
160,256,176038,1,8,0:0:0:0:
288,320,176272,1,8,0:0:0:0:
304,176,176507,1,8,0:0:0:0:
432,336,176741,1,8,0:0:0:0:
288,320,176975,1,8,0:0:0:0:
160,256,177210,1,8,0:0:0:0:
80,64,177444,6,8,B|96:96|96:96|112:64|112:64|128:96|128:96|144:64|144:64|160:96|160:96|176:64|176:64|192:96|192:96|208:64|208:64|224:96|224:96|240:64|240:64,1,360
80,176,178850,2,0,B|144:208|240:208|272:192,1,180
352,112,179553,1,8,0:0:0:0:
176,112,179788,1,8,0:0:0:0:
272,112,180022,1,8,0:0:0:0:
224,48,180257,1,8,0:0:0:0:
256,272,180491,1,0,0:0:0:0:
352,272,180725,2,0,L|448:272,2,90
256,272,181428,5,0,0:0:0:0:
160,272,181663,1,0,0:0:0:0:
160,272,181897,1,0,0:0:0:0:
160,272,182132,1,0,0:0:0:0:
160,176,182366,1,0,0:0:0:0:
160,80,182600,1,0,0:0:0:0:
160,80,182835,1,0,0:0:0:0:
160,80,183069,1,0,0:0:0:0:
368,272,183303,1,0,0:0:0:0:
352,144,183538,5,0,0:0:0:0:
288,272,183772,1,0,0:0:0:0:
240,144,184007,1,0,0:0:0:0:
368,80,184241,2,0,P|320:80|272:112,1,90
224,176,184710,1,0,0:0:0:0:
144,288,184944,1,0,0:0:0:0:
80,80,185178,6,0,L|80:176,1,90
160,176,185647,2,0,L|160:64,1,90
240,80,186116,2,0,L|240:176,1,90
320,176,186585,2,0,L|320:64,1,90
144,80,187053,2,0,L|224:160,1,90
368,304,187522,2,0,L|288:224,1,90
144,192,187991,2,0,L|256:192,1,90
368,192,188460,2,0,L|256:192,1,90
64,144,188928,5,8,0:0:0:0:
64,240,189163,1,8,0:0:0:0:
144,96,189397,1,8,0:0:0:0:
144,288,189632,1,8,0:0:0:0:
224,48,189866,1,8,0:0:0:0:
224,336,190100,1,8,0:0:0:0:
448,144,190335,5,8,0:0:0:0:
448,240,190570,1,8,0:0:0:0:
368,96,190804,1,8,0:0:0:0:
368,288,191039,1,8,0:0:0:0:
288,48,191273,1,8,0:0:0:0:
288,336,191507,1,8,0:0:0:0:
256,192,191741,1,8,0:0:0:0:
256,192,191975,1,8,0:0:0:0:
256,288,192210,2,8,L|256:240,1,45
256,192,192444,1,8,0:0:0:0:
160,176,192678,6,8,L|112:176,1,45
304,128,192913,2,8,L|352:96,1,45
176,320,193147,2,8,L|224:288,1,45
400,256,193382,2,8,L|352:224,1,45
176,32,193616,2,8,L|176:80,1,45
336,352,193850,2,8,L|320:304,1,45
48,288,194085,2,8,L|96:272,1,45
480,128,194319,2,8,L|432:192,1,45
432,192,194553,1,0,0:0:0:0:
272,336,194788,5,0,0:0:0:0:
256,320,194905,2,0,L|256:256,1,45
176,224,195139,2,0,L|144:256,1,45
240,160,195374,1,0,0:0:0:0:
256,144,195491,2,8,L|304:192,1,45
352,256,195725,1,8,0:0:0:0:
384,272,195842,1,8,0:0:0:0:
416,256,195960,1,0,0:0:0:0:
432,224,196077,5,0,0:0:0:0:
432,192,196194,1,4,0:0:0:0:
112,64,196428,1,0,0:0:0:0:
112,96,196546,1,0,0:0:0:0:
112,128,196663,1,0,0:0:0:0:
112,272,196897,2,8,L|224:272,1,90
224,96,197366,2,8,L|320:96,1,90
384,176,197835,2,8,P|416:224|384:256,1,90
304,272,198303,2,8,L|224:192,1,90
80,96,198772,5,0,0:0:0:0:
160,320,199007,1,0,0:0:0:0:
256,96,199241,1,0,0:0:0:0:
432,96,199475,1,0,0:0:0:0:
336,320,199709,1,0,0:0:0:0:
256,96,199944,1,0,0:0:0:0:
304,256,200178,6,8,L|304:336,2,45
304,160,200647,1,8,0:0:0:0:
304,160,200882,1,8,0:0:0:0:
80,112,201116,2,8,L|80:32,2,45
80,208,201585,1,8,0:0:0:0:
80,208,201819,1,8,0:0:0:0:
384,336,202053,5,0,0:0:0:0:
384,304,202171,1,0,0:0:0:0:
384,272,202288,1,0,0:0:0:0:
384,272,202522,1,0,0:0:0:0:
384,272,202757,1,0,0:0:0:0:
128,48,202991,5,8,0:0:0:0:
128,80,203109,1,8,0:0:0:0:
128,112,203226,1,0,0:0:0:0:
320,112,203342,2,0,L|256:144,1,45
160,304,203576,2,0,L|224:320,1,45
336,64,203928,2,8,L|208:64,1,90
224,176,204397,2,8,L|240:288,1,90
80,320,204866,2,8,B|64:272|64:272|112:240,1,90
128,64,205335,2,8,P|192:80|176:112,1,90
352,336,205803,2,8,P|400:320|416:272,1,90
256,80,206272,5,8,0:0:0:0:
256,80,206507,2,8,L|256:176,1,90
128,256,206975,1,8,0:0:0:0:
176,256,207092,1,8,0:0:0:0:
224,256,207210,2,0,L|256:192,1,45
352,80,207444,1,0,0:0:0:0:
208,48,207678,5,8,0:0:0:0:
304,144,207913,1,8,0:0:0:0:
208,240,208147,1,8,0:0:0:0:
304,336,208382,1,8,0:0:0:0:
400,144,208616,1,8,0:0:0:0:
304,240,208851,1,8,0:0:0:0:
208,144,209085,1,8,0:0:0:0:
112,240,209320,1,8,0:0:0:0:
208,144,209553,1,0,0:0:0:0:
304,48,209788,1,0,0:0:0:0:
256,192,210022,5,0,0:0:0:0:
224,48,210257,2,0,L|272:48,1,45
269,336,210491,2,0,L|224:336,1,45
180,62,210725,2,0,L|226:47,1,45
312,321,210959,2,0,L|269:335,1,45
80,304,211194,1,0,0:0:0:0:
256,128,211428,5,8,0:0:0:0:
208,208,211545,1,8,0:0:0:0:
304,208,211663,1,8,0:0:0:0:
416,144,211897,2,8,L|416:272,1,90
96,234,212366,2,8,L|96:144,1,90
256,336,212835,1,8,0:0:0:0:
256,240,213069,1,8,0:0:0:0:
256,64,213303,2,8,L|256:160,1,90
208,320,213772,2,8,P|256:336|304:304,1,90
304,64,214241,6,8,P|256:48|208:80,1,90
192,192,214710,1,8,0:0:0:0:
240,192,214827,1,8,0:0:0:0:
288,192,214944,1,8,0:0:0:0:
416,288,215178,1,0,0:0:0:0:
336,288,215296,1,0,0:0:0:0:
416,288,215413,2,0,L|368:208,1,90
80,304,215882,1,0,0:0:0:0:
96,288,215999,2,0,L|128:240,1,45
160,176,216233,2,0,L|173:129,1,45
224,48,216467,5,0,0:0:0:0:
256,64,216585,2,8,L|256:176,1,90
128,80,217053,2,8,L|176:176,1,90
384,80,217522,2,8,L|336:176,1,90
256,272,217991,2,0,L|220:235,1,45
160,303,218225,2,0,L|192:336,1,45
224,240,218460,2,0,L|191:200,1,45
128,272,218694,1,0,0:0:0:0:
400,256,218928,6,0,L|400:192,1,45
400,176,219163,1,0,0:0:0:0:
304,256,219397,6,0,L|304:192,1,45
304,176,219632,1,0,0:0:0:0:
208,256,219866,6,0,L|208:192,1,45
208,176,220101,1,0,0:0:0:0:
112,256,220335,6,0,L|112:192,1,45
112,176,220570,1,0,0:0:0:0:
112,64,220803,5,0,0:0:0:0:
128,64,220921,1,0,0:0:0:0:
144,64,221038,1,0,0:0:0:0:
240,64,221272,5,0,0:0:0:0:
272,64,221389,1,0,0:0:0:0:
304,64,221507,1,0,0:0:0:0:
64,176,221741,5,0,0:0:0:0:
112,176,221858,1,0,0:0:0:0:
160,176,221975,1,0,0:0:0:0:
304,176,222210,5,0,0:0:0:0:
368,176,222327,1,0,0:0:0:0:
432,176,222444,1,0,0:0:0:0:
243,273,222678,6,0,L|307:273,1,45
270,96,222913,2,0,L|225:96,1,45
176,240,223147,6,0,L|230:274,1,45
336,128,223382,2,0,L|298:104,1,45
133,127,223616,6,0,L|112:187,1,45
359,256,223851,2,0,L|374:214,1,45
188,74,224085,6,0,L|137:112,1,45
302,307,224320,2,0,L|339:281,1,45
346,50,224553,6,0,L|304:32,1,45
150,318,224788,2,0,L|192:336,1,45
399,97,225022,6,0,L|368:64,1,45
99,262,225257,2,0,L|130:295,1,45
343,329,225491,6,0,L|377:300,1,45
147,73,225726,2,0,L|112:101,1,45
96,192,225960,2,0,L|160:192,1,45
256,192,226194,1,0,0:0:0:0:
