osu file format v9

[General]
AudioFilename: INFERNObgm.mp3
AudioLeadIn: 1599
PreviewTime: 65369
Countdown: 0
SampleSet: Normal
StackLeniency: 0.7
Mode: 0
LetterboxInBreaks: 1

[Editor]
Bookmarks: 21814,36036,66258,80480,96480,103592,124480
DistanceSpacing: 1.2
BeatDivisor: 4
GridSize: 4

[Metadata]
Title:INFERNO
Artist:Calderia feat, Kanako Hoshino
Creator:kokono_tan
Version:Hard
Source:beatmaniaIIDX 13 DistorteD
Tags:DJ Yoshitaka TOMOSUKE konami bemani

[Difficulty]
HPDrainRate:6
CircleSize:4
OverallDifficulty:6
ApproachRate:7
SliderMultiplier:1.6
SliderTickRate:1

[Events]
//Background and Video events
0,0,"bg-inferno.jpg"
//Break Periods
2,96680,102692
//Storyboard Layer 0 (Background)
//Storyboard Layer 1 (Fail)
//Storyboard Layer 2 (Pass)
//Storyboard Layer 3 (Foreground)
//Storyboard Sound Samples
//Background Colour Transformations
3,100,163,162,255

[TimingPoints]
481,444.444444444444,4,1,0,60,1,0
35925,-100,4,1,0,50,0,0
62647,-80,4,1,0,50,0,0
63536,-100,4,1,0,50,0,0
66147,-100,4,1,0,60,0,0
103480,-100,4,2,0,60,0,0
108869,-100,4,1,0,60,0,0

[Colours]
Combo1 : 17,238,133
Combo2 : 255,128,192
Combo3 : 255,128,64
Combo4 : 188,232,15

[HitObjects]
76,68,481,5,4
108,112,2258,5,4
64,164,4036,6,0,B|52:208|88:240,1,80
168,284,4480,1,0
188,300,4592,2,0,B|220:336|260:312,1,80
392,260,5147,2,0,B|437:253|464:293,2,80
416,168,5814,6,0,B|405:123|359:112,1,80
267,110,6258,1,0
242,106,6370,2,0,B|196:89|172:129,1,80
172,127,6703,5,0
112,316,7147,1,0
72,100,7592,5,4
72,100,7814,1,0
144,164,8036,2,0,B|184:188|220:160,1,80
288,92,8480,1,0
288,92,8703,2,0,B|424:148,1,120
448,248,9369,5,0
448,248,9480,2,0,B|440:296|388:292,1,80
348,276,9814,2,0,B|304:272|296:220,1,80
232,152,10257,1,0
232,152,10480,2,0,B|100:196,1,120
124,336,11147,6,0,B|164:304,1,40
248,332,11480,2,0,B|276:296,1,40
368,324,11814,2,0,B|408:288,1,40
476,176,12258,2,0,B|468:100|396:100,1,120
268,156,12925,6,0,B|281:208|242:228,1,80
152,228,13369,2,0,B|120:268|80:248,2,80
192,140,14036,2,0,B|92:52,1,120
48,132,14703,6,0,B|32:176,2,40,0|0|0
108,208,15147,2,0,B|144:240,2,40,0|0|0
84,300,15592,2,0,B|104:340|156:328,1,80
208,252,16036,2,0,B|252:250|266:302,1,80
360,316,16480,6,0,B|408:312|408:256,1,80
424,168,16925,2,0,B|452:140,2,40,0|0|0
392,76,17369,2,0,B|366:34|323:42,1,80
300,136,17814,2,0,B|252:148|227:113,1,80
148,64,18258,6,0,B|100:88,3,40
148,116,18703,2,0,B|192:160,3,40
148,180,19147,2,0,B|104:200,3,40
148,240,19592,2,0,B|192:256,3,40
148,292,20036,6,0,B|104:308,3,40
148,344,20481,2,0,B|216:356,4,40
420,56,21814,6,0,B|376:60|360:104,1,80,4|0
424,176,22258,2,0,B|423:220|380:239,1,80
308,296,22703,2,0,B|280:260,1,40
200,308,23036,2,0,B|176:268,1,40
84,260,23369,2,0,B|49:167|138:131,1,160
92,48,24036,6,0,B|140:64,1,40
296,56,24480,2,0,B|310:97|277:130,1,80
184,140,24925,2,0,B|182:184|224:205,1,80
420,328,25369,6,0,B|376:324|360:280,1,80
424,208,25813,2,0,B|423:163|380:144,1,80
308,88,26258,2,0,B|280:124,1,40
200,76,26591,2,0,B|176:116,1,40
84,124,26924,2,0,B|49:216|138:252,1,160
92,336,27591,6,0,B|140:320,1,40
296,328,28035,2,0,B|310:286|277:253,1,80
184,244,28480,2,0,B|182:199|224:178,1,80
92,56,28925,6,0,B|136:60|152:104,1,80,4|0
88,176,29369,2,0,B|88:220|131:239,1,80
204,296,29814,2,0,B|232:260,1,40
312,308,30147,2,0,B|336:268,1,40
428,260,30480,2,0,B|462:167|373:131,1,160
420,48,31147,6,0,B|372:64,1,40
216,56,31591,2,0,B|201:97|234:130,1,80
328,140,32036,2,0,B|329:184|287:205,1,80
168,240,32480,6,0,B|164:292,7,40
196,240,33369,2,0,B|196:196,7,40
224,240,34258,2,0,B|224:324,1,80
280,240,34703,2,0,B|280:152,1,80
332,240,35147,2,0,B|332:328,2,80
44,64,36036,6,0,B|80:40|120:64,1,80,4|0
172,144,36480,1,8
172,144,36592,2,0,B|212:128|215:81,1,80
216,64,36925,2,0,B|296:64,2,80,0|0|8
312,188,37592,5,0
312,188,37814,2,0,B|356:164|348:116,1,80
440,88,38258,2,0,B|480:112|472:156,1,80,8|0
400,276,38703,1,0
412,304,38814,2,0,B|392:344|344:332,1,80
312,328,39147,2,0,B|268:339|245:296,1,80,8|0
148,320,39592,5,0
148,320,39814,1,0
72,260,40036,1,8
36,228,40147,2,0,B|50:184|96:181,1,80
140,200,40480,2,0,B|184:184|176:136,1,80
88,100,40925,2,0,B|39:85|45:40,1,80,8|0
168,64,41369,6,0,B|212:32,2,40
252,108,41814,2,0,B|284:76,2,40,8|0|0
348,96,42258,2,0,B|364:56|408:52,2,80,0|0|8
348,96,42925,1,0
440,140,43147,5,0
440,140,43369,1,0
352,188,43592,1,8
352,188,43703,2,0,B|400:192|404:240,1,80
420,284,44036,2,0,B|418:329|371:347,1,80
280,340,44480,2,0,B|232:336|224:288,1,80,8|0
220,196,44925,5,0
220,196,45147,1,0
284,124,45369,1,8
284,124,45592,1,0
212,60,45814,2,0,B|216:112|160:120,1,80
124,108,46147,2,0,B|72:104|64:156,1,80
65,149,46480,1,0
112,224,46703,6,0,B|140:192|184:200,2,80,0|0|8
156,308,47369,1,0
252,300,47592,2,0,B|296:280|284:224,2,80,0|0|8
252,300,48258,1,0
344,328,48480,1,0
432,292,48703,1,0
376,216,48925,2,0,B|344:192,2,40
404,124,49369,6,0,B|368:92|328:104,1,80
240,68,49814,2,0,B|196:88|208:136,1,80
76,48,50258,2,0,B|44:84|72:120,1,80,4|0
52,164,50592,2,0,B|58:211|103:214,1,80
104,214,50925,1,0
96,308,51147,5,0
188,328,51369,1,0
264,268,51592,2,0,B|312:272|320:324,1,80,8|0
412,304,52036,2,0,B|476:288|460:208,2,120
412,304,52925,5,4
376,160,53147,1,0
320,252,53369,1,12
284,108,53591,1,0
396,60,53814,6,0,B|443:67|445:112,1,80,4|0
484,160,54148,2,0,B|478:207|433:210,1,80
431,210,54480,1,0
316,180,54703,5,0
316,180,54925,1,0
336,60,55148,2,0,B|288:64|280:116,1,80,8|0
164,88,55592,2,0,B|124:152|185:193,2,120
164,88,56481,5,4
76,140,56703,1,4
236,136,56925,1,12
76,240,57147,1,4
236,240,57369,6,0,B|284:252|304:196,1,80,4|0
360,100,57814,1,8
360,100,57925,2,0,B|408:120|388:172,1,80
336,192,58258,2,0,B|348:240|398:237,1,80
328,340,58703,2,0,B|280:336|272:292,1,80,8|0
256,172,59147,6,0,B|276:128|240:100,1,80
124,76,59592,1,8
76,112,59703,2,0,B|60:160|100:184,1,80
96,244,60036,2,0,B|96:296|140:304,1,80
176,192,60480,2,0,B|168:144|208:124,1,80,8|0
288,36,60925,6,0,B|328:52,7,40
284,96,61814,2,0,B|328:112,7,40
284,156,62703,6,0,B|352:184,2,66.6666656732559
284,220,63147,2,0,B|352:248,2,66.6666656732559
284,276,63592,6,0,B|432:340,1,160,0|4
420,56,66258,6,0,B|376:60|360:104,1,80,4|0
424,176,66702,2,0,B|423:220|380:239,1,80
308,296,67147,2,0,B|280:260,1,40
200,308,67480,2,0,B|176:268,1,40
84,260,67813,2,0,B|49:167|138:131,1,160
92,48,68480,6,0,B|140:64,1,40
296,56,68924,2,0,B|310:97|277:130,1,80
184,140,69369,2,0,B|182:184|224:205,1,80
420,328,69813,6,0,B|376:324|360:280,1,80
424,208,70257,2,0,B|423:163|380:144,1,80
308,88,70702,2,0,B|280:124,1,40
200,76,71035,2,0,B|176:116,1,40
84,124,71368,2,0,B|49:216|138:252,1,160
92,336,72035,6,0,B|140:320,1,40
296,328,72479,2,0,B|310:286|277:253,1,80
184,244,72924,2,0,B|182:199|224:178,1,80
92,56,73369,6,0,B|136:60|152:104,1,80,4|0
88,176,73813,2,0,B|88:220|131:239,1,80
204,296,74258,2,0,B|232:260,1,40
312,308,74591,2,0,B|336:268,1,40
428,260,74924,2,0,B|462:167|373:131,1,160
420,48,75591,6,0,B|372:64,1,40
216,56,76035,6,0,B|201:97|234:130,1,80
328,140,76480,2,0,B|329:184|287:205,1,80
168,272,76925,6,0,B|164:324,7,40
196,272,77814,2,0,B|196:228,7,40
224,272,78703,2,0,B|224:356,1,80
280,272,79148,2,0,B|280:184,1,80
332,272,79592,2,0,B|332:360,2,80
392,96,80480,6,0,B|420:128,4,40,4|0|0|0|0
280,140,81369,2,0,B|252:180,4,40
348,208,82036,1,8
416,140,82258,2,0,B|444:184,4,40
348,208,82925,1,8
280,276,83147,2,0,B|244:320,4,40
208,212,83814,1,8
140,276,84036,6,0,B|100:232,4,40
140,172,84925,2,0,B|104:128,4,40
140,76,85814,2,0,B|104:32,4,40
236,76,86480,1,8
332,76,86703,2,0,B|304:112,4,40
236,200,87592,5,0
228,212,87703,1,0
228,224,87814,1,0
232,236,87925,1,0
236,248,88036,1,0
307,259,88480,5,0
324,232,88591,1,0
336,208,88702,1,0
324,184,88813,1,0
308,164,88924,1,0
380,268,89369,6,0,B|412:232,4,40
400,128,90258,1,0
400,128,90369,1,0
400,128,90480,1,0
400,128,90592,1,0
400,128,90703,1,0
288,64,91147,6,0,B|236:72|228:120,1,80
136,128,91592,2,0,B|108:168|136:212,1,80
224,220,92036,1,0
240,200,92147,1,0
256,180,92258,1,0
272,156,92369,1,0
288,136,92480,1,0
320,244,92925,6,0,B|292:272,4,40
404,192,93814,1,0
410,211,93925,1,0
416,230,94036,1,0
423,249,94147,1,0
429,268,94258,1,0
256,192,94703,12,4,96480
424,324,103592,6,0,B|456:292|440:240,1,80
348,248,104036,2,0,B|316:216|324:168,1,80
236,132,104480,1,0
236,132,104592,2,0,B|224:88|176:88,1,80
36,60,105147,1,0
36,60,105369,5,0
36,60,105592,2,0,B|32:104,1,40
80,112,105814,2,0,B|84:156,1,40
132,156,106036,2,0,B|140:200,1,40
188,192,106258,2,0,B|216:236,3,40
252,204,106703,2,0,B|304:220,3,40
336,224,107147,6,0,B|360:192,3,40,4|0|0|0
324,160,107592,2,0,B|328:112,3,40,4|0|0|0
280,112,108036,2,0,B|264:68,3,40,4|0|0|0
224,100,108480,2,0,B|184:72,3,40,4|0|0|0
168,120,108925,2,0,B|88:108,1,80
120,200,109369,2,0,B|28:220,1,80
100,292,109814,2,0,B|184:292,4,80,0|0|0|0|4
200,60,111814,5,0
200,60,112036,1,0
200,60,112258,1,0
292,80,112480,1,0
340,88,112592,2,0,B|384:104|380:156,1,80
408,240,113369,5,0
248,200,113592,1,0
384,164,113814,1,4
232,272,114036,2,0,B|188:264|176:212,1,80,4|0
132,292,114480,6,0,B|92:272,5,40
52,252,115147,2,0,B|56:168,1,80
152,180,115592,2,0,B|208:120,1,80
292,72,116036,1,0
292,72,116147,1,0
380,104,116369,2,0,B|448:120|440:192,1,120
440,192,116925,5,0
260,272,117147,1,0
340,112,117369,1,4
140,160,117592,2,0,B|108:200|144:232,1,80
44,176,118036,5,0
88,92,118258,1,0
88,92,118369,2,0,B|128:36|196:60,1,120
256,132,118925,1,0
256,132,119036,1,0
256,132,119147,6,0,B|240:222|277:274|331:280|415:231,1,260
410,234,120036,1,0
410,234,120258,1,0
410,234,120480,1,0
410,234,120703,1,0
410,234,120925,1,4
360,64,121369,6,0,B|304:76,3,40
340,116,121814,2,0,B|288:128|292:132,3,40
340,156,122258,2,0,B|396:168,3,40
360,208,122703,2,0,B|412:220|408:224,3,40
364,252,123147,6,0,B|284:280,1,80
240,196,123592,2,0,B|160:224,1,80
120,136,124036,2,0,B|40:164,2,80
