osu file format v14

[General]
AudioFilename: 03 - invoker.mp3
AudioLeadIn: 0
PreviewTime: 103488
Countdown: 0
SampleSet: Soft
StackLeniency: 0.2
Mode: 0
LetterboxInBreaks: 1
WidescreenStoryboard: 1

[Editor]
Bookmarks: 11571,78495,99418,124564
DistanceSpacing: 0.5
BeatDivisor: 4
GridSize: 32
TimelineZoom: 1.5

[Metadata]
Title:invoker
TitleUnicode:invoker
Artist:Caladborg
ArtistUnicode:Caladborg
Creator:Panic Room
Version:EEER
Source:beatmania IIDX 21 SPADA
Tags:Caladborg USAO Spada†leggendaria TRIBE CORE
BeatmapID:683614
BeatmapSetID:305210

[Difficulty]
HPDrainRate:7
CircleSize:4
OverallDifficulty:7
ApproachRate:9.3
SliderMultiplier:1.9
SliderTickRate:1

[Events]
//Background and Video events
0,0,"43355007.jpg",0,0
//Break Periods
//Storyboard Layer 0 (Background)
//Storyboard Layer 1 (Fail)
//Storyboard Layer 2 (Pass)
//Storyboard Layer 3 (Foreground)
//Storyboard Sound Samples

[TimingPoints]
488,307.692307692308,4,1,0,65,1,0
488,-142.857142857143,4,2,1,39,0,0
564,-142.857142857143,4,2,0,19,0,0
5411,-142.857142857143,4,2,1,29,0,0
5718,-142.857142857143,4,2,0,19,0,0
10334,-100,4,2,1,49,0,0
18949,-76.9230769230769,4,2,1,49,0,0
19564,-100,4,2,1,49,0,0
20180,-100,4,1,1,40,0,0
38949,-100,4,1,0,50,0,0
39103,-100,4,1,1,40,0,0
39872,-100,4,1,0,70,0,0
40026,-100,4,1,1,40,0,0
48564,-83.3333333333333,4,1,1,40,0,0
48795,-83.3333333333333,4,1,1,30,0,0
49026,-100,4,1,1,30,0,0
49411,-62.5,4,2,1,49,0,0
49718,-71.4285714285714,4,2,2,59,0,0
50026,-62.5,4,2,2,59,0,0
50180,-71.4285714285714,4,2,2,59,0,0
51257,-62.5,4,2,2,59,0,0
51411,-71.4285714285714,4,2,2,59,0,0
52488,-62.5,4,2,2,59,0,0
52641,-71.4285714285714,4,2,2,59,0,0
53718,-62.5,4,2,2,59,0,0
53872,-71.4285714285714,4,2,2,59,0,0
54949,-62.5,4,2,2,59,0,0
55103,-71.4285714285714,4,2,2,59,0,0
56180,-62.5,4,2,2,59,0,0
56334,-71.4285714285714,4,2,2,59,0,0
56795,-62.5,4,1,0,59,0,0
56949,-62.5,4,2,2,59,0,0
57411,-62.5,4,2,2,59,0,0
57564,-71.4285714285714,4,2,2,59,0,0
57872,-62.5,4,2,2,59,0,0
58334,-71.4285714285714,4,2,2,59,0,0
58641,-58.8235294117647,4,2,2,59,0,0
58949,-71.4285714285714,4,2,2,59,0,0
59257,-58.8235294117647,4,2,2,59,0,0
59411,-58.8235294117647,4,2,2,39,0,0
59564,-71.4285714285714,4,2,1,39,0,0
59718,-71.4285714285714,4,2,2,49,0,0
59872,-62.5,4,2,2,49,0,0
60026,-71.4285714285714,4,2,2,49,0,0
60795,-71.4285714285714,4,2,1,49,0,0
60949,-71.4285714285714,4,2,2,49,0,0
61103,-62.5,4,2,2,49,0,0
61257,-71.4285714285714,4,2,2,49,0,0
61718,-100,4,2,2,49,0,0
62026,-71.4285714285714,4,2,1,55,0,0
62488,-71.4285714285714,4,2,1,49,0,0
62641,-71.4285714285714,4,2,2,49,0,0
64488,-71.4285714285714,4,2,1,49,0,0
64641,-71.4285714285714,4,2,2,49,0,0
65718,-71.4285714285714,4,2,1,49,0,0
66026,-71.4285714285714,4,2,2,49,0,0
66641,-100,4,2,2,49,0,0
66949,-71.4285714285714,4,2,1,49,0,0
67257,-71.4285714285714,4,2,2,49,0,0
68180,-71.4285714285714,4,2,1,49,0,0
68488,-71.4285714285714,4,2,2,49,0,0
78641,-142.857142857143,4,2,1,30,0,0
78795,-142.857142857143,4,2,1,40,0,0
78949,-142.857142857143,4,2,1,50,0,0
79103,-142.857142857143,4,2,1,60,0,0
79257,-142.857142857143,4,2,2,85,0,1
79411,-142.857142857143,4,2,0,39,0,0
84180,-142.857142857143,4,2,0,45,0,0
89103,-83.3333333333333,4,2,1,45,0,0
89411,-142.857142857143,4,2,0,45,0,0
90641,-83.3333333333333,4,2,1,39,0,0
91257,-142.857142857143,4,2,0,39,0,0
91564,-142.857142857143,4,2,0,39,0,0
92949,-83.3333333333333,4,2,1,39,0,0
93718,-66.6666666666667,4,2,1,49,0,0
93872,-66.6666666666667,4,2,1,39,0,0
94026,-83.3333333333334,4,2,1,39,0,0
94334,-142.857142857143,4,2,0,39,0,0
94488,-142.857142857143,4,2,1,39,0,0
95564,-142.857142857143,4,2,0,39,0,0
95718,-142.857142857143,4,2,1,39,0,0
96795,-142.857142857143,4,2,0,39,0,0
96949,-142.857142857143,4,2,1,39,0,0
98026,-142.857142857143,4,2,0,39,0,0
98180,-142.857142857143,4,2,1,39,0,0
98488,-142.857142857143,4,2,1,39,0,0
98949,-83.3333333333334,4,2,1,39,0,0
99257,-142.857142857143,4,2,0,39,0,0
99564,-83.3333333333334,4,2,1,39,0,0
99872,-142.857142857143,4,2,0,39,0,0
100180,-83.3333333333333,4,2,1,39,0,0
100488,-142.857142857143,4,2,0,39,0,0
100795,-83.3333333333333,4,2,1,39,0,0
101103,-142.857142857143,4,2,0,39,0,0
101411,-83.3333333333333,4,2,1,39,0,0
101718,-80,4,2,1,39,0,0
102026,-76.9230769230769,4,2,1,39,0,0
102334,-74.0740740740741,4,2,1,39,0,0
103564,-66.6666666666667,4,2,1,39,0,0
103872,-90.9090909090909,4,2,1,45,0,1
112641,-71.4285714285714,4,2,1,45,0,1
113411,-71.4285714285714,4,2,1,65,0,1
113718,-90.9090909090909,4,2,1,45,0,1
118334,-71.4285714285714,4,2,1,55,0,1
118488,-71.4285714285714,4,2,1,45,0,1
118641,-90.9090909090909,4,2,1,39,0,0
123564,-62.5,4,2,1,39,0,0

[HitObjects]
92,151,488,6,0,P|152:151|225:134,1,132.999995941162,4|0,0:0|0:0,0:0:0:0:
267,68,949,1,0,0:0:0:0:
322,127,1103,1,2,0:0:0:0:
322,127,1257,1,0,0:0:0:0:
346,266,1564,1,0,0:0:0:0:
292,206,1718,2,0,P|223:197|163:220,1,132.999995941162,2|0,0:2|0:2,0:2:0:0:
150,92,2334,1,2,0:0:0:0:
110,234,2641,5,2,0:0:0:0:
171,284,2795,1,0,0:0:0:0:
226,166,2949,2,0,P|286:151|359:167,1,132.999995941162,2|0,0:0|0:0,0:0:0:0:
410,223,3411,1,0,0:0:0:0:
403,302,3564,1,2,0:0:0:0:
332,340,3718,1,2,0:0:0:0:
108,212,4026,1,2,0:0:0:0:
108,212,4180,2,0,L|105:366,1,132.999995941162,2|0,0:0|0:0,0:0:0:0:
105,344,4641,1,0,0:0:0:0:
156,140,4795,5,2,0:0:0:0:
312,177,4949,1,0,0:0:0:0:
192,219,5103,1,2,0:0:0:0:
286,104,5257,1,0,0:0:0:0:
230,154,5411,2,0,L|226:293,1,132.999995941162,4|0,0:0|0:0,0:0:0:0:
227,367,5872,1,0,0:0:0:0:
227,367,5949,1,0,0:0:0:0:
227,367,6026,1,2,0:0:0:0:
192,219,6180,1,2,0:0:0:0:
459,224,6488,5,2,0:0:0:0:
412,288,6641,2,0,L|277:288,1,132.999995941162,2|0,0:0|0:0,0:0:0:0:
43,122,7257,2,0,L|145:122,1,99.7499969558717,2|0,0:0|0:0,0:0:0:0:
182,124,7564,1,2,0:0:0:0:
260,166,7718,1,0,0:0:0:0:
93,319,7872,2,0,P|75:283|112:201,1,132.999995941162,4|0,0:0|0:0,0:0:0:0:
188,213,8334,1,0,0:0:0:0:
289,246,8488,1,2,0:0:0:0:
220,285,8641,1,0,0:0:0:0:
188,213,8949,5,0,0:0:0:0:
260,166,9103,2,0,P|322:163|378:210,1,132.999995941162,2|0,0:0|0:0,0:0:0:0:
385,306,9564,1,0,0:0:0:0:
289,246,9718,1,2,0:0:0:0:
265,347,9872,1,0,0:0:0:0:
220,285,10026,1,4,0:0:0:0:
143,133,10180,1,0,0:0:0:0:
143,133,10257,1,0,0:0:0:0:
143,133,10334,6,0,L|137:232,1,95,8|0,0:0|0:0,0:0:0:0:
145,322,10641,1,2,0:0:0:0:
347,353,10795,1,0,0:0:0:0:
66,312,10949,5,0,0:0:0:0:
288,245,11103,1,2,0:0:0:0:
118,243,11257,1,0,0:0:0:0:
265,347,11411,1,0,0:0:0:0:
207,254,11564,6,0,P|214:217|254:175,1,95,8|0,0:0|0:0,0:0:0:0:
391,151,11871,1,2,0:0:0:0:
265,347,12025,1,0,0:0:0:0:
280,163,12179,5,0,0:0:0:0:
160,256,12333,1,2,0:0:0:0:
288,245,12487,1,0,0:0:0:0:
122,168,12641,1,0,0:0:0:0:
288,245,12795,2,0,L|385:236,1,95,8|0,0:0|0:0,0:0:0:0:
480,274,13102,5,2,0:0:0:0:
342,350,13256,1,0,0:0:0:0:
204,238,13410,5,0,0:0:0:0:
364,176,13564,1,2,0:0:0:0:
265,156,13718,1,0,0:0:0:0:
336,339,13872,1,0,0:0:0:0:
204,238,14026,6,0,L|101:248,1,95,8|0,0:0|0:0,0:0:0:0:
6,261,14333,1,2,0:0:0:0:
110,150,14487,1,0,0:0:0:0:
133,337,14641,5,0,0:0:0:0:
265,156,14795,1,10,2:0:0:0:
265,156,14872,1,0,2:0:0:0:
265,156,14949,2,0,B|322:151|369:157|369:157|399:188,1,142.5,4|0,2:0|2:0,2:0:0:0:
453,256,15257,2,0,P|414:271|356:243,1,95,8|0,0:0|0:0,0:0:0:0:
265,156,15564,5,2,0:0:0:0:
169,251,15718,2,0,L|170:345,1,95
273,75,16026,5,2,0:0:0:0:
134,158,16180,2,0,B|86:162|86:162|41:145,1,95,8|0,0:0|0:0,0:0:0:0:
140,77,16488,1,0,0:0:0:0:
42,235,16641,1,0,0:0:0:0:
255,244,16795,2,0,B|304:247|304:247|360:227,1,95,2|0,0:0|0:0,0:0:0:0:
483,159,17103,5,0,0:0:0:0:
306,327,17257,1,10,0:0:0:0:
470,253,17411,1,0,0:0:0:0:
367,158,17564,1,0,0:0:0:0:
367,158,17641,1,0,0:0:0:0:
367,158,17718,2,0,L|354:260,1,95,4|0,0:0|0:0,0:0:0:0:
152,355,18026,2,0,L|139:260,1,95,8|0,0:0|0:0,0:0:0:0:
124,166,18334,5,0,0:0:0:0:
242,56,18488,1,2,0:0:0:0:
367,158,18641,2,0,L|461:140,1,95,8|0,0:1|0:1,0:1:0:0:
321,61,18949,6,0,L|298:131,1,61.7499971733095
184,126,19103,2,0,P|170:104|159:68,1,61.7499971733095,2|0,0:0|0:0,0:0:0:0:
246,180,19257,1,0,0:0:0:0:
243,200,19334,1,0,0:0:0:0:
242,218,19411,2,0,L|183:234,1,61.7499971733095
341,332,19564,2,0,P|391:282|455:313,1,142.5,4|0,0:0|0:0,0:0:0:0:
468,321,19872,1,2,0:0:0:0:
485,304,19949,1,0,0:0:0:0:
502,288,20026,1,0,0:0:0:0:
341,332,20180,6,0,L|428:386,1,95,8|0,0:0|0:0,0:0:0:0:
206,318,20488,1,0,0:0:0:0:
320,227,20641,1,8,0:0:0:0:
178,237,20795,2,0,P|135:228|81:240,1,95
206,318,21103,1,8,0:0:0:0:
320,227,21256,1,0,0:0:0:0:
167,149,21411,2,0,P|159:105|174:51,1,95,0|8,0:0|0:0,0:0:0:0:
206,318,21718,2,0,P|180:354|131:382,1,95
178,237,22026,5,8,0:0:0:0:
345,135,22180,1,0,0:0:0:0:
345,135,22257,1,0,0:0:0:0:
345,135,22334,2,0,P|296:143|251:134,1,95,8|0,0:0|0:0,0:0:0:0:
119,66,22641,1,8,0:0:0:0:
30,128,22794,1,0,0:0:0:0:
115,271,22948,2,0,B|133:224|133:224|126:168,1,95,0|8,0:0|0:0,0:0:0:0:
220,228,23257,1,0,0:0:0:0:
40,225,23410,1,0,0:0:0:0:
220,228,23564,2,0,P|266:232|318:223,1,95,8|0,0:0|0:0,0:0:0:0:
381,369,23872,5,0,0:0:0:0:
278,314,24025,1,8,0:0:0:0:
512,221,24180,1,0,0:0:0:0:
441,312,24334,1,0,0:0:0:0:
378,119,24488,5,8,0:0:0:0:
313,210,24641,1,0,0:0:0:0:
313,210,24718,1,0,0:0:0:0:
313,210,24795,2,0,P|308:282|364:311,1,142.5,4|0,0:0|0:0,0:0:0:0:
441,312,25103,5,8,0:0:0:0:
467,151,25257,1,0,0:0:0:0:
467,151,25334,1,0,0:0:0:0:
467,151,25411,2,0,L|468:256,1,95,0|8,0:0|0:0,0:0:0:0:
296,301,25718,1,0,0:0:0:0:
275,154,25872,1,0,0:0:0:0:
275,154,25949,1,0,0:0:0:0:
275,154,26026,1,8,0:0:0:0:
342,219,26180,5,0,0:0:0:0:
138,207,26334,1,0,0:0:0:0:
234,67,26488,1,0,0:0:0:0:
234,67,26564,1,0,0:0:0:0:
234,67,26642,2,0,P|281:66|329:68,1,95,8|0,0:0|0:0,0:0:0:0:
342,219,26949,1,8,0:0:0:0:
346,340,27103,5,0,0:0:0:0:
463,247,27257,1,4,0:0:0:0:
275,154,27411,1,0,0:0:0:0:
275,154,27488,1,0,0:0:0:0:
275,154,27565,2,0,L|273:260,1,95,8|0,0:0|0:0,0:0:0:0:
206,318,27872,5,0,0:0:0:0:
370,259,28026,1,8,0:0:0:0:
356,239,28103,1,0,0:0:0:0:
342,219,28180,1,4,0:0:0:0:
120,330,28334,1,0,0:0:0:0:
295,307,28488,5,8,0:0:0:0:
163,198,28642,1,0,0:0:0:0:
146,215,28719,1,0,0:0:0:0:
130,232,28795,1,4,0:0:0:0:
120,330,28949,1,0,0:0:0:0:
72,135,29103,1,2,0:0:0:0:
9,252,29257,1,0,0:0:0:0:
318,178,29411,5,0,0:0:0:0:
197,114,29565,1,0,0:0:0:0:
179,119,29642,1,0,0:0:0:0:
163,125,29718,2,0,B|160:175|160:175|172:234,1,95,4|0,0:0|0:0,0:0:0:0:
9,252,29949,1,0,0:0:0:0:
9,252,30026,2,0,L|105:250,1,95,8|0,0:0|0:0,0:0:0:0:
264,265,30334,6,0,B|267:320|267:320|291:358,1,95,0|8,0:0|0:0,0:0:0:0:
287,354,30642,1,0,0:0:0:0:
489,138,30795,1,0,0:0:0:0:
431,213,30949,2,0,B|377:218|377:218|335:199,1,95,8|0,0:0|0:0,0:0:0:0:
274,132,31257,1,4,0:0:0:0:
133,252,31410,1,0,0:0:0:0:
86,149,31564,2,0,P|133:138|176:152,1,95,8|0,0:0|0:0,0:0:0:0:
224,256,31872,5,8,0:0:0:0:
159,350,32025,1,0,0:3:0:0:
60,293,32180,1,4,0:0:0:0:
287,159,32334,1,0,0:0:0:0:
287,159,32411,1,0,0:0:0:0:
287,159,32488,2,0,L|386:175,1,95,8|0,0:0|0:0,0:0:0:0:
339,359,32795,1,0,0:0:0:0:
433,283,32949,2,0,L|333:267,1,95,8|0,0:0|0:0,0:0:0:0:
168,142,33257,5,0,0:0:0:0:
102,239,33411,2,0,P|104:286|133:327,1,95,8|0,0:0|0:0,0:0:0:0:
242,274,33718,1,0,0:0:0:0:
242,274,33795,1,0,0:0:0:0:
242,274,33872,2,0,L|265:168,1,95,0|8,0:0|0:0,0:0:0:0:
359,253,34180,1,0,0:0:0:0:
254,369,34334,2,0,P|188:358|154:291,1,142.5,8|0,0:0|0:0,0:0:0:0:
129,229,34641,2,0,L|32:260,1,95,4|0,0:0|0:0,0:0:0:0:
222,186,34949,5,8,0:0:0:0:
306,145,35103,1,0,0:0:0:0:
306,145,35180,1,0,0:0:0:0:
306,145,35257,1,0,0:0:0:0:
222,86,35411,1,8,0:0:0:0:
132,145,35564,1,0,0:0:0:0:
309,229,35718,1,0,0:0:0:0:
129,229,35872,1,8,0:0:0:0:
222,275,36026,1,0,0:0:0:0:
132,145,36180,5,8,0:0:0:0:
306,145,36334,1,0,0:0:0:0:
306,145,36411,1,0,0:0:0:0:
306,145,36488,1,0,0:0:0:0:
222,86,36642,1,8,0:0:0:0:
417,184,36795,5,0,0:0:0:0:
225,181,36949,1,0,0:0:0:0:
308,329,37103,2,0,B|328:298|328:298|331:238,1,95,8|0,0:0|0:0,0:0:0:0:
430,268,37411,6,0,L|430:362,1,95,8|0,0:0|0:0,0:0:0:0:
171,245,37718,2,0,L|152:191,1,47.5
316,158,37872,2,0,L|281:251,1,95,8|0,0:0|0:0,0:0:0:0:
151,366,38180,6,0,L|170:312,1,47.5
6,279,38334,2,0,L|41:372,1,95,8|0,0:0|0:0,0:0:0:0:
74,96,38641,5,2,0:0:0:0:
74,96,38718,2,0,B|117:99|117:99|170:82,1,95
255,88,38949,2,0,P|259:130|234:180,1,95,4|0,0:0|0:0,0:0:0:0:
426,259,39257,6,0,L|451:300,1,47.5,4|0,0:0|0:0,0:0:0:0:
381,157,39411,2,0,L|424:129,1,47.5
328,239,39564,1,2,0:0:0:0:
328,239,39641,1,0,0:0:0:0:
328,239,39718,1,0,0:0:0:0:
140,161,39872,5,4,0:0:0:0:
74,308,40026,1,0,0:0:0:0:
74,308,40103,1,0,0:0:0:0:
74,308,40180,1,8,0:0:0:0:
218,278,40334,1,0,0:0:0:0:
68,201,40488,2,0,P|57:153|76:113,1,95
216,23,40795,2,0,L|208:119,1,95,2|0,0:0|0:0,0:0:0:0:
258,178,41103,5,8,0:0:0:0:
333,120,41257,1,0,0:0:0:0:
407,178,41411,1,0,0:0:0:0:
482,120,41565,1,0,0:0:0:0:
327,233,41719,2,0,B|315:270|315:270|325:332,1,95
323,325,41949,1,0,0:0:0:0:
323,325,42026,1,2,0:0:0:0:
141,283,42180,1,0,0:0:0:0:
328,233,42334,6,0,B|340:196|340:196|330:134,1,95,8|0,0:0|0:0,0:0:0:0:
141,283,42641,2,0,B|129:320|129:320|139:382,1,95
331,140,42949,1,0,0:0:0:0:
323,325,43103,1,0,0:0:0:0:
235,231,43257,1,2,0:0:0:0:
423,240,43411,1,0,0:0:0:0:
165,164,43564,6,0,P|159:116|168:66,1,95,8|0,0:0|0:0,0:0:0:0:
321,60,43872,2,0,P|327:108|318:158,1,95
235,231,44180,1,0,0:0:0:0:
457,167,44335,1,0,0:0:0:0:
457,167,44411,1,0,0:0:0:0:
457,167,44488,1,2,0:0:0:0:
321,175,44641,5,0,0:0:0:0:
311,356,44795,2,0,B|309:298|309:298|321:262,1,95,8|0,0:0|0:0,0:0:0:0:
457,167,45103,2,0,P|444:205|389:227,1,95,2|0,0:0|0:0,0:0:0:0:
87,152,45411,2,0,P|62:114|70:50,1,95,8|0,0:0|0:0,0:0:0:0:
210,119,45718,2,0,P|254:128|293:179,1,95
52,273,46026,5,4,0:0:0:0:
144,365,46180,1,0,0:0:0:0:
36,276,46334,5,2,0:0:0:0:
138,81,46488,1,0,0:0:0:0:
20,281,46641,5,0,0:0:0:0:
245,281,46795,1,0,0:0:0:0:
2,285,46949,5,2,0:0:0:0:
239,171,47103,1,0,0:0:0:0:
143,271,47257,5,4,0:0:0:0:
53,160,47411,1,0,0:0:0:0:
136,283,47564,5,2,0:0:0:0:
327,240,47719,1,0,0:0:0:0:
276,364,47872,1,0,0:0:0:0:
239,171,48026,1,0,0:0:0:0:
129,296,48180,5,8,0:0:0:0:
327,240,48334,1,0,0:0:0:0:
67,236,48488,1,4,0:0:0:0:
66,235,48564,6,0,P|50:281|58:347,1,113.999996520996
130,362,48795,2,0,P|176:359|242:381,1,113.999996520996
246,367,49026,1,0,0:0:0:0:
249,353,49103,1,4,0:3:0:0:
252,339,49180,1,0,0:3:0:0:
256,325,49257,1,0,0:3:0:0:
405,238,49411,6,0,B|445:231|445:231|481:208,1,76
357,154,49564,6,0,B|377:118|377:118|382:76,1,76
309,235,49718,6,0,P|292:302|312:372,1,132.999995941162,4|0,0:0|0:0,0:0:0:0:
170,361,49949,1,0,0:0:0:0:
170,361,50026,2,0,P|182:317|178:287,1,76
31,224,50180,2,0,B|62:239|91:209|91:209|132:223|132:223|171:198|219:219,1,199.499993911743,4|0,0:0|0:0,0:0:0:0:
309,235,50488,1,4,0:0:0:0:
471,183,50641,6,0,B|478:209|478:209|477:249,1,66.4999979705811
309,235,50795,2,0,B|302:209|302:209|303:169,1,66.4999979705811,2|0,0:0|0:0,0:0:0:0:
390,225,50949,2,0,B|389:259|389:259|377:277|377:277|396:299|397:334|386:357,1,132.999995941162,4|0,0:0|0:0,0:0:0:0:
283,384,51180,5,0,0:0:0:0:
283,384,51257,2,0,B|281:332|281:332|291:306,1,76
154,248,51411,2,0,B|173:195|227:185|227:185|268:235|322:235,1,199.499993911743,4|0,0:0|0:0,0:0:0:0:
377,296,51718,1,4,0:0:0:0:
377,296,52180,6,0,L|399:161,1,132.999995941162,4|0,0:0|0:0,0:0:0:0:
469,124,52411,1,0,0:0:0:0:
469,124,52488,2,0,B|476:152|476:152|469:209,1,76
317,187,52642,2,0,B|280:176|280:176|247:190|247:190|205:205|176:175|144:179|117:192,1,199.499993911743,4|0,0:0|0:0,2:0:0:0:
46,169,52949,1,4,0:0:0:0:
69,296,53103,6,0,P|38:282|12:262,1,66.4999979705811,0|0,2:0|2:0,2:0:0:0:
191,206,53257,2,0,P|196:236|190:279,1,66.4999979705811,2|0,0:0|0:0,0:0:0:0:
46,169,53411,2,0,P|66:115|140:86,1,132.999995941162,4|0,0:0|0:0,0:0:0:0:
69,296,53718,6,0,B|60:334|60:334|37:366,1,76
152,350,53873,2,0,B|186:357|186:357|227:348|227:348|248:361|270:353|270:353|303:351,1,132.999995941162,4|0,0:0|0:0,0:0:0:0:
324,200,54181,6,0,B|318:165|318:165|325:129,1,66.4999979705811,4|0,0:0|0:0,0:0:0:0:
438,73,54334,2,0,B|394:78|394:78|366:71,1,66.4999979705811
183,131,54488,2,0,B|227:136|227:136|255:129,1,66.4999979705811,2|0,0:0|0:0,0:0:0:0:
403,182,54641,6,0,B|417:255|354:276|354:276|339:304|352:327|352:327|354:354,1,199.499993911743,4|0,0:0|0:0,2:0:0:0:
266,351,54949,2,0,B|225:348|225:348|181:350,1,76
78,259,55103,6,0,B|98:230|140:231|140:231|176:264|176:264|214:277|259:257,1,199.499993911743,4|0,0:0|0:0,0:0:0:0:
328,222,55411,1,4,0:0:0:0:
285,52,55564,6,0,P|283:98|277:134,1,66.4999979705811
395,64,55718,2,0,P|382:108|367:141,1,66.4999979705811,2|0,0:0|0:0,0:0:0:0:
328,222,55872,2,0,P|390:214|451:257,1,132.999995941162,4|0,0:0|0:0,0:0:0:0:
234,158,56180,6,0,P|239:121|233:75,1,76
152,179,56334,2,0,B|128:238|173:274|173:274|184:300,1,132.999995941162,4|0,0:0|0:0,0:0:0:0:
270,333,56564,1,0,0:0:0:0:
270,333,56642,2,0,L|209:371,1,66.4999979705811,6|0,0:0|0:0,0:0:0:0:
383,303,56795,6,2,P|414:251|455:305,1,152,2|0,0:0|0:0,0:0:0:0:
284,308,57103,6,0,B|244:293|223:267|223:267|155:353|94:267|63:340,1,228,4|0,0:0|0:0,0:0:0:0:
7,302,57411,2,0,L|9:215,1,76
84,137,57564,2,0,B|107:161|107:161|83:192|83:192|96:226|96:226|82:264|82:264|90:288|83:330,1,199.499993911743,4|0,0:0|0:0,0:0:0:0:
179,278,57872,6,0,B|178:235|178:235|190:198,1,76,4|0,0:0|0:0,0:0:0:0:
0,151,58026,2,0,B|10:183|10:183|9:225,1,76
165,100,58180,2,0,B|204:103|204:103|266:92,1,76,2|0,0:0|0:0,0:0:0:0:
363,179,58334,6,0,B|330:207|330:207|289:191|270:175|231:174|181:199,1,199.499993911743,4|0,0:0|0:0,0:0:0:0:
179,278,58641,2,0,P|188:319|214:365,1,80.750001540184
410,359,58795,2,0,L|321:359,1,80.750001540184,4|0,0:0|0:0,0:0:0:0:
290,120,58949,1,0,0:0:0:0:
263,315,59103,5,4,0:0:0:0:
447,256,59257,1,8,0:0:0:0:
283,217,59411,1,0,0:0:0:0:
283,217,59488,1,0,0:0:0:0:
283,217,59564,2,0,B|241:221|241:221|239:253|206:276|163:279,1,132.999995941162,4|0,0:0|0:0,0:0:0:0:
66,80,59872,6,0,P|104:86|151:73,1,76
205,142,60026,2,0,L|356:141,1,132.999995941162,4|0,0:0|0:0,0:0:0:0:
366,333,60334,6,0,L|291:333,1,66.4999979705811,4|0,0:0|0:0,0:0:0:0:
118,329,60488,2,0,L|193:329,1,66.4999979705811
282,216,60641,2,0,P|272:258|246:285,1,66.4999979705811
150,217,60795,6,0,L|301:216,1,132.999995941162,4|0,0:0|0:0,0:0:0:0:
351,267,61026,1,0,0:0:0:0:
346,258,61103,2,0,B|307:249|307:249|273:264,1,76
173,309,61257,2,0,B|117:307|78:290|78:290|56:308|37:310,1,132.999995941162,4|0,0:0|0:0,0:0:0:0:
291,184,61564,6,0,L|300:117,1,66.4999979705811,4|0,0:0|0:0,0:0:0:0:
172,76,61718,2,0,L|147:232,1,142.5,8|0,0:0|0:0,0:0:0:0:
173,309,62026,6,0,B|208:295|266:315|305:307,1,132.999995941162,4|0,0:0|0:0,0:0:0:0:
74,234,62334,1,0,0:0:0:0:
74,234,62411,1,0,0:0:0:0:
74,234,62488,2,0,B|136:241|159:193|159:193|185:195|197:186,1,132.999995941162,4|0,0:0|0:0,0:0:0:0:
383,215,62795,6,0,P|389:288|336:322,1,132.999995941162,4|0,0:0|0:0,0:0:0:0:
291,184,63026,2,0,B|293:137|293:137|271:101|271:101|292:66|316:53,1,132.999995941162,4|0,0:0|0:0,0:0:0:0:
318,256,63257,1,4,0:0:0:0:
360,136,63488,5,0,0:0:0:0:
360,136,63564,2,0,L|292:137,1,66.4999979705811
196,220,63718,2,0,B|222:226|222:226|259:203|259:203|295:231|328:217|328:217|354:222|397:210,1,199.499993911743,4|0,0:0|0:0,0:0:0:0:
382,214,64026,5,4,0:0:0:0:
309,365,64180,2,0,L|272:366,3,33.2499989852906
117,218,64488,6,0,P|113:179|118:151,1,66.4999979705811,4|0,0:0|0:0,0:0:0:0:
276,202,64641,2,0,P|280:241|275:269,1,66.4999979705811
119,78,64796,2,0,B|126:58|116:35|123:11,1,66.4999979705811
279,69,64950,2,0,L|276:202,1,132.999995941162,4|0,0:0|0:0,0:0:0:0:
276,201,65257,6,0,L|201:201,1,66.4999979705811,4|0,0:0|0:0,0:0:0:0:
44,198,65411,2,0,L|119:198,1,66.4999979705811
119,23,65565,1,0,0:0:0:0:
119,23,65718,6,0,L|256:23,1,132.999995941162,4|0,0:0|0:0,0:0:0:0:
416,219,66026,6,0,P|385:200|343:198,1,66.4999979705811
240,303,66180,6,0,P|268:285|300:280,1,66.4999979705811,4|0,0:0|0:0,0:0:0:0:
397,353,66334,1,0,0:0:0:0:
397,353,66488,2,0,P|389:321|399:284,1,66.4999979705811,6|0,0:0|0:0,0:0:0:0:
281,229,66641,6,0,L|267:390,1,142.5,8|0,0:0|0:0,0:0:0:0:
187,371,66949,2,0,P|117:360|54:371,1,132.999995941162,4|0,0:0|0:0,0:0:0:0:
360,285,67257,6,0,L|354:357,1,66.4999979705811
159,251,67411,2,0,L|176:105,1,132.999995941162,4|0,0:0|0:0,0:0:0:0:
40,165,67718,6,0,L|49:95,1,66.4999979705811,4|0,0:0|0:0,0:0:0:0:
33,248,67872,2,0,B|70:266|119:242|119:242|139:261|166:248,1,132.999995941162,8|0,0:0|0:0,0:0:0:0:
359,299,68180,1,4,0:0:0:0:
356,317,68488,6,0,L|350:389,1,66.4999979705811,2|0,0:0|0:0,0:0:0:0:
159,251,68642,2,0,B|163:200|163:200|179:162|179:162|191:107,1,132.999995941162,4|0,0:0|0:0,0:0:0:0:
33,248,68949,1,2,0:0:0:0:
263,81,69103,5,8,0:0:0:0:
275,75,69180,1,0,0:0:0:0:
287,69,69257,1,0,0:0:0:0:
144,329,69411,1,4,0:0:0:0:
256,192,69564,12,0,71411,0:0:0:0:
256,188,71564,5,4,0:0:0:0:
256,188,71872,1,4,0:0:0:0:
256,192,72026,12,0,74180,0:0:0:0:
339,134,74334,5,4,0:0:0:0:
256,192,74488,12,0,78488,0:0:0:0:
254,148,78641,5,0,0:0:0:0:
254,148,78795,1,0,0:0:0:0:
254,148,78949,1,0,0:0:0:0:
254,148,79103,1,0,0:0:0:0:
254,148,79257,6,0,L|194:204,1,66.4999979705811,4|0,0:0|0:0,0:0:0:0:
84,260,79564,6,0,P|47:252|12:256,1,66.4999979705811
176,263,79872,1,2,0:0:0:0:
98,160,80026,2,0,P|94:125|103:92,1,66.4999979705811
198,118,80334,5,0,0:0:0:0:
176,263,80488,1,2,0:0:0:0:
301,196,80641,1,0,0:0:0:0:
175,263,80795,2,0,P|167:295|172:328,1,66.4999979705811,2|0,0:0|0:0,0:0:0:0:
400,301,81103,2,0,L|319:301,1,66.4999979705811,2|0,0:0|0:0,0:0:0:0:
234,196,81411,2,0,L|315:196,1,66.4999979705811,2|0,0:0|0:0,0:0:0:0:
476,47,81718,6,0,L|416:103,1,66.4999979705811,2|0,0:0|0:0,0:0:0:0:
260,106,82026,2,0,P|252:61|260:27,1,66.4999979705811
411,140,82333,1,2,0:0:0:0:
322,195,82488,1,0,0:0:0:0:
347,81,82641,1,0,0:0:0:0:
234,196,82795,1,0,0:0:0:0:
420,228,82949,2,0,L|497:222,1,66.4999979705811,2|0,0:0|0:0,0:0:0:0:
317,360,83257,5,2,0:0:0:0:
419,323,83411,1,0,0:0:0:0:
322,195,83564,2,0,P|318:160|327:127,1,66.4999979705811,2|0,0:0|0:0,0:0:0:0:
226,53,83872,2,0,P|230:88|221:121,1,66.4999979705811,2|0,0:0|0:0,0:0:0:0:
11,276,84180,6,0,L|95:273,1,66.4999979705811,2|0,0:0|0:0,0:0:0:0:
244,356,84488,1,0,0:0:0:0:
167,307,84641,1,0,0:0:0:0:
95,359,84795,1,2,0:0:0:0:
66,193,84949,2,0,P|72:158|90:129,1,66.4999979705811
78,274,85257,5,0,0:0:0:0:
257,259,85411,1,2,0:0:0:0:
165,217,85564,1,0,0:0:0:0:
257,259,85718,2,0,L|330:260,1,66.4999979705811,2|0,0:0|0:0,0:0:0:0:
405,367,86026,2,0,P|401:332|410:299,1,66.4999979705811,2|0,0:0|0:0,0:0:0:0:
421,168,86334,2,0,L|407:99,1,66.4999979705811,2|0,0:0|0:0,0:0:0:0:
275,291,86641,5,6,0:0:0:0:
289,298,86718,1,0,0:0:0:0:
303,306,86795,1,0,0:0:0:0:
52,240,86949,1,0,0:0:0:0:
332,216,87103,1,0,0:0:0:0:
115,145,87257,5,2,0:0:0:0:
183,69,87411,1,0,0:0:0:0:
256,141,87564,1,4,0:0:0:0:
188,226,87718,1,0,0:0:0:0:
259,61,87872,5,2,0:0:0:0:
275,59,87949,1,0,0:0:0:0:
291,60,88026,1,0,0:0:0:0:
305,69,88103,1,0,0:0:0:0:
318,79,88180,6,0,P|351:84|393:82,1,66.4999979705811,4|0,0:0|0:0,0:0:0:0:
444,142,88411,1,0,0:0:0:0:
446,162,88488,2,0,P|425:208|459:297,1,132.999995941162,2|2,0:0|0:0,0:0:0:0:
383,344,88949,1,0,0:0:0:0:
104,219,89103,6,0,L|223:213,1,113.999996520996,4|0,0:0|0:0,0:0:0:0:
349,107,89411,1,2,0:0:0:0:
383,344,89564,1,0,0:0:0:0:
415,193,89718,1,0,0:0:0:0:
283,261,89872,2,0,L|355:256,1,66.4999979705811,2|0,0:0|0:0,0:0:0:0:
494,261,90180,1,2,0:0:0:0:
165,100,90334,5,4,0:0:0:0:
208,215,90488,1,0,0:0:0:0:
208,215,90564,1,0,0:0:0:0:
208,215,90641,2,0,L|230:277,1,56.9999982604981,2|0,0:0|0:0,0:0:0:0:
291,370,90795,6,0,L|291:298,1,56.9999982604981
397,223,90949,2,0,L|375:285,1,56.9999982604981,4|0,0:0|0:0,0:0:0:0:
171,347,91103,2,0,L|193:285,1,56.9999982604981
86,157,91257,1,4,0:0:0:0:
86,157,91564,6,0,L|167:157,1,66.4999979705811,4|0,0:0|0:0,0:0:0:0:
262,151,91872,1,2,0:0:0:0:
262,151,92026,1,0,0:0:0:0:
296,274,92180,5,0,0:0:0:0:
441,225,92334,2,0,L|372:221,1,66.4999979705811,2|0,0:0|0:0,0:0:0:0:
296,274,92641,1,2,0:0:0:0:
131,190,92795,2,0,L|142:261,1,56.9999982604981,4|0,0:0|0:0,0:0:0:0:
236,238,93026,5,0,0:0:0:0:
236,238,93103,1,2,0:0:0:0:
236,238,93180,2,0,L|225:309,1,56.9999982604981
134,330,93334,5,0,0:0:0:0:
134,330,93411,2,0,L|110:267,1,56.9999982604981
321,253,93564,2,0,L|300:306,1,56.9999982604981
236,238,93718,2,0,P|198:201|232:124,1,142.500005435944,8|0,0:0|0:0,0:0:0:0:
321,253,94026,6,0,L|281:362,1,113.999996520996,4|0,0:0|0:0,0:0:0:0:
321,253,94334,1,2,0:0:0:0:
512,266,94488,1,0,0:0:0:0:
414,356,94642,1,0,0:0:0:0:
419,250,94796,2,0,L|422:180,1,66.4999979705811,8|0,0:0|0:0,0:0:0:0:
241,152,95103,1,0,0:0:0:0:
321,253,95257,6,0,L|242:249,1,66.4999979705811,4|0,0:0|0:0,0:0:0:0:
128,299,95564,1,2,0:0:0:0:
59,166,95718,1,0,0:0:0:0:
10,266,95872,1,0,0:0:0:0:
169,212,96026,2,0,L|236:229,1,66.4999979705811,8|0,0:0|0:0,0:0:0:0:
128,299,96334,1,0,0:0:0:0:
322,294,96488,6,0,P|329:259|326:227,1,66.4999979705811,4|0,0:0|0:0,0:0:0:0:
252,142,96795,1,2,0:0:0:0:
315,69,96950,1,0,0:0:0:0:
386,140,97104,1,0,0:0:0:0:
317,215,97258,2,0,L|228:220,1,66.4999979705811,8|0,0:0|0:0,0:0:0:0:
386,140,97564,1,0,0:0:0:0:
421,317,97718,6,0,P|385:324|354:323,1,66.4999979705811,4|0,0:0|0:0,0:0:0:0:
396,233,98026,1,2,0:0:0:0:
269,262,98180,1,0,0:0:0:0:
277,88,98334,1,0,0:0:0:0:
386,140,98488,2,0,L|452:142,1,66.4999979705811,8|0,0:0|0:0,0:0:0:0:
174,47,98796,1,0,0:0:0:0:
158,185,98949,6,0,P|222:178|332:187,1,170.999994781494,2|0,0:0|0:0,0:0:0:0:
396,233,99257,2,0,P|413:200|419:171,1,66.4999979705811,2|0,0:0|0:0,0:0:0:0:
307,314,99564,6,0,P|243:321|133:312,1,170.999994781494,2|0,0:0|0:0,0:0:0:0:
69,266,99872,2,0,P|52:299|46:328,1,66.4999979705811,2|0,0:0|0:0,0:0:0:0:
160,229,100180,6,0,B|166:164|166:164|156:118|156:118|162:57,1,170.999994781494,2|0,0:0|0:0,0:0:0:0:
243,14,100488,2,0,L|237:85,1,66.4999979705811,2|0,0:0|0:0,0:0:0:0:
22,173,100795,6,0,B|69:174|69:174|131:144|131:144|193:142,1,170.999994781494,2|0,0:0|0:0,0:0:0:0:
245,210,101103,2,0,L|315:209,1,66.4999979705811,2|0,0:0|0:0,0:0:0:0:
143,298,101411,6,0,L|261:294,1,113.999996520996,8|0,0:0|0:0,0:0:0:0:
462,235,101718,6,0,P|412:207|358:235,1,118.75,2|0,0:0|0:0,0:0:0:0:
270,381,102026,6,0,L|296:260,1,118.75,8|0,0:0|0:0,0:0:0:0:
336,120,102334,6,0,B|311:79|311:79|309:-8,1,123.499994346619,2|0,0:0|0:0,0:0:0:0:
379,220,102641,5,8,0:0:0:0:
129,211,102795,1,0,0:0:0:0:
336,120,102949,1,2,0:0:0:0:
183,318,103103,1,0,0:0:0:0:
209,104,103257,1,8,0:0:0:0:
323,323,103411,1,0,0:0:0:0:
189,220,103564,6,0,B|196:236|196:236|205:230|205:230|226:248|272:250|298:219|298:219|348:218|377:251,1,213.750008153916,4|0,0:0|0:0,0:0:0:0:
411,169,103872,5,8,0:0:0:0:
420,144,103949,1,0,0:0:0:0:
430,120,104026,1,0,0:0:0:0:
304,266,104180,2,0,P|355:260|408:249,1,104.500003189087,0|2,0:0|0:0,0:0:0:0:
385,359,104488,1,0,0:0:0:0:
151,328,104641,5,2,0:0:0:0:
154,304,104718,1,0,0:0:0:0:
157,277,104795,2,0,L|151:225,1,52.2500015945435
279,135,104949,2,0,L|217:142,1,52.2500015945435
244,251,105103,6,0,L|262:376,1,104.500003189087,8|0,0:0|0:0,0:0:0:0:
424,329,105411,2,0,B|394:344|394:344|378:308|350:288,1,104.500003189087,0|2,0:0|0:0,0:0:0:0:
286,141,105718,6,0,L|338:165,1,52.2500015945435
481,55,105872,2,0,L|429:31,1,52.2500015945435
251,41,106026,2,0,B|292:41|292:41|349:72,1,104.500003189087,8|0,0:0|0:0,0:0:0:0:
470,240,106334,6,0,B|433:279|433:279|422:333,1,104.500003189087,8|0,0:0|0:0,0:0:0:0:
349,209,106641,1,0,0:0:0:0:
338,185,106718,1,0,0:0:0:0:
335,159,106795,1,2,0:0:0:0:
340,133,106872,1,0,0:0:0:0:
355,111,106949,2,0,L|410:101,1,52.2500015945435
262,166,107103,5,2,0:0:0:0:
438,167,107257,1,0,0:0:0:0:
248,69,107411,1,0,0:0:0:0:
170,256,107564,5,8,0:0:0:0:
355,111,107718,1,0,0:0:0:0:
271,264,107872,5,0,0:0:0:0:
148,161,108026,1,2,0:0:0:0:
148,161,108103,1,0,0:0:0:0:
148,161,108180,2,0,L|89:169,1,52.2500015945435
262,166,108334,1,4,0:0:0:0:
214,330,108488,2,0,P|192:290|195:232,1,104.500003189087,8|0,0:0|0:0,0:0:0:0:
325,324,108795,5,8,0:0:0:0:
347,348,108872,1,0,0:0:0:0:
368,369,108949,1,0,0:0:0:0:
349,209,109103,2,0,P|377:164|374:113,1,104.500003189087,0|2,0:0|0:0,0:0:0:0:
311,29,109411,1,0,0:0:0:0:
214,330,109564,5,2,0:0:0:0:
214,330,109641,1,0,0:0:0:0:
214,330,109718,2,0,L|223:276,1,52.2500015945435
325,324,109872,2,0,P|325:350|318:379,1,52.2500015945435,0|0,2:0|2:0,2:0:0:0:
141,366,110026,2,0,B|99:351|99:351|33:354,1,104.500003189087,8|0,0:0|0:0,0:0:0:0:
7,257,110334,5,0,0:0:0:0:
129,232,110488,1,2,0:0:0:0:
83,313,110641,5,0,0:0:0:0:
304,204,110795,1,4,0:0:0:0:
205,261,110949,2,0,B|211:303|232:327|233:364,1,104.500003189087,8|0,0:0|0:0,0:0:0:0:
91,53,111257,5,8,0:0:0:0:
78,76,111334,1,0,0:0:0:0:
73,101,111411,1,0,0:0:0:0:
81,125,111488,1,0,0:0:0:0:
100,142,111565,2,0,L|155:152,1,52.2500015945435
365,102,111718,2,0,L|310:92,1,52.2500015945435,2|0,0:0|0:0,0:0:0:0:
237,37,111872,2,0,L|223:157,1,104.500003189087,0|2,0:0|0:0,0:0:0:0:
361,180,112180,2,0,P|421:146|506:161,1,156.750004783631
512,89,112488,5,8,0:0:0:0:
482,64,112564,1,0,0:0:0:0:
446,72,112641,2,0,P|436:107|435:140,1,66.4999979705811
344,201,112795,2,0,L|489:204,1,132.999995941162,0|2,0:0|0:0,0:0:0:0:
244,193,113103,6,0,P|208:186|169:194,1,66.4999979705811
365,102,113257,1,4,0:0:0:0:
328,225,113411,2,0,B|378:224|378:224|407:255|455:258,1,132.999995941162,8|0,0:0|0:0,0:0:0:0:
263,359,113718,5,8,0:0:0:0:
263,359,113795,1,0,0:0:0:0:
263,359,113872,1,0,0:0:0:0:
263,359,113949,1,0,0:0:0:0:
263,359,114026,6,0,L|208:360,1,52.2500015945435,2|0,0:0|0:0,0:0:0:0:
40,354,114180,2,0,L|95:355,1,52.2500015945435
197,148,114334,6,0,L|157:109,1,52.2500015945435,2|0,0:0|0:0,0:0:0:0:
95,230,114488,2,0,L|133:269,1,52.2500015945435
188,126,114641,2,0,L|148:87,1,52.2500015945435,4|0,0:0|0:0,0:0:0:0:
86,208,114795,2,0,L|124:247,1,52.2500015945435
364,252,114949,6,0,B|345:206|345:206|377:140,1,104.500003189087,8|0,0:0|0:0,0:0:0:0:
178,98,115257,1,0,0:0:0:0:
77,182,115411,1,0,0:0:0:0:
256,297,115564,5,2,0:0:0:0:
125,294,115718,1,4,0:0:0:0:
279,174,115872,2,0,L|343:177,1,52.2500015945435,8|0,0:0|0:0,0:0:0:0:
409,107,116026,2,0,L|473:110,1,52.2500015945435
482,194,116180,1,8,0:0:0:0:
321,350,116334,5,0,0:0:0:0:
279,174,116488,1,2,0:0:0:0:
411,280,116641,1,0,0:0:0:0:
411,280,116718,1,0,0:0:0:0:
411,280,116795,1,2,0:0:0:0:
279,174,116949,1,0,0:0:0:0:
217,344,117103,2,0,L|322:351,1,104.500003189087,4|0,0:0|0:0,0:0:0:0:
119,355,117411,5,8,0:0:0:0:
212,107,117564,1,0,0:0:0:0:
218,92,117641,1,0,0:0:0:0:
224,77,117718,1,2,0:0:0:0:
153,201,117872,1,0,0:0:0:0:
264,283,118026,5,2,0:0:0:0:
153,201,118180,1,4,0:0:0:0:
406,187,118334,2,0,P|338:195|279:173,1,132.999995941162,8|0,2:0|0:0,0:0:0:0:
142,87,118641,5,8,0:0:0:0:
177,245,118795,1,0,0:0:0:0:
264,283,118949,1,2,0:0:0:0:
174,337,119103,1,0,0:0:0:0:
33,211,119257,5,0,0:0:0:0:
177,245,119411,1,2,0:0:0:0:
141,155,119565,1,0,0:0:0:0:
318,89,119719,1,4,0:0:0:0:
237,149,119872,5,8,0:0:0:0:
490,139,120026,1,0,0:0:0:0:
374,240,120180,1,2,0:0:0:0:
424,65,120334,1,0,0:0:0:0:
313,174,120488,1,0,0:0:0:0:
475,232,120642,1,4,0:0:0:0:
403,152,120795,2,0,L|402:90,3,52.2500015945435,8|0|0|0,0:0|0:0|0:0|0:0,0:0:0:0:
404,179,121103,5,8,0:0:0:0:
400,199,121180,1,0,0:0:0:0:
382,218,121257,1,0,0:0:0:0:
358,230,121334,1,0,0:0:0:0:
332,235,121411,1,0,0:0:0:0:
305,237,121488,1,0,0:0:0:0:
279,234,121564,1,0,0:0:0:0:
253,229,121641,1,0,0:0:0:0:
232,212,121718,5,8,0:0:0:0:
197,224,121795,1,0,0:0:0:0:
180,256,121872,1,0,0:0:0:0:
173,292,121949,1,0,0:0:0:0:
176,328,122026,1,0,0:0:0:0:
194,359,122103,1,0,0:0:0:0:
234,382,122180,1,0,0:0:0:0:
259,384,122257,1,0,0:0:0:0:
284,378,122334,6,0,L|297:343,6,26.1250007972718,8|0|0|0|0|0|0,0:0|0:0|0:0|0:0|0:0|0:0|0:0,0:0:0:0:
370,349,122641,6,0,L|383:314,6,26.1250007972718,8|0|0|0|0|0|0,0:0|0:0|0:0|0:0|0:0|0:0|0:0,0:0:0:0:
295,290,122949,6,0,L|308:255,6,26.1250007972718,8|0|0|0|0|0|0,0:0|0:0|0:0|0:0|0:0|0:0|0:0,0:0:0:0:
386,255,123257,5,0,0:0:0:0:
146,245,123411,1,2,0:0:0:0:
273,123,123564,2,0,B|287:133|289:151|277:163|260:161|260:161|290:199|275:250,1,152,12|0,0:0|0:0,0:0:0:0:
