osu file format v12

[General]
AudioFilename: jerk it out.mp3
AudioLeadIn: 0
PreviewTime: -1
Countdown: 1
SampleSet: Normal
StackLeniency: 0.6
Mode: 0
LetterboxInBreaks: 1
WidescreenStoryboard: 1

[Editor]
Bookmarks: 118116
DistanceSpacing: 2
BeatDivisor: 4
GridSize: 8
TimelineZoom: 1

[Metadata]
Title:Jerk It Out
TitleUnicode:Jerk It Out
Artist:Caesars
ArtistUnicode:Caesars
Creator:css2060
Version:Soso
Source:
Tags:
BeatmapID:370039
BeatmapSetID:149808

[Difficulty]
HPDrainRate:4
CircleSize:5
OverallDifficulty:4
ApproachRate:4
SliderMultiplier:1.5
SliderTickRate:2

[Events]
//Background and Video events
0,0,"th.jpg",0,0
//Break Periods
2,96627,116796
//Storyboard Layer 0 (Background)
//Storyboard Layer 1 (Fail)
//Storyboard Layer 2 (Pass)
//Storyboard Layer 3 (Foreground)
//Storyboard Sound Samples
//Background Colour Transformations
3,100,0,0,0

[TimingPoints]
325,447.761194029851,4,1,0,100,1,0

[Colours]
Combo1 : 170,155,240
Combo2 : 124,233,192
Combo3 : 192,225,132

[HitObjects]
8,96,10925,5,0,0:0:0:0:
48,56,11178,1,0,0:0:0:0:
88,96,11431,1,0,0:0:0:0:
88,96,11852,1,0,0:0:0:0:
48,136,12105,1,0,0:0:0:0:
8,96,12358,1,0,0:0:0:0:
192,64,12779,1,0,0:0:0:0:
248,64,13004,2,0,L|336:64,2,87.5
192,128,13706,1,0,0:0:0:0:
192,184,14043,1,0,0:0:0:0:
192,240,14296,1,0,0:0:0:0:
256,192,14549,12,0,17920,0:0:0:0:
16,56,18173,5,0,0:0:0:0:
80,56,18341,1,0,0:0:0:0:
144,56,18594,2,0,L|256:56,1,112.5
320,128,19437,2,0,L|400:168|400:168,2,75
208,144,20111,2,0,L|112:192,2,75
232,304,20869,1,0,0:0:0:0:
304,304,21122,1,0,0:0:0:0:
376,272,21459,1,0,0:0:0:0:
408,176,21712,5,4,0:0:0:0:
368,112,22133,2,0,B|336:64|336:64|280:40|280:40|208:56|208:56,1,187.5
176,160,23060,1,0,0:0:0:0:
96,176,23482,1,0,0:0:0:0:
24,152,23903,2,0,B|0:120|0:120|48:88|48:88|32:64|32:64|104:48|104:48,1,187.5
224,32,24830,1,0,0:0:0:0:
320,32,25083,5,0,0:0:0:0:
368,56,25336,1,0,0:0:0:0:
320,88,25504,1,0,0:0:0:0:
368,112,25757,1,0,0:0:0:0:
368,176,26178,5,0,0:0:0:0:
320,200,26347,1,0,0:0:0:0:
368,232,26600,1,0,0:0:0:0:
320,248,26852,1,0,0:0:0:0:
320,248,27021,2,0,B|224:304|224:192|88:272,1,225
0,184,28706,5,0,0:0:0:0:
40,128,28959,1,0,0:0:0:0:
104,88,29212,1,0,0:0:0:0:
176,72,29381,1,0,0:0:0:0:
160,128,29718,1,0,0:0:0:0:
136,176,30223,1,0,0:0:0:0:
200,184,30392,1,0,0:0:0:0:
264,192,30645,1,0,0:0:0:0:
264,192,31066,2,0,B|296:232|296:232|368:240|368:240,1,112.5
424,288,32077,5,0,0:0:0:0:
456,240,32330,1,0,0:0:0:0:
424,192,32498,1,0,0:0:0:0:
456,144,32751,1,0,0:0:0:0:
424,96,33004,1,0,0:0:0:0:
344,80,33425,1,0,0:0:0:0:
232,104,33594,1,0,0:0:0:0:
288,80,33847,1,0,0:0:0:0:
192,208,34268,1,0,0:0:0:0:
208,152,34690,1,0,0:0:0:0:
112,272,35111,1,0,0:0:0:0:
168,256,35364,1,0,0:0:0:0:
24,144,35701,5,0,0:0:0:0:
24,88,35869,1,0,0:0:0:0:
72,56,36122,1,0,0:0:0:0:
104,80,36459,2,0,B|104:128|104:128|160:72|160:72|160:136|160:136|216:136|240:64|288:168|320:80|336:48|368:120,1,412.5
412,154,37892,1,0,0:0:0:0:
334,242,38313,1,0,0:0:0:0:
383,201,38566,1,0,0:0:0:0:
128,168,39409,5,0,0:0:0:0:
216,56,39661,1,0,0:0:0:0:
368,64,40083,1,0,0:0:0:0:
264,176,40504,1,0,0:0:0:0:
195,172,40925,1,0,0:0:0:0:
152,232,41094,1,0,0:0:0:0:
200,320,41347,5,0,0:0:0:0:
288,296,41515,1,0,0:0:0:0:
352,256,41768,1,0,0:0:0:0:
416,208,42021,1,0,0:0:0:0:
328,128,42948,5,0,0:0:0:0:
241,115,43201,1,0,0:0:0:0:
179,172,43622,1,0,0:0:0:0:
120,111,44549,1,0,0:0:0:0:
45,52,44718,1,0,0:0:0:0:
0,110,44970,1,0,0:0:0:0:
18,191,45392,1,0,0:0:0:0:
96,248,45645,2,0,B|128:280|201:181|224:216,1,112.5
321,244,46234,2,0,P|375:239|329:164,1,150
336,80,47161,1,0,0:0:0:0:
416,104,47667,1,0,0:0:0:0:
408,176,48088,1,0,0:0:0:0:
352,224,48510,1,0,0:0:0:0:
0,39,49015,5,4,0:0:0:0:
512,34,49268,1,4,0:0:0:0:
0,352,49437,1,4,0:0:0:0:
512,354,49690,1,4,0:0:0:0:
256,189,49942,1,4,0:0:0:0:
54,105,50364,5,4,0:0:0:0:
135,172,50785,1,0,0:0:0:0:
204,246,51206,1,0,0:0:0:0:
263,169,51459,1,0,0:0:0:0:
326,101,51712,1,0,0:0:0:0:
121,132,52133,5,0,0:0:0:0:
161,75,52555,1,0,0:0:0:0:
214,30,53060,1,0,0:0:0:0:
262,79,53229,1,0,0:0:0:0:
306,136,53566,1,0,0:0:0:0:
265,302,53903,1,0,0:0:0:0:
336,152,54409,1,0,0:0:0:0:
400,152,54830,1,0,0:0:0:0:
408,232,55251,1,0,0:0:0:0:
261,97,57527,6,0,B|167:80|172:81,2,87.5
236,153,58369,2,0,B|142:136|123:131,2,112.5
256,64,59381,1,0,0:0:0:0:
256,64,59549,1,0,0:0:0:0:
319,66,59718,1,0,0:0:0:0:
319,66,59970,1,0,0:0:0:0:
426,90,60223,1,0,0:0:0:0:
359,257,60897,1,0,0:0:0:0:
156,47,61150,5,0,0:0:0:0:
112,91,61656,1,0,0:0:0:0:
158,131,61824,1,0,0:0:0:0:
110,169,61993,1,0,0:0:0:0:
155,210,62246,1,0,0:0:0:0:
109,248,62498,1,0,0:0:0:0:
222,165,62920,5,0,0:0:0:0:
291,29,63341,5,0,0:0:0:0:
334,69,63510,1,0,0:0:0:0:
290,111,63763,1,0,0:0:0:0:
334,154,64015,1,0,0:0:0:0:
292,199,64268,1,0,0:0:0:0:
454,55,64605,6,0,B|536:92|536:92|536:229,1,225
512,276,65532,1,0,0:0:0:0:
471,232,65785,1,0,0:0:0:0:
432,279,65954,1,0,0:0:0:0:
393,233,66206,1,0,0:0:0:0:
359,283,66459,1,0,0:0:0:0:
328,232,66712,1,0,0:0:0:0:
272,192,66965,6,0,B|328:152|328:152|328:104|328:104|280:104|280:104|256:120,1,187.5
200,168,67723,1,0,0:0:0:0:
192,248,68060,1,0,0:0:0:0:
256,192,68397,8,0,71263,0:0:0:0:
256,192,71684,5,0,0:0:0:0:
256,264,71852,1,0,0:0:0:0:
256,328,72274,1,0,0:0:0:0:
328,328,72695,2,0,B|328:296|384:304|352:256,1,75
336,208,73116,1,0,0:0:0:0:
368,144,73369,1,0,0:0:0:0:
432,112,73622,1,0,0:0:0:0:
496,80,73959,1,0,0:0:0:0:
368,144,74381,1,0,0:0:0:0:
368,224,75392,5,0,0:0:0:0:
272,256,75813,1,0,0:0:0:0:
200,176,76234,1,0,0:0:0:0:
168,88,77077,1,0,0:0:0:0:
232,40,77667,1,0,0:0:0:0:
280,40,77920,1,0,0:0:0:0:
296,152,78931,5,0,0:0:0:0:
336,200,79100,1,0,0:0:0:0:
304,224,79268,1,0,0:0:0:0:
264,232,79437,1,0,0:0:0:0:
256,192,79605,12,0,81965,0:0:0:0:
96,88,82218,6,0,B|48:120|48:120|96:160|96:160,1,112.5
200,104,83060,1,0,0:0:0:0:
248,136,83482,1,0,0:0:0:0:
288,104,83903,1,0,0:0:0:0:
328,136,84324,1,0,0:0:0:0:
368,96,84830,1,0,0:0:0:0:
408,136,85336,1,0,0:0:0:0:
368,176,85757,1,0,0:0:0:0:
360,240,86178,6,0,P|312:304|192:272,1,187.5
264,264,87021,1,0,0:0:0:0:
264,264,87527,2,0,P|264:304|224:304,1,75
240,312,87948,2,0,P|208:280|128:272,1,112.5
142,266,88454,1,0,0:0:0:0:
104,216,88706,1,0,0:0:0:0:
0,96,89549,5,0,0:0:0:0:
0,96,89802,2,0,B|16:168|104:144|112:56|32:48,1,196.875
40,48,90645,1,0,0:0:0:0:
144,48,91066,2,0,B|216:80|216:80|128:160|128:160,1,187.5
96,208,91909,1,0,0:0:0:0:
136,272,92161,2,0,B|264:272|264:248|176:192|224:112|256:192|176:248|176:272|312:272,1,318.75
280,184,93341,1,0,0:0:0:0:
256,192,93510,12,0,95027,0:0:0:0:
200,192,95532,6,0,L|296:192,4,75
272,280,118116,6,0,L|360:240,1,75
432,208,118538,1,0,0:0:0:0:
376,120,118959,1,0,0:0:0:0:
256,176,119802,2,0,B|304:104|352:176|312:240|256:224|288:256|256:312|224:256|256:224|200:240|152:168|208:104|256:176,1,356.25
112,96,121824,2,0,B|56:96|24:152|96:200|176:120|144:48|88:56|48:88|72:144|48:112|96:144|96:120,1,225
248,96,122920,1,0,0:0:0:0:
368,96,123425,1,0,0:0:0:0:
472,168,123847,1,0,0:0:0:0:
376,272,124268,1,0,0:0:0:0:
304,272,124521,1,0,0:0:0:0:
48,64,125364,5,0,0:0:0:0:
48,144,125701,2,0,L|48:296,1,150
176,272,126543,2,0,B|176:240|176:240|224:200,3,75
208,216,127386,2,0,B|248:192|248:192|248:144|248:144,3,93.75
208,216,129240,1,4,0:0:0:0:
144,128,131431,2,0,L|248:128,4,75
