osu file format v14

[General]
AudioFilename: Yozora wa Nandemo Shitteru no.mp3
AudioLeadIn: 0
PreviewTime: 75916
Countdown: 0
SampleSet: Soft
StackLeniency: 0.6
Mode: 0
LetterboxInBreaks: 0
WidescreenStoryboard: 0

[Editor]
Bookmarks: 387,6034,17328,39916,62504,76622,99210,121798,133092,158504,181092,203681,209328,231916,254504,265798
DistanceSpacing: 1
BeatDivisor: 12
GridSize: 4
TimelineZoom: 1.1

[Metadata]
Title:Yozora wa Nandemo Shitteru no?
TitleUnicode:夜空はなんでも知ってるの?
Artist:CYaRon!
ArtistUnicode:シャロン
Creator:Chamue
Version:Does The Night Sky Know Everything?
Source:ラブライブ!サンシャイン!!
Tags:School Idol Project Aqours Sub-unit Takami Chika CV Inami Anju Watanabe You Saitou Shuka Kurosawa Ruby Furihata Ai Hata Aki Kon-K Love Live! Sunshine!! アクア 高海千歌 伊波杏樹 渡辺曜 斉藤朱夏 黒澤ルビィ 降幡愛 畑亜貴
BeatmapID:1004282
BeatmapSetID:469631

[Difficulty]
HPDrainRate:6
CircleSize:4
OverallDifficulty:8
ApproachRate:9
SliderMultiplier:3
SliderTickRate:1

[Events]
//Background and Video events
0,0,"BG.png",0,0
//Break Periods
//Storyboard Layer 0 (Background)
//Storyboard Layer 1 (Fail)
//Storyboard Layer 2 (Pass)
//Storyboard Layer 3 (Foreground)
//Storyboard Sound Samples

[TimingPoints]
387,705.882352941176,4,2,1,40,1,0
6034,-100,4,2,3,50,0,0
6386,-100,4,2,1,40,0,0
16622,-100,4,2,3,50,0,0
16798,-100,4,2,2,50,0,0
27916,-100,4,2,3,50,0,0
28092,-100,4,2,2,50,0,0
39916,-100,4,2,3,50,0,0
40269,-100,4,2,1,40,0,0
60269,-166.666666666667,4,2,1,40,0,0
61681,-100,4,2,2,50,0,0
61798,-100,4,2,3,50,0,0
62151,-100,4,2,2,50,0,0
62504,-83.3333333333333,4,2,2,40,0,0
73798,-100,4,2,3,35,0,0
75916,-100,4,2,3,50,0,0
76622,-83.3333333333333,4,2,2,50,0,1
99210,-83.3333333333333,4,2,2,50,0,0
121798,-100,4,2,4,50,0,0
122151,-100,4,2,2,40,0,0
126739,-100,4,2,3,40,0,0
126916,-100,4,2,2,40,0,0
130269,-100,4,2,2,30,0,0
130975,-100,4,2,2,35,0,0
131681,-100,4,2,2,40,0,0
132034,-100,4,2,2,40,0,0
132386,-100,4,2,3,50,0,0
132563,-100,4,2,2,50,0,0
133092,-83.3333333333333,4,2,2,40,0,0
155681,-100,4,2,2,40,0,0
156386,-100,4,2,2,45,0,0
157092,-100,4,2,2,50,0,0
157798,-83.3333333333333,4,2,3,50,0,0
157975,-83.3333333333333,4,2,2,50,0,0
158504,-83.3333333333333,4,2,2,50,0,1
181092,-83.3333333333333,4,2,1,50,0,0
210034,-100,4,2,1,50,0,1
231916,-100,4,2,1,50,0,0

[Colours]
Combo1 : 222,33,55
Combo2 : 240,129,2
Combo3 : 17,157,217
Combo4 : 235,80,142
SliderBorder : 222,33,55

[HitObjects]
128,192,5328,6,0,P|174:207|221:193,1,100
270,116,5681,2,0,P|224:100|177:115,1,100
70,269,6034,6,0,B|50:193|50:193|69:124,1,150,2|0,0:0|0:0,0:0:0:0:
270,116,6739,2,0,B|290:192|290:192|271:261,1,150,8|0,0:0|0:0,0:0:0:0:
192,70,7445,2,0,P|244:21|315:37,1,150,0|2,0:0|0:0,0:0:0:0:
217,160,8151,2,0,P|168:163|126:136,1,100,8|0,0:0|0:0,0:0:0:0:
192,70,8504,2,0,P|240:66|282:93,1,100,2|0,0:0|0:0,0:0:0:0:
255,304,8857,6,0,L|213:149,1,150,2|0,0:0|0:0,0:0:0:0:
281,95,9563,2,0,L|320:240,1,150,8|0,0:0|0:0,0:0:0:0:
255,304,10269,2,0,P|169:314|100:262,1,150,0|2,0:0|0:0,0:0:0:0:
320,240,10975,2,0,P|346:280|343:329,1,100,8|0,0:0|0:0,0:0:0:0:
256,304,11328,2,0,P|229:263|232:214,1,100,2|0,0:0|0:0,0:0:0:0:
320,240,11681,5,2,0:0:0:0:
116,283,12034,1,0,0:0:0:0:
116,283,12386,2,0,L|141:186,1,100,8|0,0:0|0:0,0:0:0:0:
294,143,12739,2,0,L|319:239,1,100
256,304,13092,1,0,0:0:0:0:
205,127,13445,1,2,0:0:0:0:
205,127,13798,2,0,P|158:142|111:126,1,100,8|0,0:0|0:0,0:0:0:0:
261,55,14151,2,0,P|292:93|294:143,1,100,2|0,0:0|0:0,0:0:0:0:
232,213,14504,5,2,0:0:0:0:
158,49,14857,1,0,0:0:0:0:
158,49,15092,1,0,0:0:0:0:
70,206,15563,1,0,0:0:0:0:
205,127,15739,1,0,0:0:0:0:
377,211,15916,2,0,B|301:231|301:231|232:212,2,150,0|0|12,0:0|0:0|0:0,0:0:0:0:
205,127,16798,1,8,0:0:0:0:
205,127,17328,6,0,P|146:167|147:240,2,150,6|0|8,0:0|0:0|0:0,0:0:0:0:
410,302,18386,1,0,0:0:0:0:
396,121,18563,1,8,0:0:0:0:
396,121,18739,2,0,P|362:157|314:167,1,100,2|0,0:0|0:0,0:0:0:0:
205,126,19092,2,0,P|238:90|286:80,1,100,2|0,0:0|0:0,0:0:0:0:
236,212,19445,1,8,0:0:0:0:
52,164,19681,1,0,0:0:0:0:
52,164,19798,2,0,L|147:188,1,75,2|8,0:0|0:0,0:0:0:0:
236,212,20151,6,0,B|252:260|252:260|236:308,1,100,2|0,0:0|0:0,0:0:0:0:
148,188,20504,2,0,B|132:140|132:140|147:93,1,100
236,212,20857,1,8,0:0:0:0:
421,167,21092,1,0,0:0:0:0:
421,167,21210,2,0,L|348:187,1,75,2|8,0:0|0:0,0:0:0:0:
236,212,21563,2,0,L|216:139,1,75,2|8,0:0|0:0,0:0:0:0:
297,278,21916,1,2,0:0:0:0:
296,278,22269,2,0,P|343:263|390:279,1,100,8|0,0:0|0:0,0:0:0:0:
208,253,22622,2,0,P|231:209|274:188,1,75,2|2,0:0|0:0,0:0:0:0:
321,110,22975,6,0,P|370:162|354:233,1,150,6|0,0:0|0:0,0:0:0:0:
112,229,23563,1,0,0:0:0:0:
112,229,23681,2,0,L|209:254,1,100,8|0,0:0|0:0,0:0:0:0:
179,163,24034,2,0,L|274:188,1,75,2|8,0:0|0:0,0:0:0:0:
119,36,24386,2,0,P|92:77|96:127,1,100,2|0,0:0|0:0,0:0:0:0:
21,203,24739,2,0,P|62:231|112:229,1,100,2|0,0:0|0:0,0:0:0:0:
178,163,25092,2,0,L|275:188,1,100,8|0,0:0|0:0,0:0:0:0:
360,210,25445,2,0,L|385:115,1,75,2|8,0:0|0:0,0:0:0:0:
407,289,25798,6,0,B|359:305|359:305|311:289,1,100,2|0,0:0|0:0,0:0:0:0:
362,211,26151,2,0,B|410:195|410:195|458:211,1,100
407,289,26504,1,8,0:0:0:0:
385,120,26739,1,0,0:0:0:0:
385,120,26857,2,0,P|358:160|361:209,1,75,2|8,0:0|0:0,0:0:0:0:
313,287,27210,6,0,P|360:303|407:289,1,100,2|0,0:0|0:0,0:0:0:0:
456,210,27563,1,2,0:0:0:0:
404,47,27739,1,8,0:0:0:0:
404,47,27828,1,8,0:0:0:0:
404,47,27916,2,0,L|384:120,1,75,12|8,0:0|0:0,0:0:0:0:
218,91,28269,1,2,0:0:0:0:
277,86,28357,1,0,0:0:0:0:
326,119,28445,1,0,0:0:0:0:
384,119,28534,1,0,0:0:0:0:
245,214,28622,6,0,P|198:160|218:89,2,150,6|0|12,0:0|0:0|0:0,0:0:0:0:
487,91,29681,1,0,0:0:0:0:
313,45,29857,1,8,0:0:0:0:
313,45,30034,2,0,P|360:30|407:46,1,100,2|0,0:0|0:0,0:0:0:0:
357,213,30386,2,0,P|341:166|357:120,1,100,2|0,0:0|0:0,0:0:0:0:
406,45,30739,1,8,0:0:0:0:
454,188,30975,1,0,0:0:0:0:
454,188,31092,2,0,L|358:212,1,75,2|2,0:0|0:0,0:0:0:0:
187,189,31445,6,0,B|220:226|220:226|270:237,1,100,2|0,0:0|0:0,0:0:0:0:
171,101,31798,2,0,B|126:123|126:123|104:168,1,100
125,256,32151,1,8,0:0:0:0:
243,120,32386,1,0,0:0:0:0:
243,120,32504,2,0,L|170:100,1,75,2|8,0:0|0:0,0:0:0:0:
31,188,32857,2,0,L|104:168,1,75,2|8,0:0|0:0,0:0:0:0:
170,100,33210,1,2,0:0:0:0:
170,100,33563,2,0,P|197:141|194:190,1,100,8|0,0:0|0:0,0:0:0:0:
126,255,33916,2,0,L|222:279,1,75,2|2,0:0|0:0,0:0:0:0:
363,240,34269,6,0,B|289:276|289:276|221:280,1,150,6|0,0:0|0:0,0:0:0:0:
405,159,34857,1,0,0:0:0:0:
405,158,34975,2,0,P|441:191|452:239,1,100,8|0,0:0|0:0,0:0:0:0:
314,160,35328,2,0,P|324:112|361:81,1,75,2|8,0:0|0:0,0:0:0:0:
405,158,35681,2,0,P|394:206|357:238,1,100,2|0,0:0|0:0,0:0:0:0:
268,237,36033,1,2,0:0:0:0:
83,191,36210,1,0,0:0:0:0:
83,191,36386,2,0,L|180:216,1,100,8|0,0:0|0:0,0:0:0:0:
199,302,36739,2,0,L|104:277,1,75,2|2,0:0|0:0,0:0:0:0:
83,191,37092,6,0,P|92:142|129:109,1,100,2|0,0:0|0:0,0:0:0:0:
102,279,37445,2,0,P|52:278|13:249,1,100
6,159,37798,1,8,0:0:0:0:
224,109,38034,1,0,0:0:0:0:
224,110,38151,2,0,B|178:94|178:94|130:110,1,75,2|8,0:0|0:0,0:0:0:0:
178,185,38504,6,0,B|224:200|224:200|272:184,1,100,2|0,0:0|0:0,0:0:0:0:
312,103,38857,1,2,0:0:0:0:
292,256,39034,1,8,0:0:0:0:
292,256,39123,1,8,0:0:0:0:
292,256,39210,2,0,L|272:183,1,75,8|8,0:0|0:0,0:0:0:0:
269,349,39563,2,0,P|318:351|359:323,1,100,2|0,0:0|0:0,0:0:0:0:
178,185,39916,5,2,0:0:0:0:
396,25,40269,1,0,0:0:0:0:
129,67,40622,2,0,P|121:138|178:184,1,150,8|0,0:0|0:0,0:0:0:0:
293,135,41328,2,0,P|222:128|176:184,1,150,0|2,0:0|0:0,0:0:0:0:
141,267,42034,2,0,P|212:274|258:217,1,150,8|2,0:0|0:0,0:0:0:0:
215,39,42739,6,0,L|175:185,1,150,2|0,0:0|0:0,0:0:0:0:
436,171,43445,2,0,B|374:140|374:140|293:135,1,150,8|0,0:0|0:0,0:0:0:0:
33,148,44151,2,0,B|94:178|94:178|175:183,1,150,0|2,0:0|0:0,0:0:0:0:
293,135,44857,1,8,0:0:0:0:
258,218,45210,1,2,0:0:0:0:
405,193,45563,6,0,P|365:134|292:135,1,150,2|0,0:0|0:0,0:0:0:0:
145,159,46269,2,0,P|185:218|257:217,1,150,8|0,0:0|0:0,0:0:0:0:
119,72,46975,2,0,P|60:112|61:185,1,150,0|2,0:0|0:0,0:0:0:0:
126,247,47681,1,8,0:0:0:0:
145,159,48034,1,2,0:0:0:0:
60,184,48386,6,0,P|26:247|61:311,1,150,2|0,0:0|0:0,0:0:0:0:
238,305,49092,2,0,P|198:246|125:247,1,150,8|0,0:0|0:0,0:0:0:0:
61,310,49798,1,0,0:0:0:0:
125,246,50034,2,0,L|112:197,1,50,0|2,0:0|0:0,0:0:0:0:
147,334,50504,1,8,0:0:0:0:
136,110,50857,2,0,P|86:107|45:135,1,100,2|0,0:0|0:0,0:0:0:0:
112,197,51210,6,0,L|258:236,1,150,2|0,0:0|0:0,0:0:0:0:
400,106,51916,2,0,L|256:145,1,150,8|0,0:0|0:0,0:0:0:0:
112,197,52622,1,0,0:0:0:0:
400,105,52975,2,0,B|436:178|436:178|441:247,2,150,2|8|2,0:0|0:0|0:0,0:0:0:0:
314,85,54034,6,0,P|349:22|421:17,1,150,2|0,0:0|0:0,0:0:0:0:
400,105,54739,2,0,P|365:168|293:173,1,150,8|0,0:0|0:0,0:0:0:0:
228,110,55445,1,0,0:0:0:0:
314,85,55798,1,2,0:0:0:0:
293,173,56151,1,8,0:0:0:0:
147,64,56504,2,0,P|179:27|228:17,1,100,2|0,0:0|0:0,0:0:0:0:
228,110,56857,6,0,L|83:148,1,150,2|0,0:0|0:0,0:0:0:0:
278,34,57563,2,0,P|324:87|304:158,2,150,8|0|0,0:0|0:0|0:0,0:0:0:0:
179,122,58504,2,0,L|228:110,1,50,0|2,0:0|0:0,0:0:0:0:
492,52,58975,1,8,0:0:0:0:
226,202,59328,2,0,P|189:170|178:122,1,100,2|0,0:0|0:0,0:0:0:0:
314,207,59681,6,0,P|290:274|219:292,1,150
314,207,60269,2,0,B|367:254|453:243|453:243|469:181|469:181|383:191|330:144,1,359.999989013672,0|2,0:0|0:0,0:0:0:0:
262,89,61798,1,12,0:0:0:0:
262,89,62034,1,8,0:0:0:0:
231,173,62151,1,2,0:0:0:0:
419,68,62504,6,0,L|450:183,1,119.999996337891,6|0,0:0|0:0,0:0:0:0:
390,274,62857,2,0,L|275:243,1,119.999996337891
52,257,63210,2,0,L|167:226,1,119.999996337891,8|0,0:0|0:0,0:0:0:0:
237,140,63563,2,0,P|275:183|273:241,1,89.9999972534181,0|8,0:0|0:0,0:0:0:0:
167,225,63916,1,2,0:0:0:0:
311,65,64269,1,2,0:0:0:0:
167,225,64504,2,0,L|224:240,1,59.9999981689454,0|8,0:0|0:0,0:0:0:0:
356,118,64857,1,0,0:0:0:0:
355,118,64975,2,0,P|364:176|331:223,1,89.9999972534181,2|2,0:0|0:0,0:0:0:0:
250,153,65328,6,0,L|135:122,1,119.999996337891,2|0,0:0|0:0,0:0:0:0:
167,225,65681,1,0,0:0:0:0:
311,65,65857,1,0,0:0:0:0:
311,65,66034,2,0,L|196:34,1,119.999996337891,8|0,0:0|0:0,0:0:0:0:
134,121,66386,2,0,P|125:178|158:225,1,89.9999972534181,0|8,0:0|0:0,0:0:0:0:
272,257,66739,2,0,P|282:199|249:152,1,89.9999972534181,2|8,0:0|0:0,0:0:0:0:
186,321,67092,1,2,0:0:0:0:
134,121,67328,2,0,L|76:136,1,59.9999981689454,0|8,0:0|0:0,0:0:0:0:
186,321,67681,1,0,0:0:0:0:
186,321,67798,2,0,P|238:344|292:323,1,89.9999972534181,2|2,0:0|0:0,0:0:0:0:
243,228,68151,5,6,0:0:0:0:
274,112,68328,1,0,0:0:0:0:
274,112,68504,2,0,L|243:227,1,119.999996337891
215,19,68857,2,0,P|268:-5|323:15,1,119.999996337891,8|0,0:0|0:0,0:0:0:0:
273,113,69210,2,0,P|220:137|166:116,1,89.9999972534181,2|8,0:0|0:0,0:0:0:0:
215,19,69563,2,0,L|225:137,1,119.999996337891,2|0,0:0|0:0,0:0:0:0:
242,227,69916,1,2,0:0:0:0:
323,15,70151,2,0,L|328:74,1,59.9999981689454,0|8,0:0|0:0,0:0:0:0:
328,74,70622,2,0,P|385:64|433:98,1,119.999996337891,0|2,0:0|0:0,0:0:0:0:
362,180,70975,6,0,L|188:226,1,179.999994506836,6|0,0:0|0:0,0:0:0:0:
31,268,71504,1,2,0:0:0:0:
69,110,71681,1,8,0:0:0:0:
69,110,72034,2,0,L|157:133,1,89.9999972534181,6|2,0:0|0:0,0:0:0:0:
257,100,72622,1,8,0:0:0:0:
257,100,72739,2,0,P|266:157|232:205,1,119.999996337891,2|8,0:0|0:0,0:0:0:0:
127,229,73092,1,8,0:0:0:0:
169,16,73269,1,8,0:0:0:0:
169,16,73445,2,0,L|257:39,1,89.9999972534181,2|0,0:0|0:0,0:0:0:0:
347,138,73798,6,0,P|348:210|289:251,1,150
335,20,74504,2,0,P|406:18|447:77,1,150
347,138,75034,1,0,0:0:0:0:
335,20,75210,2,0,P|406:18|447:77,1,150
447,77,75916,2,0,L|427:150,1,75,12|8,0:0|0:0,0:0:0:0:
376,260,76269,1,0,0:0:0:0:
201,297,76504,1,0,0:0:0:0:
201,297,76622,6,0,P|249:331|307:322,1,119.999996337891,6|0,0:0|0:0,0:0:0:0:
376,260,76975,2,0,P|328:226|271:235,1,119.999996337891
95,271,77328,2,0,P|143:305|201:296,1,119.999996337891,8|0,0:0|0:0,0:0:0:0:
270,233,77681,2,0,P|223:199|165:207,1,89.9999972534181,0|8,0:0|0:0,0:0:0:0:
306,322,78034,1,2,0:0:0:0:
464,175,78386,1,2,0:0:0:0:
299,34,78739,2,0,L|268:149,1,119.999996337891,8|0,0:0|0:0,0:0:0:0:
169,194,79092,2,0,P|122:162|64:169,1,89.9999972534181,2|2,0:0|0:0,0:0:0:0:
267,149,79445,6,0,P|314:115|373:123,1,119.999996337891,2|0,0:0|0:0,0:0:0:0:
375,343,79798,2,0,L|344:228,1,119.999996337891
298,34,80151,2,0,L|267:149,1,119.999996337891,8|0,0:0|0:0,0:0:0:0:
201,310,80504,2,0,L|170:195,1,89.9999972534181,0|8,0:0|0:0,0:0:0:0:
94,114,80857,2,0,P|142:81|200:88,1,89.9999972534181,2|8,0:0|0:0,0:0:0:0:
59,217,81210,1,2,0:0:0:0:
373,137,81563,1,8,0:0:0:0:
191,20,81798,1,0,0:0:0:0:
191,20,81916,2,0,P|185:78|221:124,1,89.9999972534181,2|2,0:0|0:0,0:0:0:0:
411,77,82269,6,0,L|296:46,1,119.999996337891,6|0,0:0|0:0,0:0:0:0:
105,155,82622,2,0,L|220:124,1,119.999996337891
78,50,82975,1,8,0:0:0:0:
295,45,83210,1,0,0:0:0:0:
294,45,83328,2,0,L|263:160,1,89.9999972534181,0|8,0:0|0:0,0:0:0:0:
237,266,83681,2,0,P|295:271|341:235,1,119.999996337891,2|0,0:0|0:0,0:0:0:0:
263,160,84034,2,0,P|204:154|158:190,1,119.999996337891,2|0,0:0|0:0,0:0:0:0:
139,296,84386,1,8,0:0:0:0:
127,75,84622,1,0,0:0:0:0:
127,75,84739,2,0,L|157:189,1,89.9999972534181,2|2,0:0|0:0,0:0:0:0:
263,159,85092,6,0,P|321:154|367:190,1,119.999996337891,2|0,0:0|0:0,0:0:0:0:
291,267,85445,1,2,0:0:0:0:
481,166,85681,1,0,0:0:0:0:
481,166,85798,2,0,P|486:224|450:270,1,119.999996337891,8|0,0:0|0:0,0:0:0:0:
359,329,86151,1,2,0:0:0:0:
265,167,86328,1,8,0:0:0:0:
265,167,86504,6,0,L|380:198,1,119.999996337891,2|0,0:0|0:0,0:0:0:0:
190,246,86857,1,0,0:0:0:0:
42,110,87034,1,8,0:0:0:0:
42,110,87122,1,8,0:0:0:0:
42,110,87210,2,0,P|27:152|36:196,1,89.9999972534181,8|8,0:0|0:0,0:0:0:0:
190,246,87563,1,2,0:0:0:0:
140,264,87651,1,0,0:0:0:0:
92,244,87739,1,0,0:0:0:0:
40,264,87828,1,0,0:0:0:0:
158,361,87916,6,0,L|189:246,1,119.999996337891,6|0,0:0|0:0,0:0:0:0:
150,144,88269,2,0,L|265:175,1,119.999996337891
398,251,88622,2,0,L|283:282,1,119.999996337891,8|0,0:0|0:0,0:0:0:0:
156,36,88975,2,0,L|270:67,1,89.9999972534181,0|8,0:0|0:0,0:0:0:0:
356,135,89328,1,2,0:0:0:0:
40,264,89681,1,2,0:0:0:0:
156,36,90034,2,0,P|189:84|180:142,1,119.999996337891,8|0,0:0|0:0,0:0:0:0:
78,111,90386,1,0,0:0:0:0:
292,80,90563,1,0,0:0:0:0:
292,80,90739,6,0,P|318:132|301:188,1,119.999996337891,2|0,0:0|0:0,0:0:0:0:
212,257,91092,2,0,L|181:142,1,119.999996337891,2|0,0:0|0:0,0:0:0:0:
413,125,91445,2,0,P|438:177|421:233,1,119.999996337891,8|0,0:0|0:0,0:0:0:0:
332,303,91798,2,0,L|301:189,1,89.9999972534181,0|8,0:0|0:0,0:0:0:0:
412,125,92151,2,0,P|437:177|420:232,1,89.9999972534181,2|8,0:0|0:0,0:0:0:0:
333,304,92504,1,0,0:0:0:0:
292,80,92681,1,0,0:0:0:0:
292,80,92857,2,0,P|243:113|185:104,1,119.999996337891,8|0,0:0|0:0,0:0:0:0:
79,129,93210,2,0,P|127:95|185:104,1,119.999996337891
110,244,93563,6,0,L|79:129,1,119.999996337891,6|0,0:0|0:0,0:0:0:0:
292,80,93916,2,0,L|261:195,1,119.999996337891,2|0,0:0|0:0,0:0:0:0:
204,288,94269,1,8,0:0:0:0:
364,226,94504,1,0,0:0:0:0:
364,226,94622,2,0,P|318:190|260:195,1,89.9999972534181,0|8,0:0|0:0,0:0:0:0:
88,256,94975,2,0,L|203:287,1,119.999996337891,2|0,0:0|0:0,0:0:0:0:
374,163,95328,2,0,L|259:193,1,89.9999972534181,2|0,0:0|0:0,0:0:0:0:
303,293,95681,1,8,0:0:0:0:
333,79,95857,1,0,0:0:0:0:
333,79,96034,2,0,L|219:109,1,89.9999972534181,2|0,0:0|0:0,0:0:0:0:
399,0,96386,6,0,P|435:45|430:104,1,119.999996337891,2|0,0:0|0:0,0:0:0:0:
361,187,96739,1,0,0:0:0:0:
173,225,96975,1,0,0:0:0:0:
256,155,97093,2,0,P|314:150|360:186,1,119.999996337891,8|0,0:0|0:0,0:0:0:0:
282,257,97445,1,0,0:0:0:0:
232,48,97622,1,8,0:0:0:0:
232,48,97798,6,0,P|177:68|153:121,1,89.9999972534181,2|8,0:0|0:0,0:0:0:0:
173,225,98151,1,2,0:0:0:0:
332,191,98328,1,8,0:0:0:0:
332,191,98416,1,8,0:0:0:0:
332,191,98504,2,0,L|246:214,1,89.9999972534181,8|2,0:0|0:0,0:0:0:0:
74,247,98857,1,2,0:0:0:0:
152,122,99034,1,0,0:0:0:0:
152,122,99122,1,0,0:0:0:0:
152,122,99210,6,0,P|234:190|217:268,1,179.999994506836,6|0,0:0|0:0,0:0:0:0:
16,300,99916,2,0,L|131:331,1,119.999996337891,8|0,0:0|0:0,0:0:0:0:
341,220,100269,2,0,L|227:251,1,89.9999972534181,0|8,0:0|0:0,0:0:0:0:
398,128,100622,2,0,P|460:215|423:286,1,179.999994506836,2|2,0:0|0:0,0:0:0:0:
436,274,101328,2,0,L|321:243,1,119.999996337891,8|0,0:0|0:0,0:0:0:0:
237,171,101681,2,0,P|203:217|211:275,1,89.9999972534181,2|8,0:0|0:0,0:0:0:0:
320,242,102034,6,0,L|273:68,2,179.999994506836,2|0|8,0:0|0:0|0:0,0:0:0:0:
320,242,103092,2,0,P|283:267|238:270,1,89.9999972534181,0|8,0:0|0:0,0:0:0:0:
6,183,103445,2,0,P|42:209|87:212,1,89.9999972534181,2|8,0:0|0:0,0:0:0:0:
237,171,103798,1,2,0:0:0:0:
237,171,104151,2,0,L|268:56,1,119.999996337891,8|0,0:0|0:0,0:0:0:0:
169,11,104504,2,0,L|138:126,1,89.9999972534181,0|2,0:0|0:0,0:0:0:0:
150,239,104857,6,0,B|230:271|230:271|326:239,2,179.999994506836,6|0|8,0:0|0:0|0:0,0:0:0:0:
150,238,105916,2,0,L|119:124,1,89.9999972534181,0|8,0:0|0:0,0:0:0:0:
296,200,106269,2,0,P|208:262|137:225,1,179.999994506836,2|2,0:0|0:0,0:0:0:0:
226,32,106975,2,0,P|193:81|202:139,1,119.999996337891,8|0,0:0|0:0,0:0:0:0:
295,199,107328,2,0,P|328:151|319:94,1,89.9999972534181,2|8,0:0|0:0,0:0:0:0:
226,32,107681,6,0,L|52:78,2,179.999994506836,2|0|8,0:0|0:0|0:0,0:0:0:0:
226,32,108739,2,0,L|249:118,1,89.9999972534181,0|8,0:0|0:0,0:0:0:0:
338,254,109092,2,0,P|301:279|257:282,1,89.9999972534181,2|6,0:0|0:0,0:0:0:0:
118,199,109445,1,2,0:0:0:0:
249,118,109622,1,8,0:0:0:0:
249,118,109710,1,8,0:0:0:0:
249,118,109798,2,0,L|272:204,1,89.9999972534181,8|8,0:0|0:0,0:0:0:0:
352,88,110151,2,0,L|376:175,1,89.9999972534181,2|0,0:0|0:0,0:0:0:0:
251,287,110504,6,0,B|219:207|219:207|251:111,1,179.999994506836,6|0,0:0|0:0,0:0:0:0:
248,117,111210,2,0,L|133:148,1,89.9999972534181,8|0,0:0|0:0,0:0:0:0:
251,287,111563,2,0,L|366:318,1,119.999996337891,2|8,0:0|0:0,0:0:0:0:
248,117,111916,2,0,L|74:163,1,179.999994506836,0|2,0:0|0:0,0:0:0:0:
74,163,112622,2,0,P|89:204|80:248,1,89.9999972534181,8|0,0:0|0:0,0:0:0:0:
26,95,112975,2,0,P|68:80|112:89,1,89.9999972534181,0|8,0:0|0:0,0:0:0:0:
330,146,113328,6,0,P|246:176|158:158,2,179.999994506836,2|0|8,0:0|0:0|0:0,0:0:0:0:
329,146,114386,2,0,L|360:260,1,89.9999972534181,0|8,0:0|0:0,0:0:0:0:
434,116,114739,2,0,L|457:202,1,89.9999972534181,0|8,0:0|0:0,0:0:0:0:
368,67,115092,1,2,0:0:0:0:
368,67,115445,2,0,P|319:100|261:91,1,119.999996337891,8|0,0:0|0:0,0:0:0:0:
181,18,115798,2,0,P|148:65|157:122,1,89.9999972534181,0|2,0:0|0:0,0:0:0:0:
259,260,116151,6,0,B|291:180|291:180|259:84,2,179.999994506836,6|0|8,0:0|0:0|0:0,0:0:0:0:
259,260,117210,2,0,L|172:236,1,89.9999972534181,0|8,0:0|0:0,0:0:0:0:
401,219,117563,2,0,P|411:325|343:368,1,179.999994506836,2|2,0:0|0:0,0:0:0:0:
361,364,118269,2,0,L|246:333,1,119.999996337891,8|0,0:0|0:0,0:0:0:0:
57,266,118622,2,0,L|172:235,1,89.9999972534181,2|8,0:0|0:0,0:0:0:0:
361,364,118975,6,0,L|187:317,2,179.999994506836,2|0|8,0:0|0:0|0:0,0:0:0:0:
361,364,120034,2,0,P|357:319|377:279,1,89.9999972534181,2|12,0:0|0:0,0:0:0:0:
482,256,120386,2,0,P|485:300|465:340,1,89.9999972534181,0|8,0:0|0:0,0:0:0:0:
361,364,120739,1,2,0:0:0:0:
353,192,120916,1,8,0:0:0:0:
353,192,121004,1,8,0:0:0:0:
353,192,121092,2,0,L|376:278,1,89.9999972534181,12|8,0:0|0:0,0:0:0:0:
375,86,121445,2,0,P|330:82|290:102,1,89.9999972534181,2|0,0:0|0:0,0:0:0:0:
221,249,121798,6,0,B|178:240|178:240|118:264|118:264|78:252,1,150,6|0,0:0|0:0,0:0:0:0:
304,215,122504,2,0,P|312:286|255:332,1,150,8|0,0:0|0:0,0:0:0:0:
221,249,123034,1,8,0:0:0:0:
221,249,123210,2,0,P|213:178|270:132,1,150,0|2,0:0|0:0,0:0:0:0:
448,254,123916,2,0,L|302:214,1,150,8|0,0:0|0:0,0:0:0:0:
124,171,124445,1,8,0:0:0:0:
124,171,124622,6,0,L|268:131,1,150,2|0,0:0|0:0,0:0:0:0:
39,139,125328,2,0,P|31:210|88:256,1,150,8|0,0:0|0:0,0:0:0:0:
194,169,125857,1,8,0:0:0:0:
194,169,126034,2,0,P|158:159|124:170,1,75,0|8,0:0|0:0,0:0:0:0:
279,137,126386,2,0,P|287:208|230:254,1,150,2|12,0:0|0:0,0:0:0:0:
143,243,126916,1,0,0:0:0:0:
143,243,127092,2,0,L|123:169,1,75
246,79,127445,6,0,B|176:56|176:56|104:80,1,150,6|0,0:0|0:0,0:0:0:0:
308,148,128151,2,0,B|331:77|331:77|307:5,1,150,8|2,0:0|0:0,0:0:0:0:
400,150,128739,1,0,0:0:0:0:
400,150,128857,2,0,B|424:80|424:80|400:8,1,150,0|2,0:0|0:0,0:0:0:0:
104,80,129563,1,8,0:0:0:0:
308,148,129916,2,0,L|288:221,1,75,2|8,0:0|0:0,0:0:0:0:
143,224,130269,6,0,L|103:79,1,150,8|8,0:0|0:0,0:0:0:0:
224,185,130975,2,0,L|185:41,1,150,8|8,0:0|0:0,0:0:0:0:
307,147,131681,2,0,L|282:51,1,100,8|0,0:0|0:0,0:0:0:0:
355,227,132034,2,0,P|333:240|308:239,1,50,8|8,0:0|0:0,0:0:0:0:
307,147,132210,2,0,L|380:127,1,75,2|12,0:0|0:0,0:0:0:0:
460,236,132563,1,2,0:0:0:0:
488,104,132739,1,2,0:0:0:0:
290,287,133092,6,0,P|243:291|208:265,1,89.9999972534181,6|0,0:0|0:0,0:0:0:0:
186,186,133445,2,0,P|230:181|267:207,1,89.9999972534181
289,286,133798,2,0,P|276:229|306:179,1,119.999996337891,8|0,0:0|0:0,0:0:0:0:
413,164,134151,2,0,P|417:207|392:244,1,89.9999972534181,0|8,0:0|0:0,0:0:0:0:
306,179,134504,2,0,L|479:132,1,179.999994506836,0|2,0:0|0:0,0:0:0:0:
284,72,135034,1,0,0:0:0:0:
284,72,135210,2,0,L|370:48,1,89.9999972534181,8|0,0:0|0:0,0:0:0:0:
236,138,135563,1,0,0:0:0:0:
166,95,135739,1,8,0:0:0:0:
166,95,135916,6,0,P|149:136|164:177,1,89.9999972534181,2|0,0:0|0:0,0:0:0:0:
234,220,136269,2,0,P|250:178|235:137,1,89.9999972534181
166,95,136622,2,0,P|217:122|274:106,1,119.999996337891,8|0,0:0|0:0,0:0:0:0:
362,43,136975,2,0,L|385:129,1,89.9999972534181,0|8,0:0|0:0,0:0:0:0:
417,289,137328,2,0,L|440:202,1,89.9999972534181,2|8,0:0|0:0,0:0:0:0:
385,129,137681,1,2,0:0:0:0:
216,170,137857,1,0,0:0:0:0:
216,170,138034,2,0,P|253:195|296:191,1,89.9999972534181,8|0,0:0|0:0,0:0:0:0:
160,111,138386,2,0,P|133:146|137:190,1,89.9999972534181,2|8,0:0|0:0,0:0:0:0:
320,277,138739,6,0,L|296:190,1,89.9999972534181,6|0,0:0|0:0,0:0:0:0:
375,169,139092,2,0,L|401:254,1,89.9999972534181
302,129,139445,2,0,P|345:90|403:91,1,119.999996337891,8|0,0:0|0:0,0:0:0:0:
198,99,139798,2,0,L|112:72,1,89.9999972534181,0|8,0:0|0:0,0:0:0:0:
29,169,140151,2,0,B|12:116|12:116|32:56,1,119.999996337891
198,99,140504,2,0,B|215:152|215:152|195:212,1,119.999996337891,2|0,0:0|0:0,0:0:0:0:
128,296,140857,2,0,P|163:323|207:319,1,89.9999972534181,8|0,0:0|0:0,0:0:0:0:
264,261,141210,1,2,0:0:0:0:
195,212,141386,1,8,0:0:0:0:
206,319,141563,6,0,P|301:333|340:231,1,179.999994506836,2|0,0:0|0:0,0:0:0:0:
198,99,142092,1,0,0:0:0:0:
198,99,142269,2,0,L|171:184,1,89.9999972534181,8|0,0:0|0:0,0:0:0:0:
116,102,142622,2,0,L|90:188,1,89.9999972534181,0|8,0:0|0:0,0:0:0:0:
129,258,142975,1,2,0:0:0:0:
273,235,143151,2,0,P|238:208|194:212,1,89.9999972534181,8|6,0:0|0:0,0:0:0:0:
129,258,143416,2,0,L|141:304,3,44.999998626709,0|0|0|8,0:0|0:0|0:0|0:0,0:0:0:0:
116,102,143857,1,0,0:0:0:0:
116,102,144034,2,0,P|76:145|77:203,1,119.999996337891,2|8,0:0|0:0,0:0:0:0:
272,234,144386,6,0,L|187:261,1,89.9999972534181,6|0,0:0|0:0,0:0:0:0:
356,252,144739,2,0,P|359:208|333:174,1,89.9999972534181
240,118,145092,2,0,L|271:233,1,119.999996337891,8|0,0:0|0:0,0:0:0:0:
254,343,145445,2,0,P|297:349|334:324,1,89.9999972534181,0|8,0:0|0:0,0:0:0:0:
271,233,145798,2,0,B|169:226|169:226|93:280,1,179.999994506836,0|2,0:0|0:0,0:0:0:0:
2,161,146386,1,0,0:0:0:0:
2,161,146504,2,0,P|-14:201|0:243,1,89.9999972534181,8|0,0:0|0:0,0:0:0:0:
105,272,146857,1,0,0:0:0:0:
83,111,147033,1,8,0:0:0:0:
83,111,147210,6,0,L|169:85,1,89.9999972534181,2|0,0:0|0:0,0:0:0:0:
334,132,147563,2,0,L|248:106,1,89.9999972534181
168,84,147916,2,0,P|174:142|218:181,1,119.999996337891,8|0,0:0|0:0,0:0:0:0:
325,165,148269,2,0,P|330:208|305:244,1,89.9999972534181,2|8,0:0|0:0,0:0:0:0:
198,260,148622,2,0,P|192:216|217:180,1,89.9999972534181,2|8,0:0|0:0,0:0:0:0:
305,244,148975,2,0,L|189:212,1,119.999996337891,2|0,0:0|0:0,0:0:0:0:
167,319,149328,2,0,L|81:293,1,89.9999972534181,8|0,0:0|0:0,0:0:0:0:
29,230,149681,2,0,P|24:186|49:150,1,89.9999972534181,2|0,0:0|0:0,0:0:0:0:
69,70,150034,6,0,P|109:86|128:126,1,89.9999972534181,6|0,0:0|0:0,0:0:0:0:
194,235,150386,2,0,L|108:209,1,89.9999972534181
128,126,150739,2,0,L|243:157,1,119.999996337891,8|0,0:0|0:0,0:0:0:0:
184,26,151092,2,0,L|270:52,1,89.9999972534181,2|8,0:0|0:0,0:0:0:0:
349,73,151445,2,0,B|351:128|351:128|316:181,1,119.999996337891
152,135,151798,2,0,B|149:79|149:79|184:26,1,119.999996337891,2|0,0:0|0:0,0:0:0:0:
263,47,152151,2,0,L|349:73,1,89.9999972534181,8|0,0:0|0:0,0:0:0:0:
184,25,152504,1,2,0:0:0:0:
243,130,152681,1,8,0:0:0:0:
349,73,152857,6,0,P|377:164|283:219,1,179.999994506836,6|0,0:0|0:0,0:0:0:0:
243,130,153386,1,0,0:0:0:0:
435,99,153563,2,0,L|349:73,1,89.9999972534181,8|0,0:0|0:0,0:0:0:0:
243,130,153916,2,0,P|225:170|240:211,1,89.9999972534181,0|8,0:0|0:0,0:0:0:0:
313,173,154269,2,0,L|329:111,2,59.9999981689454,2|0|2,0:0|0:0|0:0,0:0:0:0:
240,211,154622,2,0,L|266:297,1,89.9999972534181,2|2,0:0|0:0,0:0:0:0:
16,52,154916,2,0,L|-28:44,6,29.9999990844727,0|8|0|0|8|0|0,0:0|0:0|0:0|0:0|0:0|0:0|0:0,0:0:0:0:
72,56,155328,2,0,L|112:48,5,29.9999990844727,2|0|0|0|0|0,0:0|0:0|0:0|0:0|0:0|0:0,0:0:0:0:
40,101,155681,6,0,B|17:172|17:172|41:244,1,150,2|2,0:0|0:0,0:0:0:0:
297,327,156386,2,0,B|320:256|320:256|296:184,1,150,2|8,0:0|0:0,0:0:0:0:
225,68,156916,1,0,0:0:0:0:
297,327,157092,2,0,B|352:277|352:277|367:202,1,150,8|2,0:0|0:0,0:0:0:0:
225,68,157622,1,8,0:0:0:0:
225,68,157710,1,8,0:0:0:0:
225,68,157798,2,0,L|310:41,1,89.9999972534181,12|8,0:0|0:0,0:0:0:0:
367,203,158151,1,2,0:0:0:0:
367,203,158239,1,0,0:0:0:0:
367,203,158328,1,0,0:0:0:0:
40,243,158504,6,0,P|83:282|141:281,1,119.999996337891,6|0,0:0|0:0,0:0:0:0:
157,73,158857,2,0,P|118:117|120:176,1,119.999996337891
188,259,159210,2,0,P|227:216|225:157,1,119.999996337891,12|0,0:0|0:0,0:0:0:0:
119,175,159563,2,0,L|204:202,1,89.9999972534181,0|8,0:0|0:0,0:0:0:0:
448,174,159916,2,0,B|351:140|351:140|279:168,1,179.999994506836,2|2,0:0|0:0,0:0:0:0:
279,167,160622,2,0,P|305:220|288:276,1,119.999996337891,8|0,0:0|0:0,0:0:0:0:
317,68,160975,2,0,P|357:84|376:124,1,89.9999972534181
279,167,161328,6,0,P|228:137|211:81,1,119.999996337891,2|0,0:0|0:0,0:0:0:0:
119,25,161681,2,0,L|3:56,1,119.999996337891
211,81,162034,2,0,L|95:112,1,119.999996337891,8|0,0:0|0:0,0:0:0:0:
8,175,162386,2,0,P|-9:215|6:257,1,89.9999972534181,0|8,0:0|0:0,0:0:0:0:
95,112,162739,2,0,P|112:71|96:29,1,89.9999972534181,2|8,0:0|0:0,0:0:0:0:
8,175,163092,1,2,0:0:0:0:
8,175,163445,2,0,L|93:202,1,89.9999972534181,8|0,0:0|0:0,0:0:0:0:
256,202,163798,2,0,L|171:229,1,89.9999972534181,2|0,0:0|0:0,0:0:0:0:
300,128,164151,6,0,P|339:171|337:230,1,119.999996337891,6|0,0:0|0:0,0:0:0:0:
256,202,164504,2,0,P|299:162|358:164,1,119.999996337891
447,226,164857,2,0,L|420:311,1,89.9999972534181,8|0,0:0|0:0,0:0:0:0:
358,164,165210,2,0,L|331:79,1,89.9999972534181,0|8,0:0|0:0,0:0:0:0:
157,108,165563,2,0,P|207:139|265:127,1,119.999996337891
331,79,165916,2,0,L|358:164,1,89.9999972534181
418,221,166269,2,0,P|383:248|339:243,1,89.9999972534181,8|0,0:0|0:0,0:0:0:0:
358,164,166622,2,0,P|392:136|436:141,1,89.9999972534181
339,244,166975,6,0,P|275:173|337:83,1,179.999994506836,2|2,0:0|0:0,0:0:0:0:
358,164,167504,1,0,0:0:0:0:
358,164,167681,2,0,L|184:210,1,179.999994506836,8|0,0:0|0:0,0:0:0:0:
408,100,168210,1,8,0:0:0:0:
408,100,168386,2,0,P|438:149|426:207,1,119.999996337891,2|0,0:0|0:0,0:0:0:0:
340,272,168739,1,0,0:0:0:0:
157,108,168916,1,8,0:0:0:0:
157,108,169004,1,8,0:0:0:0:
157,108,169092,2,0,L|130:193,1,89.9999972534181,8|8,0:0|0:0,0:0:0:0:
68,256,169445,2,0,P|102:283|146:278,1,89.9999972534181,2|0,0:0|0:0,0:0:0:0:
129,193,169798,6,0,L|98:309,1,119.999996337891,6|0,0:0|0:0,0:0:0:0:
276,304,170151,2,0,P|232:264|174:265,1,119.999996337891,2|0,0:0|0:0,0:0:0:0:
97,308,170504,2,0,P|141:347|199:346,1,119.999996337891,8|0,0:0|0:0,0:0:0:0:
276,304,170857,2,0,L|361:331,1,89.9999972534181,0|8,0:0|0:0,0:0:0:0:
388,252,171210,2,0,L|214:206,1,179.999994506836,2|2,0:0|0:0,0:0:0:0:
213,205,171916,2,0,P|252:161|251:103,1,119.999996337891,8|0,0:0|0:0,0:0:0:0:
176,24,172269,2,0,L|91:51,1,89.9999972534181,0|8,0:0|0:0,0:0:0:0:
65,242,172622,6,0,P|26:198|28:140,1,119.999996337891,2|0,0:0|0:0,0:0:0:0:
90,51,172975,2,0,P|128:94|127:153,1,119.999996337891
65,241,173328,2,0,P|117:268|173:251,1,119.999996337891,8|0,0:0|0:0,0:0:0:0:
256,184,173681,2,0,P|283:219|278:263,1,89.9999972534181,2|8,0:0|0:0,0:0:0:0:
173,251,174034,2,0,P|146:216|151:172,1,89.9999972534181,2|8,0:0|0:0,0:0:0:0:
278,262,174386,1,2,0:0:0:0:
455,76,174563,1,0,0:0:0:0:
455,76,174739,2,0,L|424:192,1,119.999996337891,8|0,0:0|0:0,0:0:0:0:
357,279,175092,2,0,P|393:304|437:299,1,89.9999972534181,2|0,0:0|0:0,0:0:0:0:
424,191,175445,6,0,P|373:162|315:175,1,119.999996337891,6|0,0:0|0:0,0:0:0:0:
162,231,175798,2,0,L|278:262,1,119.999996337891,2|0,0:0|0:0,0:0:0:0:
357,279,176151,2,0,L|330:364,1,89.9999972534181,8|0,0:0|0:0,0:0:0:0:
277,261,176504,2,0,L|250:176,1,89.9999972534181,0|8,0:0|0:0,0:0:0:0:
165,105,176857,2,0,P|208:66|267:67,1,119.999996337891,2|0,0:0|0:0,0:0:0:0:
335,147,177210,2,0,L|250:174,1,89.9999972534181,2|0,0:0|0:0,0:0:0:0:
408,85,177563,2,0,P|433:120|427:164,1,89.9999972534181,12|2,0:0|0:0,0:0:0:0:
335,147,177916,1,2,0:0:0:0:
267,67,178092,1,2,0:0:0:0:
267,67,178269,6,0,L|238:74,5,29.9999990844727,2|0|0|8|0|0,0:0|0:0|0:0|0:0|0:0|0:0,0:0:0:0:
290,62,178622,2,0,L|318:68,5,29.9999990844727,2|0|0|2|0|0,0:0|0:0|0:0|0:0|0:0|0:0,0:0:0:0:
270,92,178975,2,0,P|254:133|271:173,1,89.9999972534181,2|2,0:0|0:0,0:0:0:0:
428,134,179328,1,8,0:0:0:0:
437,320,179504,1,8,0:0:0:0:
437,320,179681,2,0,L|464:235,1,89.9999972534181,2|2,0:0|0:0,0:0:0:0:
428,134,180034,1,2,0:0:0:0:
290,62,180210,1,2,0:0:0:0:
290,62,180387,2,0,L|317:147,1,89.9999972534181,8|2,0:0|0:0,0:0:0:0:
428,134,180739,1,2,0:0:0:0:
337,338,180916,5,2,0:0:0:0:
337,338,181004,1,2,0:0:0:0:
337,338,181092,1,6,0:0:0:0:
