osu file format v14

[General]
AudioFilename: sEE NEW THE WORLD, SHE KNEW THE WORLD - CYTOKINE Remix - itori.mp3
AudioLeadIn: 0
PreviewTime: 71549
Countdown: 0
SampleSet: Soft
StackLeniency: 0.3
Mode: 0
LetterboxInBreaks: 0
WidescreenStoryboard: 0

[Editor]
DistanceSpacing: 1.2
BeatDivisor: 4
GridSize: 4
TimelineZoom: 1

[Metadata]
Title:sEE NEW THE WORLD, SHE KNEW THE WORLD - CYTOKINE Remix
TitleUnicode:sEE NEW THE WORLD, SHE KNEW THE WORLD - CYTOKINE Remix
Artist:CYTOKINE
ArtistUnicode:CYTOKINE
Creator:Frey
Version:lUNATIC
Source:東方Project
Tags:th11 BACKFLASH Audibility itori Touhou Zun Comiket 80 C80 隣人 Linjin 東方地霊殿 Subterranean Animism ハルトマンの妖怪少女 Hartmann's Youkai Girl 古明地 こいし Komeiji Koishi
BeatmapID:951393
BeatmapSetID:442378

[Difficulty]
HPDrainRate:6.5
CircleSize:4
OverallDifficulty:7
ApproachRate:8
SliderMultiplier:1.8
SliderTickRate:1

[Events]
//Background and Video events
0,0,"komeji.jpg",0,0
//Break Periods
2,29082,42354
2,128637,141910
//Storyboard Layer 0 (Background)
//Storyboard Layer 1 (Fail)
//Storyboard Layer 2 (Pass)
//Storyboard Layer 3 (Foreground)
//Storyboard Sound Samples

[TimingPoints]
438,444.444444444444,4,2,0,80,1,0
99993,-100,4,2,0,85,0,1
128437,-100,4,2,0,80,0,0
199549,-100,4,2,0,85,0,1
227993,-100,4,2,0,80,0,0

[Colours]
Combo1 : 170,143,177
Combo2 : 45,125,210
Combo3 : 225,75,125
Combo4 : 255,176,145
Combo5 : 87,255,171

[HitObjects]
44,160,438,5,4,0:0:0:0:
168,132,660,1,0,0:0:0:0:
292,104,882,1,2,0:0:0:0:
148,332,1104,1,0,0:0:0:0:
120,208,1326,1,0,0:0:0:0:
92,84,1549,1,0,0:0:0:0:
320,228,1771,1,2,0:0:0:0:
196,256,1993,1,0,0:0:0:0:
72,284,2215,5,0,0:0:0:0:
440,100,2660,1,2,0:0:0:0:
164,8,3104,1,0,0:0:0:0:
72,284,3549,1,2,0:0:0:0:
348,376,3993,5,0,0:0:0:0:
440,288,4215,1,0,0:0:0:0:
320,252,4437,1,2,0:0:0:0:
408,188,4660,1,0,0:0:0:0:
492,280,4882,1,0,0:0:0:0:
368,308,5104,1,0,0:0:0:0:
512,168,5326,1,2,0:0:0:0:
388,136,5549,1,0,0:0:0:0:
423,256,5771,2,0,P|334:253|256:296,2,180,0|2|0,0:0|0:0|0:0,0:0:0:0:
256,88,7104,5,2,0:0:0:0:
184,156,7326,1,0,0:0:0:0:
184,156,7437,1,0,0:0:0:0:
184,156,7549,2,0,P|192:236|192:260,1,90
328,228,7993,2,0,P|320:148|320:124,1,90,2|0,0:0|0:0,0:0:0:0:
88,72,8437,5,0,0:0:0:0:
184,156,8660,1,0,0:0:0:0:
56,156,8882,1,2,0:0:0:0:
164,32,9104,1,0,0:0:0:0:
184,156,9326,1,0,0:0:0:0:
88,72,9549,1,0,0:0:0:0:
252,48,9771,1,2,0:0:0:0:
184,156,9993,1,0,0:0:0:0:
164,31,10215,2,0,P|86:73|56:156,1,180,0|2,0:0|0:0,0:0:0:0:
260,336,11104,6,0,P|252:272|240:232,1,90
471,141,11549,2,0,P|460:184|456:229,1,90,2|0,0:0|0:0,0:0:0:0:
348,156,11993,5,0,0:0:0:0:
333,33,12215,1,0,0:0:0:0:
456,18,12437,1,2,0:0:0:0:
416,212,12660,1,0,0:0:0:0:
293,227,12882,1,0,0:0:0:0:
278,104,13104,1,0,0:0:0:0:
471,141,13326,1,2,0:0:0:0:
486,264,13549,1,0,0:0:0:0:
363,279,13771,2,0,B|288:288|288:288|248:272|248:272|176:280,1,180,0|2,0:0|0:0,0:0:0:0:
149,105,14660,5,4,0:0:0:0:
276,92,14882,1,0,0:0:0:0:
276,92,15104,1,2,0:0:0:0:
203,221,15326,1,0,0:0:0:0:
76,208,15549,1,0,0:0:0:0:
76,208,15771,1,0,0:0:0:0:
152,336,15993,1,2,0:0:0:0:
279,323,16215,1,0,0:0:0:0:
279,323,16437,5,0,0:0:0:0:
233,61,16882,1,2,0:0:0:0:
152,336,17326,1,0,0:0:0:0:
360,48,17771,1,2,0:0:0:0:
360,48,18215,5,0,0:0:0:0:
316,164,18437,1,0,0:0:0:0:
440,144,18660,1,2,0:0:0:0:
236,68,18882,1,0,0:0:0:0:
316,164,19104,1,0,0:0:0:0:
360,48,19326,1,0,0:0:0:0:
192,184,19549,1,2,0:0:0:0:
316,164,19771,1,0,0:0:0:0:
236,68,19993,2,0,P|144:72|64:32,2,180,0|2|0,3:2|3:2|3:2,0:0:0:0:
276,316,21326,5,2,0:0:0:0:
256,192,21549,1,0,0:0:0:0:
256,192,21660,1,0,0:0:0:0:
256,192,21771,2,0,P|204:196|160:212,1,90,4|0,0:0|0:0,0:0:0:0:
256,192,22215,2,0,P|308:188|352:172,1,90,2|0,3:2|0:0,0:0:0:0:
420,328,22660,5,0,0:0:0:0:
296,312,22882,1,0,0:0:0:0:
256,192,23104,1,2,3:2:0:0:
456,116,23326,1,0,0:0:0:0:
504,232,23549,1,0,0:0:0:0:
420,328,23771,1,0,0:0:0:0:
256,192,23993,1,2,3:2:0:0:
332,92,24215,1,0,0:0:0:0:
456,116,24437,2,0,P|428:204|432:296,1,180,0|2,0:0|3:2,0:0:0:0:
56,268,25326,6,0,P|76:220|84:168,1,90,0|0,3:0|0:0,0:0:0:0:
148,304,25771,1,2,3:2:0:0:
68,364,25993,1,0,0:0:0:0:
56,268,26215,1,0,3:0:0:0:
184,212,26437,1,0,0:0:0:0:
276,176,26660,1,2,3:2:0:0:
264,272,26882,1,0,0:0:0:0:
184,212,27104,6,0,P|180:156|168:112,1,90,4|0,3:2|0:0,0:0:0:0:
328,172,27549,2,0,P|332:228|344:272,1,90,2|0,3:2|0:0,0:0:0:0:
256,340,27993,1,0,3:0:0:0:
184,212,28215,1,0,0:0:0:0:
280,104,28437,1,2,3:2:0:0:
320,86,28549,1,0,0:0:0:0:
364,93,28660,1,0,0:0:0:0:
398,122,28771,1,0,0:0:0:0:
412,164,28882,5,4,3:2:0:0:
48,72,43104,5,4,3:2:0:0:
172,52,43326,1,0,0:0:0:0:
272,128,43549,2,0,L|294:35,1,90,8|0,3:2|0:0,0:0:0:0:
240,256,43993,1,0,0:0:0:0:
340,332,44215,1,0,0:0:0:0:
484,224,44437,2,0,L|464:312,1,90,8|0,3:2|0:0,0:0:0:0:
368,96,44882,5,0,3:0:0:0:
443,32,45104,1,0,0:0:0:0:
464,128,45326,1,8,3:2:0:0:
348,272,45549,1,0,0:0:0:0:
348,272,45660,1,0,0:0:0:0:
348,272,45771,1,0,0:0:0:0:
164,272,45993,1,0,0:0:0:0:
48,128,46215,1,8,3:2:0:0:
69,32,46437,1,0,0:0:0:0:
69,32,46549,1,0,3:0:0:0:
69,32,46660,5,0,3:0:0:0:
124,148,46882,1,0,0:0:0:0:
232,80,47104,2,0,L|124:48,1,90,8|0,3:2|0:0,0:0:0:0:
280,304,47549,1,0,0:0:0:0:
336,188,47771,1,0,0:0:0:0:
444,256,47993,2,0,L|336:288,1,90,8|0,3:2|0:0,0:0:0:0:
256,212,48437,5,0,3:0:0:0:
88,168,48660,1,0,0:0:0:0:
128,336,48882,1,8,3:2:0:0:
156,240,49104,1,0,0:0:0:0:
156,240,49215,1,0,0:0:0:0:
156,240,49326,1,0,0:0:0:0:
356,176,49549,1,0,0:0:0:0:
156,112,49771,1,8,3:2:0:0:
356,48,49993,1,8,3:2:0:0:
256,212,50215,5,4,3:2:0:0:
304,328,50437,1,0,0:0:0:0:
380,228,50660,2,0,P|388:176|408:124,1,90,8|0,3:2|0:0,0:0:0:0:
112,140,51104,1,0,0:0:0:0:
160,24,51326,1,0,0:0:0:0:
236,124,51549,2,0,P|244:176|264:228,1,90,8|0,3:2|0:0,0:0:0:0:
88,312,51993,5,0,3:0:0:0:
36,216,52215,1,0,0:0:0:0:
112,140,52437,1,8,3:2:0:0:
208,192,52660,1,0,0:0:0:0:
208,192,52771,1,0,0:0:0:0:
208,192,52882,1,0,0:0:0:0:
196,300,53104,1,0,0:0:0:0:
124,232,53326,1,8,3:2:0:0:
388,232,53549,1,0,0:0:0:0:
316,300,53771,5,0,3:0:0:0:
196,84,53993,1,0,0:0:0:0:
340,56,54215,2,0,L|331:145,1,90,8|0,3:2|0:0,0:0:0:0:
328,192,54549,1,0,0:0:0:0:
328,192,54660,1,0,0:0:0:0:
256,316,54882,1,0,0:0:0:0:
180,145,55104,2,0,L|172:56,1,90,8|0,3:2|0:0,0:0:0:0:
16,192,55549,6,0,P|29:234|31:279,1,90,4|0,3:2|0:0,0:0:0:0:
152,384,55993,2,0,P|139:342|137:297,1,90,8|0,3:2|0:0,0:0:0:0:
136,272,56326,1,0,0:0:0:0:
140,248,56437,1,0,0:0:0:0:
256,104,56660,1,0,0:0:0:0:
372,192,56882,2,0,P|370:236|357:279,1,90,8|0,3:2|3:0,0:0:0:0:
344,300,57215,1,0,0:0:0:0:
324,312,57326,6,0,L|212:320,1,90,4|2,3:2|0:0,0:0:0:0:
124,204,57771,2,0,L|34:197,1,90,8|2,3:2|0:0,0:0:0:0:
188,72,58215,2,0,L|300:64,1,90,0|2,3:2|0:0,0:0:0:0:
388,180,58660,2,0,L|478:187,1,90,8|2,3:2|0:0,0:0:0:0:
376,80,59104,5,0,3:0:0:0:
277,65,59326,1,2,0:0:0:0:
288,164,59549,1,8,3:2:0:0:
388,180,59771,1,2,0:0:0:0:
412,176,59882,1,0,0:0:0:0:
436,172,59993,1,0,3:0:0:0:
288,164,60215,1,2,0:0:0:0:
299,263,60437,2,0,L|388:280,1,90,8|2,3:2|0:0,0:0:0:0:
408,56,60882,5,0,3:0:0:0:
292,32,61104,1,2,0:0:0:0:
213,121,61326,2,0,L|124:104,1,90,8|2,3:2|0:0,0:0:0:0:
92,112,61660,1,0,0:0:0:0:
60,120,61771,1,0,3:0:0:0:
24,284,61993,1,2,0:0:0:0:
184,232,62215,2,0,L|95:215,1,90,8|2,3:2|0:0,0:0:0:0:
328,152,62660,6,0,L|417:169,1,90,0|2,3:0|0:0,0:0:0:0:
233,31,63104,2,0,L|216:120,1,90,8|2,3:2|0:0,0:0:0:0:
212,142,63437,1,0,0:0:0:0:
208,164,63549,1,0,3:0:0:0:
184,280,63771,1,2,0:0:0:0:
279,353,63993,2,0,L|296:264,1,90,8|2,3:2|0:0,0:0:0:0:
60,216,64437,5,4,3:2:0:0:
184,280,64660,1,2,0:0:0:0:
288,184,64882,2,0,P|276:120|276:72,1,90,8|2,3:2|0:0,0:0:0:0:
399,159,65326,1,0,3:0:0:0:
275,95,65549,1,2,0:0:0:0:
171,191,65771,2,0,P|183:255|183:303,1,90,8|2,3:2|0:0,0:0:0:0:
316,368,66215,6,0,P|319:323|328:279,1,90,0|2,3:0|0:0,0:0:0:0:
476,208,66660,2,0,P|494:248|492:293,1,90,8|2,3:2|0:0,0:0:0:0:
484,328,66993,1,0,0:0:0:0:
484,328,67104,1,0,3:0:0:0:
352,192,67326,1,2,0:0:0:0:
408,88,67549,2,0,L|504:76,1,90,8|2,3:2|0:0,0:0:0:0:
352,192,67993,6,0,L|262:180,1,90,0|2,3:0|0:0,0:0:0:0:
132,48,68437,2,0,P|144:104|136:152,1,90,8|2,3:2|0:0,0:0:0:0:
132,164,68771,1,0,0:0:0:0:
116,188,68882,2,0,P|113:232|124:276,1,90,0|2,3:0|0:0,0:0:0:0:
262,180,69326,2,0,L|270:80,1,90,8|2,3:2|0:0,3:2:0:0:
440,200,69771,5,0,3:0:0:0:
262,180,69993,1,2,0:0:0:0:
416,96,70215,1,8,3:2:0:0:
308,84,70437,1,2,0:0:0:0:
308,84,70549,1,0,0:0:0:0:
308,84,70660,5,0,3:0:0:0:
204,300,70882,1,2,0:0:0:0:
148,140,71104,1,8,3:2:0:0:
364,244,71326,1,2,0:0:0:0:
172,52,71549,5,4,3:2:0:0:
212,204,71771,1,2,0:0:0:0:
60,162,71993,1,8,3:2:0:0:
236,118,72215,1,2,0:0:0:0:
276,270,72437,1,0,3:0:0:0:
124,228,72659,1,2,0:0:0:0:
300,182,72882,1,8,3:2:0:0:
340,334,73104,1,2,0:0:0:0:
188,292,73326,5,0,3:0:0:0:
436,316,73771,1,8,3:2:0:0:
324,92,74215,1,0,3:0:0:0:
76,116,74660,1,8,3:2:0:0:
228,320,75104,5,0,3:0:0:0:
212,196,75326,1,2,0:0:0:0:
196,72,75549,1,8,3:2:0:0:
96,276,75771,1,2,0:0:0:0:
220,260,75993,1,0,3:0:0:0:
344,244,76216,1,2,0:0:0:0:
80,152,76437,1,8,3:2:0:0:
204,136,76659,1,2,0:0:0:0:
328,120,76882,2,0,B|404:132|404:132|440:112|440:112|528:124,2,180,0|8|0,3:0|3:2|3:0,0:0:0:0:
44,76,78215,5,8,3:2:0:0:
152,204,78437,1,2,0:0:0:0:
152,204,78549,1,0,0:0:0:0:
152,204,78660,2,0,P|147:160|144:112,1,90,0|2,3:0|0:0,0:0:0:0:
367,114,79104,2,0,P|364:159|359:204,1,90,8|2,3:2|0:0,0:0:0:0:
256,152,79549,5,0,3:0:0:0:
308,36,79771,1,2,0:0:0:0:
436,52,79993,1,8,3:2:0:0:
352,240,80215,1,2,0:0:0:0:
256,152,80438,1,0,3:0:0:0:
308,36,80660,1,2,0:0:0:0:
464,176,80882,1,8,3:2:0:0:
352,240,81104,1,2,0:0:0:0:
256,152,81326,2,0,P|169:137|91:178,1,180,0|8,3:0|3:2,0:0:0:0:
200,364,82215,6,0,L|188:274,1,90,0|2,3:0|0:0,0:0:0:0:
12,48,82660,2,0,L|0:137,1,90,8|2,3:2|0:0,0:0:0:0:
256,128,83104,5,0,3:0:0:0:
148,64,83326,1,2,0:0:0:0:
90,177,83549,1,8,3:2:0:0:
338,103,83771,1,2,0:0:0:0:
280,216,83994,1,0,3:0:0:0:
172,152,84216,1,2,0:0:0:0:
422,79,84437,1,8,3:2:0:0:
314,15,84659,1,2,0:0:0:0:
256,128,84882,2,0,B|224:216|284:216|256:304,1,180,0|8,3:0|0:2,0:0:0:0:
52,200,85771,5,4,3:2:0:0:
164,260,85993,1,2,0:0:0:0:
40,292,86215,1,8,3:2:0:0:
176,168,86437,1,2,0:0:0:0:
288,228,86659,1,0,3:0:0:0:
164,260,86881,1,2,0:0:0:0:
300,136,87104,1,8,3:2:0:0:
412,196,87326,1,2,0:0:0:0:
288,228,87548,5,0,3:0:0:0:
108,136,87993,1,8,3:2:0:0:
404,248,88437,1,0,3:0:0:0:
312,44,88882,1,8,3:2:0:0:
200,340,89326,5,0,3:0:0:0:
132,256,89549,1,2,0:0:0:0:
92,356,89771,1,8,3:2:0:0:
308,156,89993,1,2,0:0:0:0:
200,140,90216,1,0,3:0:0:0:
240,240,90438,1,2,0:0:0:0:
416,348,90660,1,8,3:2:0:0:
348,264,90882,1,2,0:0:0:0:
308,364,91104,2,0,B|220:376|232:316|136:328,2,180,0|8|0,3:0|3:2|3:0,0:0:0:0:
492,192,92437,5,8,0:0:0:0:
376,52,92660,1,2,0:0:0:0:
376,52,92771,1,0,0:0:0:0:
376,52,92882,2,0,P|378:96|390:140,1,90,0|2,3:0|0:0,0:0:0:0:
325,312,93326,2,0,P|323:267|312:224,1,90,8|2,3:2|0:0,0:0:0:0:
256,88,93771,5,0,3:0:0:0:
140,136,93993,1,2,0:0:0:0:
24,184,94215,1,8,3:2:0:0:
240,212,94437,1,2,0:0:0:0:
140,136,94659,1,0,3:0:0:0:
41,60,94881,1,2,0:0:0:0:
124,261,95104,1,8,3:2:0:0:
140,136,95326,1,2,0:0:0:0:
156,12,95549,2,0,B|248:8|240:60|336:56,1,180,0|8,3:0|3:2,0:0:0:0:
184,327,96437,6,0,L|160:240,1,90,0|2,3:0|0:0,0:0:0:0:
351,241,96882,2,0,L|327:327,1,90,8|2,3:2|0:0,0:0:0:0:
132,144,97326,1,0,3:0:0:0:
256,40,97549,1,2,0:0:0:0:
380,144,97771,1,8,3:2:0:0:
256,248,97993,1,2,0:0:0:0:
296,124,98215,6,0,P|329:94|361:62,1,90,4|2,3:2|0:0,0:0:0:0:
212,164,98659,2,0,P|178:193|146:225,1,90,8|2,3:2|0:0,0:0:0:0:
256,344,99104,1,0,3:0:0:0:
256,344,99326,1,2,0:0:0:0:
365,225,99549,1,8,3:2:0:0:
388,187,99660,1,0,0:0:0:0:
395,142,99771,1,2,0:0:0:0:
386,99,99882,1,0,0:0:0:0:
361,61,99993,5,4,3:2:0:0:
252,44,100215,1,2,0:0:0:0:
143,27,100437,1,8,3:2:0:0:
213,295,100660,1,2,0:0:0:0:
232,169,100882,1,0,3:0:0:0:
252,44,101104,1,2,0:0:0:0:
70,273,101326,1,8,3:2:0:0:
213,295,101549,2,0,L|288:308,1,45,2|0,0:0|0:0,0:0:0:0:
355,319,101771,6,0,P|351:275|355:230,1,90,0|0,3:0|0:0,0:0:0:0:
112,276,102215,2,0,P|116:231|112:186,1,90,8|0,3:2|0:0,0:0:0:0:
444,232,102660,2,0,P|439:187|443:142,1,90,0|0,3:0|0:0,0:0:0:0:
24,188,103104,2,0,P|28:143|24:98,1,90,8|0,3:2|0:0,0:0:0:0:
232,152,103549,5,0,3:0:0:0:
112,186,103771,1,2,0:0:0:0:
144,64,103993,1,8,3:2:0:0:
352,184,104215,1,2,0:0:0:0:
188,228,104437,1,0,3:0:0:0:
232,64,104660,1,2,0:0:0:0:
512,228,104882,1,8,3:2:0:0:
292,288,105104,1,2,0:0:0:0:
351,68,105326,6,0,P|424:92|468:96,1,90,0|0,3:0|0:0,0:0:0:0:
160,184,105771,2,0,P|87:208|43:212,1,90,8|0,3:2|0:0,0:0:0:0:
352,292,106215,2,0,P|425:316|469:320,1,90,0|0,3:0|0:0,0:0:0:0:
424,192,106660,5,8,3:2:0:0:
256,240,106882,1,2,0:0:0:0:
244,200,106993,1,0,0:0:0:0:
232,160,107104,2,0,L|200:56,1,90,0|2,3:0|0:0,0:0:0:0:
256,240,107549,2,0,L|288:344,1,90,8|2,3:2|0:0,0:0:0:0:
384,132,107993,5,0,3:0:0:0:
360,28,108215,1,2,0:0:0:0:
296,116,108437,1,8,3:2:0:0:
368,220,108660,1,2,0:0:0:0:
460,84,108882,1,0,3:0:0:0:
296,116,109105,1,2,0:0:0:0:
456,240,109327,1,8,3:2:0:0:
508,8,109549,1,2,0:0:0:0:
296,116,109771,2,0,P|268:192|288:300,1,180,0|8,3:0|3:2,0:0:0:0:
80,132,110660,6,0,L|200:120,1,90,0|2,3:0|0:0,0:0:0:0:
429,40,111104,2,0,L|340:32,1,90,8|2,3:2|0:0,0:0:0:0:
116,40,111549,5,0,3:0:0:0:
80,132,111771,1,2,0:0:0:0:
132,216,111993,1,8,3:2:0:0:
380,216,112215,1,2,0:0:0:0:
443,115,112437,1,0,3:0:0:0:
399,5,112659,1,2,0:0:0:0:
113,5,112882,1,8,3:2:0:0:
64,130,113104,1,2,0:0:0:0:
135,245,113326,2,0,B|195:233|195:233|247:253|247:253|309:243,1,180,0|8,3:0|3:2,0:0:0:0:
440,120,114215,5,4,3:2:0:0:
464,24,114437,1,2,0:0:0:0:
368,0,114660,1,8,3:2:0:0:
256,240,114882,1,2,0:0:0:0:
227,124,115105,1,0,3:0:0:0:
342,96,115327,1,2,0:0:0:0:
476,384,115549,1,8,3:2:0:0:
511,245,115771,2,0,L|436:228,1,45,2|0,0:0|0:0,0:0:0:0:
372,212,115993,6,0,L|284:231,1,90,0|0,3:0|0:0,0:0:0:0:
88,364,116437,2,0,L|175:344,1,90,8|0,3:2|0:0,0:0:0:0:
227,152,116882,2,0,L|140:172,1,90,0|0,3:0|0:0,0:0:0:0:
337,40,117326,2,0,L|424:20,1,90,8|0,3:2|0:0,0:0:0:0:
319,224,117771,5,0,3:0:0:0:
306,320,117993,1,2,0:0:0:0:
383,380,118215,1,8,3:2:0:0:
319,224,118437,1,2,0:0:0:0:
227,152,118659,1,0,3:0:0:0:
119,196,118881,1,2,0:0:0:0:
319,224,119104,1,8,3:2:0:0:
440,175,119326,1,2,0:0:0:0:
458,46,119549,6,0,P|400:40|364:32,1,90,0|0,3:0|0:0,0:0:0:0:
56,192,119993,2,0,P|114:186|150:178,1,90,8|0,3:2|0:0,0:0:0:0:
454,338,120437,2,0,P|396:332|360:324,1,90,0|0,3:0|0:0,0:0:0:0:
144,179,120882,5,8,3:2:0:0:
368,179,121104,1,2,0:0:0:0:
368,179,121215,1,0,0:0:0:0:
368,179,121326,2,0,P|356:132|360:80,1,90,0|2,3:0|0:0,0:0:0:0:
144,179,121771,2,0,P|156:226|152:278,1,90,8|2,3:2|0:0,0:0:0:0:
195,95,122215,5,0,3:0:0:0:
195,95,122437,1,2,0:0:0:0:
60,128,122659,1,8,3:2:0:0:
331,185,122882,1,2,0:0:0:0:
331,185,123104,1,0,3:0:0:0:
156,228,123326,1,2,0:0:0:0:
506,301,123549,1,8,3:2:0:0:
506,301,123771,1,2,0:0:0:0:
280,358,123993,2,0,P|184:344|80:336,1,180,0|8,3:0|3:2,0:0:0:0:
232,26,124882,6,0,P|296:36|340:40,1,90,0|2,3:0|0:0,0:0:0:0:
256,192,125326,2,0,P|192:182|148:178,1,90,8|2,3:2|0:0,0:0:0:0:
60,168,125771,1,0,3:0:0:0:
116,72,125993,1,2,0:0:0:0:
224,88,126215,1,8,3:2:0:0:
288,296,126437,1,2,0:0:0:0:
396,312,126660,6,0,P|417:272|460:208,1,90,4|2,3:2|0:0,0:0:0:0:
300,114,127104,2,0,P|280:153|256:192,1,90,8|2,3:2|0:0,0:0:0:0:
116,312,127549,1,0,3:0:0:0:
83,131,127771,1,2,0:0:0:0:
255,192,127993,1,8,3:2:0:0:
210,199,128104,1,0,0:0:0:0:
166,207,128215,1,2,0:0:0:0:
122,215,128326,1,0,0:0:0:0:
77,223,128437,5,4,3:2:0:0:
476,276,142660,5,4,3:2:0:0:
352,296,142882,1,0,0:0:0:0:
228,316,143104,2,0,L|212:204,1,90,8|0,0:0|0:0,0:0:0:0:
484,128,143549,1,0,0:0:0:0:
352,296,143771,1,0,0:0:0:0:
271,95,143993,2,0,L|284:6,1,90,8|0,3:2|0:0,0:0:0:0:
128,96,144437,5,0,3:0:0:0:
256,192,144660,1,0,0:0:0:0:
384,96,144882,1,8,3:2:0:0:
196,24,145104,1,0,0:0:0:0:
196,24,145215,1,0,0:0:0:0:
196,24,145326,1,0,0:0:0:0:
60,168,145549,1,0,0:0:0:0:
172,332,145771,1,8,3:2:0:0:
368,296,145993,1,0,0:0:0:0:
368,296,146104,1,0,3:0:0:0:
368,296,146215,6,0,P|368:232|376:192,1,90,0|0,3:0|0:0,0:0:0:0:
472,160,146660,1,8,3:2:0:0:
295,113,146882,1,0,0:0:0:0:
295,113,146993,1,0,0:0:0:0:
295,113,147104,2,0,L|384:95,1,90,0|0,0:0|0:0,0:0:0:0:
216,270,147549,2,0,L|127:252,1,90,8|0,3:2|0:0,0:0:0:0:
4,228,147993,5,0,3:0:0:0:
152,176,148215,1,0,0:0:0:0:
124,332,148437,1,8,3:2:0:0:
276,188,148660,1,0,0:0:0:0:
276,188,148771,1,0,0:0:0:0:
276,188,148882,1,0,0:0:0:0:
76,128,149104,1,0,0:0:0:0:
124,332,149326,1,8,3:2:0:0:
388,332,149549,1,8,3:2:0:0:
420,168,149771,5,4,3:2:0:0:
292,280,149993,1,0,0:0:0:0:
260,116,150215,2,0,L|236:-8,1,90,8|0,3:2|0:0,0:0:0:0:
212,20,150549,1,0,0:0:0:0:
180,12,150660,1,0,0:0:0:0:
144,192,150882,1,0,0:0:0:0:
324,228,151104,2,0,P|376:220|436:216,1,90,8|0,3:2|0:0,0:0:0:0:
260,116,151549,5,0,3:0:0:0:
112,168,151771,1,0,0:0:0:0:
284,12,151993,1,8,3:2:0:0:
236,244,152215,1,0,0:0:0:0:
236,244,152326,1,0,0:0:0:0:
236,244,152437,1,0,0:0:0:0:
140,28,152660,1,0,0:0:0:0:
343,143,152882,2,0,L|254:153,1,90,8|0,3:2|0:0,0:0:0:0:
112,168,153326,5,0,3:0:0:0:
92,332,153549,1,0,0:0:0:0:
256,352,153771,2,0,L|345:362,1,90,8|0,3:2|0:0,0:0:0:0:
380,348,154104,1,0,0:0:0:0:
408,324,154215,2,0,P|420:280|416:228,1,90
256,16,154660,2,0,P|253:60|265:103,1,90,8|0,3:2|0:0,0:0:0:0:
316,200,155104,5,4,3:2:0:0:
417,236,155326,1,2,0:0:0:0:
500,172,155549,1,0,0:0:0:0:
364,68,155771,1,0,3:0:0:0:
364,68,155882,1,0,3:0:0:0:
364,68,155993,1,0,3:0:0:0:
200,112,156215,1,2,0:0:0:0:
164,280,156437,1,8,3:2:0:0:
164,280,156882,6,0,P|220:288|284:308,1,90,4|2,3:2|0:0,3:2:0:0:
16,160,157326,2,0,P|72:152|136:132,1,90,8|2,3:2|0:0,3:2:0:0:
352,92,157771,2,0,P|352:48|360:0,1,90,0|2,3:0|0:0,0:0:0:0:
164,280,158215,2,0,P|164:236|156:188,1,90,8|2,3:2|0:0,0:0:0:0:
256,112,158660,5,0,3:0:0:0:
356,190,158882,1,2,0:0:0:0:
256,268,159104,1,8,3:2:0:0:
156,190,159326,1,2,0:0:0:0:
152,148,159437,1,0,0:0:0:0:
148,104,159549,1,0,3:0:0:0:
412,16,159771,1,2,0:0:0:0:
363,102,159993,2,0,P|351:144|355:189,1,90,8|2,3:2|0:0,0:0:0:0:
488,160,160437,5,0,3:0:0:0:
412,16,160660,1,2,0:0:0:0:
252,48,160882,2,0,P|176:64|124:72,1,90,8|2,3:2|0:0,0:0:0:0:
128,76,161215,1,0,0:0:0:0:
92,84,161326,2,0,P|72:44|68:0,1,90,0|2,3:0|0:0,0:0:0:0:
228,152,161771,2,0,P|228:200|204:264,1,90,8|2,3:2|0:0,0:0:0:0:
168,376,162215,5,0,3:0:0:0:
140,200,162437,1,2,0:0:0:0:
256,328,162660,1,8,3:2:0:0:
228,152,162882,1,2,0:0:0:0:
228,152,162993,1,0,0:0:0:0:
228,152,163104,2,0,P|216:80|212:40,1,90,0|2,3:0|0:0,0:0:0:0:
352,228,163549,2,0,P|424:216|464:212,1,90,8|2,3:2|0:0,0:0:0:0:
492,112,163993,5,4,3:2:0:0:
304,48,164215,1,2,0:0:0:0:
244,240,164437,2,0,P|172:252|132:256,1,90,8|2,3:2|0:0,0:0:0:0:
20,272,164882,1,0,3:0:0:0:
208,336,165104,1,2,0:0:0:0:
268,144,165326,2,0,P|340:132|380:128,1,90,8|2,3:2|0:0,0:0:0:0:
436,4,165771,5,0,3:0:0:0:
308,20,165993,1,2,0:0:0:0:
268,144,166215,2,0,P|256:192|256:252,1,90,8|2,0:2|0:0,0:0:0:0:
255,264,166549,1,0,0:0:0:0:
257,295,166660,1,0,3:0:0:0:
492,248,166882,1,2,0:0:0:0:
333,69,167104,2,0,P|294:48|249:46,1,90,8|2,3:2|0:0,0:0:0:0:
91,140,167549,6,0,P|135:127|177:112,1,90,0|2,3:0|0:0,0:0:0:0:
0,112,167993,2,0,P|-5:156|12:196,1,90,8|2,3:2|0:0,0:0:0:0:
32,216,168326,1,0,0:0:0:0:
52,232,168437,2,0,L|42:322,1,90,0|2,3:0|0:0,0:0:0:0:
200,176,168882,2,0,L|210:86,1,90,8|2,3:2|0:0,0:0:0:0:
324,108,169326,5,0,3:0:0:0:
336,8,169549,1,2,0:0:0:0:
312,208,169771,2,0,L|300:312,1,90,8|2,3:2|0:0,0:0:0:0:
296,344,170104,1,0,0:0:0:0:
296,344,170215,1,0,3:0:0:0:
104,232,170437,1,2,0:0:0:0:
216,40,170660,1,8,3:2:0:0:
408,152,170882,1,2,0:0:0:0:
256,192,171104,5,4,3:2:0:0:
376,240,171326,1,2,0:0:0:0:
496,288,171549,1,8,3:2:0:0:
461,31,171771,1,2,0:0:0:0:
358,112,171993,1,0,3:0:0:0:
256,192,172216,1,2,0:0:0:0:
496,288,172437,1,8,3:2:0:0:
479,160,172659,1,2,0:0:0:0:
461,31,172882,5,0,3:0:0:0:
160,72,173326,1,8,3:2:0:0:
352,312,173771,1,0,3:0:0:0:
51,353,174215,1,8,3:2:0:0:
160,72,174660,5,0,3:0:0:0:
284,104,174882,1,2,0:0:0:0:
252,228,175104,1,8,3:2:0:0:
80,120,175326,1,2,0:0:0:0:
204,152,175548,1,0,3:0:0:0:
172,276,175770,1,2,0:0:0:0:
0,168,175993,1,8,3:2:0:0:
124,200,176215,1,2,0:0:0:0:
92,324,176437,2,0,B|160:292|196:368|264:344,2,180,0|8|0,3:0|3:2|3:0,0:0:0:0:
256,124,177771,5,8,3:2:0:0:
364,188,177993,1,2,0:0:0:0:
364,188,178104,1,0,0:0:0:0:
364,188,178215,2,0,P|408:212|476:240,1,90,0|2,3:0|0:0,0:0:0:0:
444,20,178660,2,0,P|403:38|363:60,1,90,8|2,3:2|0:0,0:0:0:0:
256,124,179104,5,0,3:0:0:0:
364,188,179326,1,2,0:0:0:0:
363,60,179549,1,8,3:2:0:0:
149,188,179771,1,2,0:0:0:0:
257,252,179993,1,0,3:0:0:0:
256,124,180216,1,2,0:0:0:0:
42,252,180437,1,8,3:2:0:0:
150,316,180659,1,2,0:0:0:0:
149,188,180882,2,0,P|232:220|328:224,1,180,0|8,3:0|3:2,0:0:0:0:
500,48,181771,6,0,P|444:56|404:76,1,90,0|2,3:0|0:0,0:0:0:0:
322,224,182215,2,0,P|330:280|350:320,1,90,8|2,3:2|0:0,0:0:0:0:
444,188,182660,5,0,3:0:0:0:
336,124,182882,1,2,0:0:0:0:
228,60,183104,1,8,3:2:0:0:
120,252,183326,1,2,0:0:0:0:
228,188,183548,1,0,3:0:0:0:
336,124,183770,1,2,0:0:0:0:
444,316,183993,1,8,3:2:0:0:
336,252,184215,1,2,0:0:0:0:
228,188,184437,2,0,B|212:120|212:120|224:80|224:80|208:8,1,180,0|8,3:0|0:2,0:0:0:0:
336,252,185327,5,4,3:2:0:0:
228,188,185549,1,2,0:0:0:0:
120,260,185771,1,8,3:2:0:0:
336,252,185993,1,2,0:0:0:0:
329,125,186216,1,0,3:0:0:0:
217,65,186438,1,2,0:0:0:0:
336,252,186660,1,8,3:2:0:0:
441,185,186882,1,2,0:0:0:0:
434,58,187104,5,0,3:0:0:0:
97,81,187549,1,8,3:2:0:0:
441,185,187993,1,0,3:0:0:0:
104,208,188437,1,8,3:2:0:0:
448,312,188882,5,0,3:0:0:0:
352,228,189104,1,2,0:0:0:0:
256,312,189326,1,8,3:2:0:0:
64,228,189549,1,2,0:0:0:0:
160,144,189771,1,0,3:0:0:0:
256,228,189993,1,2,0:0:0:0:
448,144,190215,1,8,3:2:0:0:
352,64,190437,1,2,0:0:0:0:
255,144,190660,2,0,P|174:176|93:141,2,180,0|8|0,3:0|3:2|3:0,0:0:0:0:
336,324,191993,5,8,3:2:0:0:
176,280,192215,1,2,0:0:0:0:
176,280,192326,1,0,0:0:0:0:
176,280,192437,2,0,P|100:256|64:240,1,90,0|2,3:0|0:0,0:0:0:0:
336,236,192882,2,0,P|412:212|448:196,1,90,8|2,3:2|0:0,0:0:0:0:
256,40,193326,5,0,3:0:0:0:
156,20,193549,1,2,0:0:0:0:
188,116,193771,1,8,3:2:0:0:
324,116,193993,1,2,0:0:0:0:
424,96,194216,1,0,3:0:0:0:
392,192,194438,1,2,0:0:0:0:
120,192,194660,1,8,3:2:0:0:
20,172,194883,1,2,0:0:0:0:
52,267,195104,2,0,P|140:292|212:232,1,180,0|8,3:0|3:2,0:0:0:0:
460,117,195993,6,0,P|392:105|352:93,1,90,0|2,3:0|0:0,0:0:0:0:
256,184,196437,1,8,3:2:0:0:
460,117,196660,1,2,0:0:0:0:
440,224,196882,1,0,3:0:0:0:
276,76,197104,1,2,0:0:0:0:
486,7,197326,1,8,3:2:0:0:
359,147,197549,1,2,0:0:0:0:
179,91,197771,6,0,P|184:44|204:8,1,90,4|2,3:2|0:0,0:0:0:0:
256,184,198215,2,0,P|251:231|231:267,1,90,8|2,3:2|0:0,0:0:0:0:
136,296,198660,1,0,3:0:0:0:
136,296,198882,1,2,0:0:0:0:
180,91,199104,1,8,3:2:0:0:
219,71,199215,1,0,0:0:0:0:
264,66,199326,1,2,0:0:0:0:
307,77,199437,1,0,0:0:0:0:
344,103,199548,5,4,3:2:0:0:
356,212,199771,1,2,0:0:0:0:
256,168,199993,1,8,3:2:0:0:
38,73,200215,1,2,0:0:0:0:
52,200,200438,1,0,3:0:0:0:
154,124,200660,1,2,0:0:0:0:
371,360,200882,1,8,3:2:0:0:
356,212,201104,2,0,L|292:260,1,45,2|0,0:0|0:0,0:0:0:0:
236,300,201326,6,0,P|183:293|120:280,1,90,0|0,3:0|0:0,0:0:0:0:
276,84,201771,2,0,P|328:90|392:104,1,90,8|0,3:2|0:0,0:0:0:0:
161,83,202215,2,0,P|108:76|45:63,1,90,0|0,3:0|0:0,0:0:0:0:
351,301,202660,2,0,P|403:307|467:321,1,90,8|0,3:2|0:0,0:0:0:0:
256,372,203104,5,0,3:0:0:0:
244,256,203326,1,2,0:0:0:0:
232,140,203549,1,8,3:2:0:0:
351,301,203771,1,2,0:0:0:0:
337,164,203993,1,0,3:0:0:0:
323,28,204216,1,2,0:0:0:0:
148,328,204437,1,8,3:2:0:0:
132,172,204659,1,2,0:0:0:0:
117,18,204882,6,0,P|184:32|224:36,1,90,0|0,3:0|0:0,0:0:0:0:
42,178,205326,2,0,P|110:174|150:167,1,90,8|0,3:2|0:0,0:0:0:0:
148,328,205771,2,0,P|197:298|244:277,1,90,0|0,3:0|0:0,0:0:0:0:
380,212,206215,5,8,3:2:0:0:
360,48,206437,1,2,0:0:0:0:
360,48,206549,1,0,0:0:0:0:
360,48,206660,2,0,P|336:108|316:144,1,90,0|2,3:0|0:0,0:0:0:0:
187,130,207104,2,0,P|167:90|152:48,1,90,8|2,3:2|0:0,0:0:0:0:
256,16,207549,5,0,3:0:0:0:
360,48,207771,1,2,0:0:0:0:
412,144,207993,1,8,3:2:0:0:
256,384,208215,1,2,0:0:0:0:
134,330,208437,1,0,3:0:0:0:
73,218,208659,1,2,0:0:0:0:
256,16,208882,1,8,3:2:0:0:
394,59,209104,1,2,0:0:0:0:
464,186,209326,2,0,B|400:240|352:172|288:220,1,180,0|8,3:0|3:2,0:0:0:0:
49,365,210215,6,0,P|93:366|133:345,1,90,0|2,3:0|0:0,0:0:0:0:
100,170,210660,2,0,P|55:168|15:189,1,90,8|2,3:2|0:0,0:0:0:0:
74,267,211104,5,0,3:0:0:0:
172,240,211326,1,2,0:0:0:0:
100,170,211549,1,8,3:2:0:0:
316,380,211771,1,2,0:0:0:0:
270,213,211993,1,0,3:0:0:0:
146,337,212215,1,2,0:0:0:0:
440,256,212437,1,8,3:2:0:0:
223,42,212660,1,2,0:0:0:0:
146,337,212882,2,0,B|224:344|224:344|256:328|256:328|324:336,1,180,0|8,3:0|3:2,0:0:0:0:
452,112,213771,5,4,3:2:0:0:
366,47,213993,1,2,0:0:0:0:
328,148,214215,1,8,3:2:0:0:
183,206,214437,1,2,0:0:0:0:
227,324,214659,1,0,3:0:0:0:
328,248,214881,1,2,0:0:0:0:
184,108,215104,1,8,3:2:0:0:
68,21,215326,2,0,L|28:40,1,45,2|0,0:0|0:0,0:0:0:0:
18,155,215549,6,0,L|10:244,1,90,0|0,3:0|0:0,0:0:0:0:
176,208,215993,2,0,L|168:297,1,90,8|0,3:2|0:0,0:0:0:0:
336,176,216437,2,0,L|343:86,1,90,0|0,3:0|0:0,0:0:0:0:
494,229,216882,2,0,L|501:139,1,90,8|0,3:2|0:0,0:0:0:0:
444,48,217326,5,0,3:0:0:0:
343,86,217549,1,2,0:0:0:0:
242,124,217771,1,8,3:2:0:0:
303,335,217993,1,2,0:0:0:0:
322,209,218216,1,0,3:0:0:0:
343,86,218438,1,2,0:0:0:0:
100,28,218660,1,8,3:2:0:0:
212,117,218883,1,2,0:0:0:0:
322,209,219104,6,0,L|432:200,1,90,0|0,3:0|0:0,0:0:0:0:
96,224,219549,2,0,L|-14:233,1,90,8|0,3:2|0:0,0:0:0:0:
332,308,219993,2,0,L|442:299,1,90,0|0,3:0|0:0,0:0:0:0:
488,164,220437,5,8,3:2:0:0:
332,76,220660,1,2,0:0:0:0:
332,76,220771,1,0,0:0:0:0:
332,76,220882,2,0,L|421:83,1,90,0|2,3:0|0:0,0:0:0:0:
192,220,221326,2,0,L|184:130,1,90,8|2,3:2|0:0,0:0:0:0:
320,220,221771,5,0,3:0:0:0:
256,296,221993,1,2,0:0:0:0:
192,220,222215,1,8,3:2:0:0:
384,144,222437,1,2,0:0:0:0:
256,296,222659,1,0,3:0:0:0:
128,144,222882,1,2,0:0:0:0:
448,68,223104,1,8,3:2:0:0:
256,296,223326,1,2,0:0:0:0:
64,68,223549,2,0,B|140:56|140:56|164:36|164:36|240:24,1,180,0|8,3:0|3:2,0:0:0:0:
460,208,224437,5,0,3:0:0:0:
448,316,224660,1,2,0:0:0:0:
340,304,224882,1,8,3:2:0:0:
44,148,225104,1,2,0:0:0:0:
59,274,225326,1,0,3:0:0:0:
185,260,225548,1,2,0:0:0:0:
488,88,225771,1,8,3:2:0:0:
470,231,225994,1,2,0:0:0:0:
327,215,226215,6,0,P|324:168|328:124,1,90,4|2,3:2|0:0,0:0:0:0:
185,169,226660,2,0,P|188:216|184:260,1,90,8|2,3:2|0:0,0:0:0:0:
384,286,227104,1,0,3:0:0:0:
256,360,227326,1,2,0:0:0:0:
256,212,227549,1,8,3:2:0:0:
256,168,227660,1,0,0:0:0:0:
256,124,227771,1,2,0:0:0:0:
256,80,227882,1,0,0:0:0:0:
256,36,227993,5,4,3:2:0:0:
