osu file format v14

[General]
AudioFilename: sEE NEW THE WORLD, SHE KNEW THE WORLD - CYTOKINE Remix - itori.mp3
AudioLeadIn: 0
PreviewTime: 71549
Countdown: 0
SampleSet: Soft
StackLeniency: 0.3
Mode: 0
LetterboxInBreaks: 0
WidescreenStoryboard: 0

[Editor]
DistanceSpacing: 1
BeatDivisor: 4
GridSize: 4
TimelineZoom: 1

[Metadata]
Title:sEE NEW THE WORLD, SHE KNEW THE WORLD - CYTOKINE Remix
TitleUnicode:sEE NEW THE WORLD, SHE KNEW THE WORLD - CYTOKINE Remix
Artist:CYTOKINE
ArtistUnicode:CYTOKINE
Creator:Frey
Version:hARD
Source:東方Project
Tags:th11 BACKFLASH Audibility itori Touhou Zun Comiket 80 C80 隣人 Linjin 東方地霊殿 Subterranean Animism ハルトマンの妖怪少女 Hartmann's Youkai Girl 古明地 こいし Komeiji Koishi
BeatmapID:955735
BeatmapSetID:442378

[Difficulty]
HPDrainRate:5.5
CircleSize:4
OverallDifficulty:6
ApproachRate:7
SliderMultiplier:1.6
SliderTickRate:1

[Events]
//Background and Video events
0,0,"komeji.jpg",0,0
//Break Periods
2,29081,42204
2,128637,141760
//Storyboard Layer 0 (Background)
//Storyboard Layer 1 (Fail)
//Storyboard Layer 2 (Pass)
//Storyboard Layer 3 (Foreground)
//Storyboard Sound Samples

[TimingPoints]
438,444.444444444444,4,2,0,80,1,0
99993,-90.9090909090909,4,2,0,85,0,1
128437,-100,4,2,0,80,0,0
199549,-90.9090909090909,4,2,0,85,0,1
227993,-100,4,2,0,80,0,0

[Colours]
Combo1 : 170,143,177
Combo2 : 45,125,210
Combo3 : 225,75,125
Combo4 : 255,176,145
Combo5 : 87,255,171

[HitObjects]
4,68,438,5,4,0:0:0:0:
88,48,660,1,0,0:0:0:0:
132,124,882,2,0,P|184:144|228:148,1,80,2|0,0:0|0:0,0:0:0:0:
344,88,1326,1,0,0:0:0:0:
256,72,1549,1,0,0:0:0:0:
207,147,1771,2,0,L|200:232,1,80,2|0,0:0|0:0,0:0:0:0:
280,320,2215,6,0,L|295:153,1,160,0|2,0:0|0:0,0:0:0:0:
440,64,3104,2,0,P|444:136|468:228,1,160,0|2,0:0|0:0,0:0:0:0:
280,320,3993,6,0,L|184:332,1,80,0|0,0:0|0:0,0:0:0:0:
136,272,4437,2,0,P|96:276|48:264,1,80,2|0,0:0|0:0,0:0:0:0:
104,156,4882,2,0,P|144:152|192:164,1,80,0|0,0:0|0:0,0:0:0:0:
256,212,5326,1,2,0:0:0:0:
330,160,5549,1,0,0:0:0:0:
330,160,5771,6,0,B|408:136|412:176|492:144,2,160,0|2|0,0:0|0:0|0:0,0:0:0:0:
256,320,7104,1,2,0:0:0:0:
180,276,7326,1,0,0:0:0:0:
180,276,7437,1,0,0:0:0:0:
180,276,7549,6,0,P|172:232|172:176,1,80,0|0,0:0|0:0,0:0:0:0:
92,155,7993,2,0,P|122:129|155:108,1,80,2|0,0:0|0:0,0:0:0:0:
151,18,8437,2,0,P|188:31|224:49,1,80,0|0,0:0|0:0,0:0:0:0:
300,100,8882,1,2,0:0:0:0:
420,56,9104,1,0,0:0:0:0:
400,184,9326,6,0,L|300:188,1,80,0|0,0:0|0:0,0:0:0:0:
220,103,9771,2,0,L|300:100,1,80,2|0,0:0|0:0,0:0:0:0:
427,97,10215,2,0,P|483:150|478:227,1,160,0|2,0:0|0:0,0:0:0:0:
348,348,11104,5,0,0:0:0:0:
288,284,11326,1,0,0:0:0:0:
200,292,11549,1,2,0:0:0:0:
140,228,11771,1,0,0:0:0:0:
140,228,11993,2,0,P|140:188|136:144,1,80,0|0,0:0|0:0,0:0:0:0:
284,204,12437,2,0,P|284:244|288:288,1,80,2|0,0:0|0:0,0:0:0:0:
396,256,12882,5,0,0:0:0:0:
388,168,13104,1,0,0:0:0:0:
316,116,13326,2,0,P|272:128|228:132,1,80,2|0,0:0|0:0,0:0:0:0:
160,88,13771,2,0,P|116:72|20:136,1,160,0|2,0:0|0:0,0:0:0:0:
92,288,14660,6,0,L|208:276,1,80,4|0,0:0|0:0,0:0:0:0:
248,328,15104,1,2,0:0:0:0:
256,240,15326,1,0,0:0:0:0:
380,219,15549,1,0,0:0:0:0:
336,336,15771,1,0,0:0:0:0:
256,240,15993,2,0,P|248:184|236:148,1,80,2|0,0:0|0:0,0:0:0:0:
164,119,16437,6,0,P|227:76|302:98,1,160,0|2,0:0|0:0,0:0:0:0:
452,192,17326,2,0,P|458:110|472:16,1,160,0|2,0:0|0:0,0:0:0:0:
364,180,18215,5,0,0:0:0:0:
396,260,18437,1,0,0:0:0:0:
452,192,18660,1,2,0:0:0:0:
420,112,18882,1,0,0:0:0:0:
320,60,19104,2,0,P|272:76|232:80,1,80,0|0,0:0|0:0,0:0:0:0:
144,28,19549,2,0,P|108:20|36:20,1,80,2|0,0:0|0:0,0:0:0:0:
28,156,19993,6,0,P|100:168|164:104,2,160,0|2|0,3:2|3:2|3:2,0:0:0:0:
192,216,21326,1,2,0:0:0:0:
256,152,21549,1,0,0:0:0:0:
256,152,21660,1,0,0:0:0:0:
256,152,21771,6,0,P|252:104|252:52,1,80,4|0,0:0|0:0,0:0:0:0:
336,192,22215,2,0,P|332:152|331:112,1,80,2|0,3:2|0:0,0:0:0:0:
416,232,22660,2,0,P|412:192|411:152,1,80,0|0,0:0|0:0,0:0:0:0:
492,192,23104,1,2,3:2:0:0:
464,312,23326,1,0,0:0:0:0:
344,280,23549,6,0,P|300:277|248:288,1,80,0|0,0:0|0:0,0:0:0:0:
184,316,23993,2,0,P|144:321|104:319,1,80,2|0,3:2|0:0,0:0:0:0:
52,212,24437,2,0,P|132:192|208:244,1,160,0|2,0:0|3:2,0:0:0:0:
312,92,25326,6,0,L|204:108,1,80,0|0,3:0|0:0,0:0:0:0:
144,116,25771,2,0,L|128:8,1,80,2|0,3:2|0:0,0:0:0:0:
44,52,26215,1,0,3:0:0:0:
44,52,26437,1,0,0:0:0:0:
0,156,26660,1,2,3:2:0:0:
0,156,26882,1,0,0:0:0:0:
88,228,27104,6,0,P|136:228|180:240,1,80,4|0,3:2|0:0,0:0:0:0:
216,160,27549,2,0,P|255:160|294:152,1,80,2|0,3:2|0:0,0:0:0:0:
376,120,27993,1,0,3:0:0:0:
448,64,28215,1,0,0:0:0:0:
460,152,28437,1,2,3:2:0:0:
462,171,28548,1,0,0:0:0:0:
465,191,28659,1,0,0:0:0:0:
471,210,28770,1,0,0:0:0:0:
478,229,28881,5,4,3:2:0:0:
404,208,43104,5,4,3:2:0:0:
384,292,43326,1,0,0:0:0:0:
319,231,43549,2,0,P|318:192|332:155,1,80,8|0,3:2|0:0,0:0:0:0:
384,84,43993,1,0,0:0:0:0:
276,56,44215,1,0,0:0:0:0:
212,148,44437,2,0,L|104:160,1,80,8|0,3:2|0:0,0:0:0:0:
20,67,44882,6,0,L|100:76,1,80,0|0,3:0|0:0,0:0:0:0:
132,156,45326,1,8,3:2:0:0:
188,60,45549,2,0,L|184:20,2,40,0|0|0,0:0|0:0|0:0,0:0:0:0:
288,108,45993,1,0,0:0:0:0:
372,80,46215,2,0,P|364:132|368:176,1,80,8|0,3:2|0:0,0:0:0:0:
372,180,46549,1,0,3:0:0:0:
384,196,46660,6,0,L|472:184,1,80,0|0,3:0|0:0,0:0:0:0:
436,268,47104,2,0,L|356:278,1,80,8|0,3:2|0:0,0:0:0:0:
255,366,47549,2,0,P|268:328|268:288,1,80,0|0,0:0|0:0,0:0:0:0:
180,272,47993,2,0,P|167:310|167:350,1,80,8|0,3:2|0:0,0:0:0:0:
255,366,48437,5,0,3:0:0:0:
344,296,48660,1,0,0:0:0:0:
272,212,48882,2,0,P|224:208|160:196,1,80,8|0,3:2|0:0,0:0:0:0:
172,196,49215,1,0,0:0:0:0:
156,184,49326,2,0,P|120:180|76:192,1,80
0,92,49771,1,8,3:2:0:0:
0,92,49993,1,8,3:2:0:0:
60,28,50215,6,0,P|96:32|139:19,1,80,4|0,3:2|0:0,0:0:0:0:
196,88,50660,2,0,P|239:90|288:108,1,80,8|0,3:2|0:0,0:0:0:0:
340,40,51104,1,0,0:0:0:0:
444,0,51326,1,0,0:0:0:0:
428,112,51549,2,0,P|420:152|416:208,1,80,8|0,3:2|0:0,0:0:0:0:
408,276,51993,5,0,3:0:0:0:
340,332,52215,1,0,0:0:0:0:
256,300,52437,1,8,3:2:0:0:
188,356,52660,1,0,0:0:0:0:
188,356,52771,1,0,0:0:0:0:
188,356,52882,2,0,P|176:304|168:244,1,80,0|0,0:0|0:0,0:0:0:0:
67,217,53326,2,0,P|77:256|84:296,1,80,8|0,3:2|0:0,0:0:0:0:
152,196,53771,5,0,3:0:0:0:
92,132,53993,1,0,0:0:0:0:
8,152,54215,1,8,3:2:0:0:
67,217,54437,2,0,L|51:265,2,40
152,196,54882,1,0,0:0:0:0:
236,176,55104,2,0,L|336:192,1,80,8|0,3:2|0:0,0:0:0:0:
395,107,55549,6,0,P|380:71|382:31,1,80,4|0,3:2|0:0,0:0:0:0:
468,56,55993,1,8,3:2:0:0:
508,160,56215,1,0,0:0:0:0:
508,160,56326,1,0,0:0:0:0:
508,160,56437,2,0,L|408:196,1,80,0|0,0:0|0:0,0:0:0:0:
364,248,56882,2,0,P|324:233|284:236,1,80,8|0,3:2|3:0,0:0:0:0:
268,244,57215,1,0,0:0:0:0:
248,252,57326,6,0,P|208:253|171:239,1,80,4|2,3:2|0:0,0:0:0:0:
116,308,57771,2,0,L|28:316,1,80,8|2,3:2|0:0,0:0:0:0:
24,188,58215,2,0,L|103:180,1,80,0|2,3:2|0:0,0:0:0:0:
180,140,58660,1,8,3:2:0:0:
200,56,58882,1,2,0:0:0:0:
264,168,59104,6,0,P|276:216|272:264,1,80,0|2,3:0|0:0,0:0:0:0:
176,300,59549,1,8,3:2:0:0:
116,204,59771,1,2,0:0:0:0:
116,204,59882,1,0,0:0:0:0:
116,204,59993,2,0,P|104:156|108:108,1,80,0|2,3:0|0:0,0:0:0:0:
148,48,60437,2,0,L|236:36,1,80,8|2,3:2|0:0,0:0:0:0:
284,104,60882,6,0,L|363:114,1,80,0|2,3:0|0:0,0:0:0:0:
448,96,61326,1,8,3:2:0:0:
500,168,61549,1,2,0:0:0:0:
500,168,61660,1,0,0:0:0:0:
500,168,61771,2,0,P|488:228|488:268,1,80,0|2,3:0|0:0,0:0:0:0:
416,300,62215,2,0,L|337:290,1,80,8|2,3:2|0:0,0:0:0:0:
257,210,62660,6,0,P|295:210|336:200,1,80,0|2,3:0|0:0,0:0:0:0:
416,160,63104,1,8,3:2:0:0:
487,246,63326,1,2,0:0:0:0:
487,246,63437,1,0,0:0:0:0:
487,246,63549,2,0,P|492:304|500:344,1,80,0|2,3:0|0:0,0:0:0:0:
428,380,63993,2,0,P|375:355|336:342,1,80,8|2,3:2|0:0,0:0:0:0:
256,312,64437,5,4,3:2:0:0:
172,344,64660,1,2,0:0:0:0:
108,284,64882,2,0,P|100:236|104:196,1,80,8|2,3:2|0:0,0:0:0:0:
152,132,65326,1,0,3:0:0:0:
232,168,65549,1,2,0:0:0:0:
102,204,65771,2,0,L|18:196,1,80,8|2,3:2|0:0,0:0:0:0:
0,72,66215,6,0,L|80:80,1,80,0|2,3:0|0:0,0:0:0:0:
152,132,66660,2,0,P|200:100|236:88,1,80,8|2,3:2|0:0,0:0:0:0:
240,88,66993,1,0,0:0:0:0:
260,88,67104,2,0,P|312:100|360:100,1,80,0|2,3:0|0:0,0:0:0:0:
444,28,67549,2,0,P|463:62|468:102,1,80,8|2,3:2|0:0,0:0:0:0:
452,188,67993,5,0,3:0:0:0:
372,220,68215,1,2,0:0:0:0:
292,184,68437,2,0,P|256:176|200:176,1,80,8|2,3:2|0:0,0:0:0:0:
192,176,68771,1,0,0:0:0:0:
172,180,68882,2,0,P|124:188|76:184,1,80,0|2,3:0|0:0,0:0:0:0:
52,308,69326,2,0,P|100:300|148:304,1,80,8|2,3:2|0:0,0:0:0:0:
256,328,69771,5,0,3:0:0:0:
336,296,69993,1,2,0:0:0:0:
376,216,70215,1,8,3:2:0:0:
336,136,70437,1,2,0:0:0:0:
336,136,70549,1,0,0:0:0:0:
336,136,70660,2,0,L|240:148,1,80,0|2,3:0|0:0,0:0:0:0:
228,228,71104,1,8,3:2:0:0:
336,296,71326,1,2,0:0:0:0:
416,260,71549,6,0,P|420:200|424:164,1,80,4|2,3:2|0:0,0:0:0:0:
428,92,71993,1,8,3:2:0:0:
428,92,72215,1,2,0:0:0:0:
328,40,72437,1,0,3:0:0:0:
328,40,72660,1,2,0:0:0:0:
256,128,72882,2,0,P|204:144|160:140,1,80,8|2,3:2|0:0,0:0:0:0:
83,56,73326,6,0,P|43:122|61:198,1,160,0|8,3:0|3:2,0:0:0:0:
176,332,74215,2,0,P|256:320|336:332,1,160,0|8,3:0|3:2,0:0:0:0:
450,198,75104,5,0,3:0:0:0:
432,112,75326,1,2,0:0:0:0:
368,172,75549,2,0,P|368:212|392:268,1,80,8|2,3:2|0:0,0:0:0:0:
256,320,75993,2,0,L|256:232,1,80,0|2,3:0|0:0,0:0:0:0:
144,172,76437,2,0,P|144:211|131:249,1,80,8|2,3:2|0:0,0:0:0:0:
64,139,76882,6,0,P|123:90|199:105,2,160,0|8|0,3:0|3:2|3:0,0:0:0:0:
20,312,78215,1,8,3:2:0:0:
88,372,78437,1,2,0:0:0:0:
88,372,78549,1,0,0:0:0:0:
88,372,78660,6,0,P|164:380|188:380,1,80,0|2,3:0|0:0,0:0:0:0:
204,300,79104,2,0,P|252:320|296:324,1,80,8|2,3:2|0:0,0:0:0:0:
368,316,79549,2,0,P|414:292|445:260,1,80,0|2,3:0|0:0,0:0:0:0:
460,188,79993,1,8,3:2:0:0:
416,112,80215,1,2,0:0:0:0:
336,80,80437,6,0,P|324:136|328:180,1,80,0|2,3:0|0:0,0:0:0:0:
187,158,80882,2,0,P|186:118|176:80,1,80,8|2,3:2|0:0,0:0:0:0:
87,64,81326,2,0,P|73:140|115:207,1,160,0|8,3:0|3:2,0:0:0:0:
256,312,82215,6,0,P|312:304|352:304,1,80,0|2,3:0|0:0,0:0:0:0:
376,224,82660,2,0,P|415:222|455:215,1,80,8|2,3:2|0:0,0:0:0:0:
364,136,83104,2,0,P|308:144|268:144,1,80,0|2,3:0|0:0,0:0:0:0:
244,224,83549,2,0,P|204:225|164:232,1,80,8|2,3:2|0:0,0:0:0:0:
84,268,83993,5,0,3:0:0:0:
16,324,84215,1,2,0:0:0:0:
40,192,84437,2,0,P|48:144|48:96,1,80,8|2,3:2|0:0,0:0:0:0:
183,80,84882,2,0,P|153:153|164:232,1,160,0|8,3:0|0:2,0:0:0:0:
347,232,85771,6,0,P|360:180|352:136,1,80,4|2,3:2|0:0,0:0:0:0:
324,72,86215,1,8,3:2:0:0:
256,12,86437,1,2,0:0:0:0:
172,108,86660,2,0,L|180:196,1,80,0|2,3:0|0:0,0:0:0:0:
112,244,87104,2,0,L|24:236,1,80,8|2,3:2|0:0,0:0:0:0:
24,348,87549,6,0,L|207:367,1,160,0|8,3:0|3:2,0:0:0:0:
352,312,88437,2,0,P|328:240|332:148,1,160,0|8,3:0|3:2,0:0:0:0:
504,132,89326,5,0,3:0:0:0:
440,192,89549,1,2,0:0:0:0:
456,280,89771,2,0,P|464:328|476:364,1,80,8|2,3:2|0:0,0:0:0:0:
352,312,90215,2,0,P|344:264|332:228,1,80,0|2,3:0|0:0,0:0:0:0:
292,156,90660,1,8,3:2:0:0:
208,128,90882,1,2,0:0:0:0:
124,156,91104,6,0,P|108:244|140:312,2,160,0|8|0,3:0|3:2|3:0,0:0:0:0:
244,20,92437,1,8,0:0:0:0:
320,68,92660,1,2,0:0:0:0:
320,68,92771,1,0,0:0:0:0:
320,68,92882,6,0,P|360:76|412:76,1,80,0|2,3:0|0:0,0:0:0:0:
488,76,93326,2,0,P|480:116|480:168,1,80,8|2,3:2|0:0,0:0:0:0:
484,244,93771,2,0,P|444:236|392:236,1,80,0|2,3:0|0:0,0:0:0:0:
276,168,94215,2,0,P|315:166|355:158,1,80,8|2,3:2|0:0,0:0:0:0:
316,248,94660,5,0,3:0:0:0:
216,332,94882,1,2,0:0:0:0:
192,204,95104,1,8,3:2:0:0:
276,168,95326,1,2,0:0:0:0:
316,248,95549,2,0,B|388:276|408:224|492:260,1,160,0|8,3:0|3:2,0:0:0:0:
348,376,96437,6,0,L|256:384,1,80,0|2,3:0|0:0,0:0:0:0:
236,300,96882,2,0,L|156:293,1,80,8|2,3:2|0:0,0:0:0:0:
68,284,97326,1,0,3:0:0:0:
40,200,97549,1,2,0:0:0:0:
176,148,97771,1,8,3:2:0:0:
156,293,97993,1,2,0:0:0:0:
156,293,98215,6,0,P|200:280|256:272,1,80,4|2,3:2|0:0,0:0:0:0:
300,216,98660,2,0,P|318:250|320:290,1,80,8|2,3:2|0:0,0:0:0:0:
396,336,99104,2,0,P|440:349|496:357,1,80,0|2,3:0|0:0,0:0:0:0:
512,272,99549,1,8,3:2:0:0:
512,252,99660,1,0,0:0:0:0:
508,232,99771,1,2,0:0:0:0:
504,212,99882,1,0,0:0:0:0:
496,192,99993,6,0,P|452:176|392:168,1,88.000002685547,4|2,3:2|0:0,0:0:0:0:
288,156,100437,2,0,P|340:120|368:88,1,88.000002685547,8|2,3:2|0:0,0:0:0:0:
408,32,100882,1,0,3:0:0:0:
288,4,101104,1,2,0:0:0:0:
216,104,101326,1,8,3:2:0:0:
128,124,101549,1,2,0:0:0:0:
128,124,101660,1,0,0:0:0:0:
128,124,101771,6,0,L|139:36,1,88.000002685547,0|0,3:0|0:0,0:0:0:0:
44,159,102215,2,0,L|56:72,1,88.000002685547,8|0,3:2|0:0,0:0:0:0:
116,211,102660,2,0,L|203:199,1,88.000002685547,0|0,3:0|0:0,0:0:0:0:
339,260,103104,2,0,L|252:272,1,88.000002685547,8|0,3:2|0:0,0:0:0:0:
428,248,103549,5,0,3:0:0:0:
396,328,103771,1,2,0:0:0:0:
339,260,103993,2,0,P|347:188|347:160,1,88.000002685547,8|2,3:2|0:0,0:0:0:0:
428,136,104437,2,0,P|390:112|356:85,1,88.000002685547,0|2,3:0|0:0,0:0:0:0:
256,12,104882,1,8,3:2:0:0:
155,85,105104,1,2,0:0:0:0:
155,85,105326,6,0,P|121:112|84:136,1,88.000002685547,0|0,3:0|0:0,0:0:0:0:
244,212,105771,2,0,P|237:168|235:124,1,88.000002685547,8|0,3:2|0:0,0:0:0:0:
92,224,106216,2,0,P|132:240|171:260,1,88.000002685547,0|0,3:0|0:0,0:0:0:0:
240,316,106660,1,8,3:2:0:0:
296,384,106882,1,2,0:0:0:0:
296,384,106993,1,0,0:0:0:0:
296,384,107104,6,0,L|392:376,1,88.000002685547,0|2,3:0|0:0,0:0:0:0:
508,368,107549,1,8,3:2:0:0:
508,368,107771,1,2,0:0:0:0:
436,268,107993,2,0,P|380:256|340:236,1,88.000002685547,0|2,3:0|0:0,0:0:0:0:
300,172,108437,2,0,P|272:206|264:248,1,88.000002685547,8|2,3:2|0:0,0:0:0:0:
312,324,108882,5,0,3:0:0:0:
352,243,109104,1,2,0:0:0:0:
300,172,109326,2,0,L|180:180,1,88.000002685547,8|2,3:2|0:0,0:0:0:0:
84,120,109771,2,0,P|127:194|108:277,1,176.000005371094,0|8,3:0|3:2,0:0:0:0:
0,144,110660,5,0,3:0:0:0:
20,60,110882,1,2,0:0:0:0:
100,32,111104,2,0,P|142:40|200:48,1,88.000002685547,8|2,3:2|0:0,0:0:0:0:
312,112,111549,2,0,P|268:118|225:126,1,88.000002685547,0|2,3:0|0:0,0:0:0:0:
140,148,111993,1,8,3:2:0:0:
140,148,112215,1,2,0:0:0:0:
88,220,112437,6,0,P|76:264|80:312,1,88.000002685547,0|2,3:0|0:0,0:0:0:0:
204,376,112882,2,0,P|216:332|212:284,1,88.000002685547,8|2,3:2|0:0,0:0:0:0:
196,204,113326,2,0,B|264:192|264:192|312:216|312:216|384:204,1,176.000005371094,0|8,3:0|3:2,0:0:0:0:
488,84,114215,5,4,3:2:0:0:
420,28,114437,1,2,0:0:0:0:
400,116,114660,2,0,L|456:196,1,88.000002685547,8|2,3:2|0:0,0:0:0:0:
392,252,115104,2,0,L|341:179,1,88.000002685547,0|2,3:0|0:0,0:0:0:0:
400,116,115549,1,8,3:2:0:0:
312,96,115771,1,2,0:0:0:0:
312,96,115882,1,0,0:0:0:0:
312,96,115993,6,0,P|268:108|212:108,1,88.000002685547,0|0,3:0|0:0,0:0:0:0:
152,60,116437,2,0,P|108:48|52:48,1,88.000002685547,8|0,3:2|0:0,0:0:0:0:
0,168,116882,2,0,P|44:180|100:180,1,88.000002685547,0|0,3:0|0:0,0:0:0:0:
172,176,117326,2,0,P|180:236|180:284,1,88.000002685547,8|0,3:2|0:0,0:0:0:0:
100,344,117771,5,0,3:0:0:0:
64,264,117993,1,2,0:0:0:0:
86,181,118215,2,0,P|100:156|124:88,1,88.000002685547,8|2,3:2|0:0,0:0:0:0:
136,12,118660,1,0,3:0:0:0:
204,68,118882,1,2,0:0:0:0:
284,104,119104,2,0,P|344:116|392:120,1,88.000002685547,8|2,3:2|0:0,0:0:0:0:
504,28,119549,6,0,P|456:28|408:52,1,88.000002685547,0|0,3:0|0:0,0:0:0:0:
370,118,119993,2,0,P|370:166|394:214,1,88.000002685547,8|0,3:2|0:0,0:0:0:0:
472,224,120437,2,0,P|440:272|396:288,1,88.000002685547,0|0,3:0|0:0,0:0:0:0:
325,268,120882,1,8,3:2:0:0:
296,184,121104,1,2,0:0:0:0:
296,184,121215,1,0,0:0:0:0:
296,184,121326,6,0,L|188:196,1,88.000002685547,0|2,3:0|0:0,0:0:0:0:
160,268,121771,2,0,L|72:277,1,88.000002685547,8|2,3:2|0:0,0:0:0:0:
60,188,122215,2,0,L|50:100,1,88.000002685547,0|2,3:0|0:0,0:0:0:0:
198,106,122660,2,0,L|207:193,1,88.000002685547,8|2,3:2|0:0,0:0:0:0:
256,268,123104,5,0,3:0:0:0:
344,256,123326,1,2,0:0:0:0:
388,176,123549,2,0,P|448:192|500:192,1,88.000002685547,8|2,3:2|0:0,0:0:0:0:
512,112,123993,2,0,P|496:56|376:36,1,176.000005371094,0|8,3:0|3:2,0:0:0:0:
296,176,124882,6,0,L|284:284,1,88.000002685547,0|2,3:0|0:0,0:0:0:0:
216,208,125326,2,0,L|228:100,1,88.000002685547,8|2,3:2|0:0,0:0:0:0:
184,44,125771,1,0,3:0:0:0:
64,60,125993,1,2,0:0:0:0:
16,172,126215,2,0,P|24:236|24:280,1,88.000002685547,8|2,3:2|0:0,0:0:0:0:
28,348,126660,6,0,P|92:340|136:340,1,88.000002685547,4|2,3:2|0:0,0:0:0:0:
204,340,127104,2,0,P|196:276|196:232,1,88.000002685547,8|2,3:2|0:0,0:0:0:0:
224,168,127549,2,0,P|267:165|311:159,1,88.000002685547,0|2,3:0|0:0,0:0:0:0:
396,144,127993,1,8,3:2:0:0:
399,165,128104,1,0,0:0:0:0:
402,187,128215,1,2,0:0:0:0:
404,209,128326,1,0,0:0:0:0:
404,231,128437,5,4,3:2:0:0:
448,96,142660,5,4,3:2:0:0:
360,80,142882,1,0,0:0:0:0:
272,64,143104,2,0,L|280:168,1,80,8|0,0:0|0:0,0:0:0:0:
288,232,143549,1,0,0:0:0:0:
391,165,143771,1,0,0:0:0:0:
397,287,143993,2,0,P|349:292|296:308,1,80,8|0,3:2|0:0,0:0:0:0:
256,360,144437,6,0,P|216:356|177:347,1,80,0|0,3:0|0:0,0:0:0:0:
100,304,144882,1,8,3:2:0:0:
64,224,145104,1,0,0:0:0:0:
64,224,145215,1,0,0:0:0:0:
64,224,145326,2,0,P|56:172|60:128,1,80,0|0,0:0|0:0,0:0:0:0:
160,68,145771,2,0,P|168:120|164:164,1,80,8|0,3:2|0:0,0:0:0:0:
164,168,146104,1,0,3:0:0:0:
160,188,146215,6,0,L|248:200,1,80,0|0,3:0|0:0,0:0:0:0:
284,276,146660,2,0,L|363:265,1,80,8|0,3:2|0:0,0:0:0:0:
384,268,146993,2,0,P|412:224|392:140,1,120,0|0,0:0|0:0,0:0:0:0:
316,92,147549,2,0,P|317:49|324:0,1,80,8|0,3:2|0:0,0:0:0:0:
448,0,147993,6,0,P|446:42|440:92,1,80,0|0,3:0|0:0,0:0:0:0:
405,158,148437,1,8,3:2:0:0:
320,180,148660,1,0,0:0:0:0:
320,180,148771,1,0,0:0:0:0:
320,180,148882,2,0,P|276:186|220:188,1,80,0|0,0:0|0:0,0:0:0:0:
164,108,149326,1,8,3:2:0:0:
164,108,149549,1,8,3:2:0:0:
196,24,149771,6,0,P|230:42|247:78,1,80,4|0,3:2|0:0,0:0:0:0:
240,188,150215,2,0,P|240:252|248:288,1,80,8|0,3:2|0:0,0:0:0:0:
248,288,150549,1,0,0:0:0:0:
256,308,150660,2,0,P|308:328|348:332,1,80,0|0,0:0|0:0,0:0:0:0:
408,372,151104,2,0,P|456:356|500:360,1,80,8|0,3:2|0:0,0:0:0:0:
512,224,151549,6,0,P|464:240|420:236,1,80,0|0,3:0|0:0,0:0:0:0:
352,216,151993,1,8,3:2:0:0:
312,136,152215,1,0,0:0:0:0:
312,136,152326,1,0,0:0:0:0:
312,136,152437,2,0,L|320:44,1,80,0|0,0:0|0:0,0:0:0:0:
225,159,152882,2,0,L|232:80,1,80,8|0,3:2|0:0,0:0:0:0:
156,36,153326,5,0,3:0:0:0:
52,80,153549,1,0,0:0:0:0:
20,188,153771,2,0,P|28:244|28:296,1,80,8|0,3:2|0:0,0:0:0:0:
32,288,154104,1,0,0:0:0:0:
32,308,154215,2,0,P|88:300|140:300,1,80,0|0,0:0|0:0,0:0:0:0:
188,343,154660,2,0,P|200:306|194:267,1,80,8|0,3:2|0:0,0:0:0:0:
124,180,155104,6,0,L|132:96,1,80,4|2,3:2|0:0,0:0:0:0:
256,64,155549,2,0,L|248:148,1,80,0|0,0:0|3:0,0:0:0:0:
264,156,155882,1,0,3:0:0:0:
280,168,155993,1,0,3:0:0:0:
352,216,156215,1,2,0:0:0:0:
452,136,156437,1,8,3:2:0:0:
452,136,156882,6,0,P|464:184|480:224,1,80,4|2,3:2|0:0,0:0:0:0:
374,292,157326,2,0,P|360:254|351:215,1,80,8|2,3:2|0:0,0:0:0:0:
364,127,157771,1,0,3:0:0:0:
452,136,157993,1,2,0:0:0:0:
464,48,158215,2,0,L|360:36,1,80,8|2,3:2|0:0,0:0:0:0:
276,118,158660,6,0,L|196:127,1,80,0|2,3:0|0:0,0:0:0:0:
132,68,159104,1,8,3:2:0:0:
44,76,159326,2,0,L|28:28,2,40,2|0|0,0:0|0:0|3:0,0:0:0:0:
0,152,159771,1,2,0:0:0:0:
20,264,159993,2,0,P|80:268|116:276,1,80,8|2,3:2|0:0,0:0:0:0:
152,200,160437,6,0,P|212:196|248:188,1,80,0|2,3:0|0:0,0:0:0:0:
288,260,160882,2,0,P|292:320|300:356,1,80,8|2,3:2|0:0,0:0:0:0:
304,360,161215,1,0,0:0:0:0:
324,368,161326,2,0,P|363:374|403:375,1,80,0|2,3:0|0:0,0:0:0:0:
448,272,161771,2,0,P|444:212|436:176,1,80,8|2,3:2|0:0,0:0:0:0:
408,112,162215,5,0,3:0:0:0:
324,84,162437,1,2,0:0:0:0:
244,124,162660,1,8,3:2:0:0:
212,208,162882,1,2,0:0:0:0:
212,208,162993,1,0,0:0:0:0:
212,208,163104,2,0,P|140:200|104:200,1,80,0|2,3:0|0:0,0:0:0:0:
48,104,163549,2,0,P|87:109|127:112,1,80,8|2,3:2|0:0,0:0:0:0:
192,48,163993,5,4,3:2:0:0:
104,36,164215,1,2,0:0:0:0:
48,104,164437,2,0,L|52:188,1,80,8|2,3:2|0:0,0:0:0:0:
56,296,164882,1,0,3:0:0:0:
56,296,165104,1,2,0:0:0:0:
140,320,165326,2,0,P|152:272|172:228,1,80,8|2,3:2|0:0,0:0:0:0:
240,196,165771,6,0,P|288:208|332:228,1,80,0|2,3:0|0:0,0:0:0:0:
396,256,166215,1,8,0:2:0:0:
484,236,166437,1,2,0:0:0:0:
484,236,166549,1,0,0:0:0:0:
484,236,166660,2,0,P|468:180|464:144,1,80,0|2,3:0|0:0,0:0:0:0:
512,86,167104,2,0,P|475:72|435:76,1,80,8|2,3:2|0:0,0:0:0:0:
344,164,167549,6,0,L|252:176,1,80,0|2,3:0|0:0,0:0:0:0:
184,136,167993,2,0,P|176:88|184:56,1,80,8|2,3:2|0:0,0:0:0:0:
192,40,168326,1,0,0:0:0:0:
208,28,168437,2,0,L|287:17,1,80,0|2,3:0|0:0,0:0:0:0:
343,86,168882,2,0,P|351:134|343:166,1,80,8|2,3:2|0:0,0:0:0:0:
256,260,169326,5,0,3:0:0:0:
184,208,169549,1,2,0:0:0:0:
140,284,169771,1,8,3:2:0:0:
68,232,169993,1,2,0:0:0:0:
68,232,170104,1,0,0:0:0:0:
68,232,170215,2,0,P|76:172|76:144,1,80,0|2,3:0|0:0,0:0:0:0:
192,128,170660,2,0,P|184:188|184:216,1,80,8|2,3:2|0:0,0:0:0:0:
328,207,171104,6,0,P|326:167|320:128,1,80,4|2,3:2|0:0,0:0:0:0:
376,60,171549,1,8,3:2:0:0:
376,60,171771,1,2,0:0:0:0:
480,108,171993,1,0,3:0:0:0:
480,108,172215,1,2,0:0:0:0:
484,196,172437,2,0,P|485:235|492:275,1,80,8|2,3:2|0:0,0:0:0:0:
428,336,172882,6,0,P|360:316|280:368,1,160,0|8,3:0|3:2,0:0:0:0:
140,260,173771,2,0,P|208:280|288:228,1,160,0|8,3:0|3:2,0:0:0:0:
116,172,174660,6,0,P|75:184|32:192,1,80,0|2,3:0|0:0,0:0:0:0:
56,280,175104,2,0,P|68:320|76:364,1,80,8|2,3:2|0:0,0:0:0:0:
164,372,175549,1,0,3:0:0:0:
236,320,175771,1,2,0:0:0:0:
252,232,175993,2,0,P|259:192|271:154,1,80,8|2,3:2|0:0,0:0:0:0:
320,80,176437,6,0,B|408:64|396:128|480:108,2,160,0|8|0,3:0|3:2|3:0,0:0:0:0:
164,160,177771,1,8,3:2:0:0:
132,240,177993,1,2,0:0:0:0:
132,240,178104,1,0,0:0:0:0:
132,240,178215,6,0,P|93:242|53:250,1,80,0|2,3:0|0:0,0:0:0:0:
0,148,178660,2,0,P|39:145|79:137,1,80,8|2,3:2|0:0,0:0:0:0:
243,149,179104,2,0,P|203:151|163:159,1,80,0|2,3:0|0:0,0:0:0:0:
140,72,179549,1,8,3:2:0:0:
228,60,179771,1,2,0:0:0:0:
312,92,179993,6,0,P|328:128|328:176,1,80,0|2,3:0|0:0,0:0:0:0:
268,232,180437,2,0,P|269:271|285:308,1,80,8|2,3:2|0:0,0:0:0:0:
352,368,180882,2,0,P|432:364|480:300,1,160,0|8,3:0|3:2,0:0:0:0:
408,144,181771,6,0,L|308:128,1,80,0|2,3:0|0:0,0:0:0:0:
244,116,182215,1,8,3:2:0:0:
200,40,182437,1,2,0:0:0:0:
116,60,182660,2,0,P|120:112|136:152,1,80,0|2,3:0|0:0,0:0:0:0:
56,242,183104,2,0,P|55:202|44:164,1,80,8|2,3:2|0:0,0:0:0:0:
8,84,183549,5,0,3:0:0:0:
8,84,183771,1,2,0:0:0:0:
116,60,183993,2,0,P|160:72|200:76,1,80,8|2,3:2|0:0,0:0:0:0:
256,140,184437,2,0,P|308:108|428:128,1,160,0|8,3:0|0:2,0:0:0:0:
436,288,185326,5,4,3:2:0:0:
352,256,185549,1,2,0:0:0:0:
420,200,185771,2,0,P|472:212|508:216,1,80,8|2,3:2|0:0,0:0:0:0:
472,132,186215,1,0,3:0:0:0:
396,84,186437,1,2,0:0:0:0:
308,96,186659,2,0,P|268:101|229:111,1,80,8|2,3:2|0:0,0:0:0:0:
175,179,187104,6,0,P|139:111|173:42,1,160,0|8,3:0|3:2,0:0:0:0:
264,192,187993,2,0,P|297:261|261:329,1,160,0|8,3:0|3:2,0:0:0:0:
88,360,188882,5,0,3:0:0:0:
28,296,189104,2,0,L|20:208,2,80,2|8|2,0:0|3:2|0:0,0:0:0:0:
116,276,189771,2,0,L|108:196,1,80,0|2,3:0|0:0,0:0:0:0:
204,256,190215,2,0,L|196:176,1,80,8|2,3:2|0:0,0:0:0:0:
256,108,190660,6,0,P|300:136|408:128,2,160,0|8|0,3:0|3:2|3:0,0:0:0:0:
84,140,191993,1,8,3:2:0:0:
160,56,192215,1,2,0:0:0:0:
160,56,192326,1,0,0:0:0:0:
160,56,192437,6,0,P|168:116|176:148,1,80,0|2,3:0|0:0,0:0:0:0:
196,220,192882,2,0,P|237:225|308:240,1,80,8|2,3:2|0:0,0:0:0:0:
340,172,193326,1,0,3:0:0:0:
360,260,193549,1,2,0:0:0:0:
296,320,193771,2,0,P|256:312|216:307,1,80,8|2,3:2|0:0,0:0:0:0:
144,359,194215,6,0,P|128:323|131:284,1,80,0|2,3:0|0:0,0:0:0:0:
196,220,194660,2,0,P|199:180|183:144,1,80,8|2,3:2|0:0,0:0:0:0:
104,103,195104,2,0,P|167:59|242:78,1,160,0|8,3:0|3:2,0:0:0:0:
360,208,195993,6,0,L|452:196,1,80,0|2,3:0|0:0,0:0:0:0:
495,101,196437,2,0,L|416:112,1,80,8|2,3:2|0:0,0:0:0:0:
304,128,196882,1,0,3:0:0:0:
304,128,197104,1,2,0:0:0:0:
368,36,197326,1,8,3:2:0:0:
368,36,197549,1,2,0:0:0:0:
415,112,197771,6,0,P|408:152|408:196,1,80,4|2,3:2|0:0,0:0:0:0:
344,252,198215,2,0,P|304:252|264:259,1,80,8|2,3:2|0:0,0:0:0:0:
184,292,198660,2,0,P|120:284|72:288,1,80,0|2,3:0|0:0,0:0:0:0:
48,216,199104,1,8,3:2:0:0:
52,196,199215,1,0,0:0:0:0:
54,176,199326,1,2,0:0:0:0:
55,156,199437,1,0,0:0:0:0:
55,134,199549,6,0,L|144:122,1,88.000002685547,4|2,3:2|0:0,0:0:0:0:
184,44,199993,2,0,L|271:55,1,88.000002685547,8|2,3:2|0:0,0:0:0:0:
352,24,200437,1,0,3:0:0:0:
450,104,200660,1,2,0:0:0:0:
332,148,200882,1,8,3:2:0:0:
244,136,201104,1,2,0:0:0:0:
244,136,201215,1,0,0:0:0:0:
244,136,201326,6,0,P|253:179|256:223,1,88.000002685547,0|0,3:0|0:0,0:0:0:0:
175,187,201771,2,0,P|166:145|164:101,1,88.000002685547,8|0,3:2|0:0,0:0:0:0:
312,80,202215,2,0,P|323:143|323:179,1,88.000002685547,0|0,3:0|0:0,0:0:0:0:
256,223,202660,2,0,P|258:266|267:309,1,88.000002685547,8|0,3:2|0:0,0:0:0:0:
376,364,203104,5,0,3:0:0:0:
448,312,203326,1,2,0:0:0:0:
480,232,203549,2,0,L|384:220,1,88.000002685547,8|2,3:2|0:0,0:0:0:0:
323,166,203993,1,0,3:0:0:0:
368,88,204215,1,2,0:0:0:0:
436,144,204437,1,8,3:2:0:0:
392,221,204660,1,2,0:0:0:0:
308,252,204882,6,0,P|240:244|208:244,1,88.000002685547,0|0,3:0|0:0,0:0:0:0:
184,164,205326,2,0,P|140:170|96:172,1,88.000002685547,8|0,3:2|0:0,0:0:0:0:
43,100,205771,2,0,P|8:176|50:250,1,176.000005371094,0|8,3:0|3:2,0:0:0:0:
128,371,206437,1,2,0:0:0:0:
128,371,206549,1,0,0:0:0:0:
128,372,206660,6,0,L|140:284,1,88.000002685547,0|2,3:0|0:0,0:0:0:0:
212,340,207104,2,0,L|224:252,1,88.000002685547,8|2,3:2|0:0,0:0:0:0:
236,164,207549,1,0,3:0:0:0:
320,136,207771,1,2,0:0:0:0:
384,196,207993,2,0,P|436:176|484:176,1,88.000002685547,8|2,3:2|0:0,0:0:0:0:
464,52,208437,6,0,P|412:72|364:72,1,88.000002685547,0|2,3:0|0:0,0:0:0:0:
320,136,208882,1,8,3:2:0:0:
300,220,209104,1,2,0:0:0:0:
328,304,209326,2,0,B|396:312|396:312|424:332|424:332|496:340,1,176.000005371094,0|8,3:0|3:2,0:0:0:0:
320,384,210215,6,0,L|232:373,1,88.000002685547,0|2,3:0|0:0,0:0:0:0:
156,328,210660,2,0,L|148:236,1,88.000002685547,8|2,3:2|0:0,0:0:0:0:
196,164,211104,2,0,P|252:176|320:180,1,88.000002685547,0|2,3:0|0:0,0:0:0:0:
224,72,211549,2,0,P|180:77|137:87,1,88.000002685547,8|2,3:2|0:0,0:0:0:0:
52,64,211993,5,0,3:0:0:0:
52,64,212215,1,2,0:0:0:0:
8,180,212437,1,8,3:2:0:0:
8,180,212660,1,2,0:0:0:0:
124,224,212882,2,0,P|212:212|296:240,1,176.000005371094,0|8,3:0|3:2,0:0:0:0:
407,103,213771,6,0,P|401:60|399:16,1,88.000002685547,4|2,3:2|0:0,0:0:0:0:
492,124,214215,2,0,P|500:184|500:216,1,88.000002685547,8|2,3:2|0:0,0:0:0:0:
464,292,214660,1,0,3:0:0:0:
412,220,214882,1,2,0:0:0:0:
376,301,215104,1,8,3:2:0:0:
324,229,215326,1,2,0:0:0:0:
324,229,215437,1,0,0:0:0:0:
324,229,215549,6,0,P|272:231|216:240,1,88.000002685547,0|0,3:0|0:0,0:0:0:0:
268,152,215993,2,0,P|216:150|160:141,1,88.000002685547,8|0,3:2|0:0,0:0:0:0:
152,252,216437,2,0,P|100:262|47:279,1,88.000002685547,0|0,3:0|0:0,0:0:0:0:
96,129,216882,2,0,P|44:118|-8:101,1,88.000002685547,8|0,3:2|0:0,0:0:0:0:
84,8,217326,5,0,3:0:0:0:
156,64,217549,1,2,0:0:0:0:
180,152,217771,2,0,P|176:208|160:252,1,88.000002685547,8|2,3:2|0:0,0:0:0:0:
256,336,218215,2,0,L|256:248,1,88.000002685547,0|2,3:0|0:0,0:0:0:0:
331,152,218660,2,0,P|333:195|345:238,1,88.000002685547,8|2,3:2|0:0,0:0:0:0:
380,320,219104,6,0,L|476:336,1,88.000002685547,0|0,3:0|0:0,0:0:0:0:
484,248,219549,2,0,L|498:161,1,88.000002685547,8|0,3:2|0:0,0:0:0:0:
472,76,219993,2,0,P|424:84|380:80,1,88.000002685547,0|0,3:0|0:0,0:0:0:0:
304,44,220437,1,8,3:2:0:0:
216,32,220660,1,2,0:0:0:0:
216,32,220771,1,0,0:0:0:0:
216,32,220882,6,0,P|200:100|200:140,1,88.000002685547,0|2,3:0|0:0,0:0:0:0:
116,148,221326,2,0,P|136:214|156:249,1,88.000002685547,8|2,3:2|0:0,0:0:0:0:
87,298,221771,2,0,P|137:345|172:365,1,88.000002685547,0|2,3:0|0:0,0:0:0:0:
240,376,222215,1,8,3:2:0:0:
312,328,222437,1,2,0:0:0:0:
340,244,222660,6,0,P|332:188|336:148,1,88.000002685547,0|2,3:0|0:0,0:0:0:0:
256,64,223104,1,8,3:2:0:0:
256,64,223326,1,2,0:0:0:0:
177,156,223549,2,0,B|184:200|172:244|172:244|160:288|168:336,1,176.000005371094,0|8,3:0|3:2,0:0:0:0:
64,192,224437,6,0,P|60:120|52:80,1,88.000002685547,0|2,3:0|0:0,0:0:0:0:
116,40,224882,2,0,P|188:36|228:28,1,88.000002685547,8|2,3:2|0:0,0:0:0:0:
276,84,225326,1,0,3:0:0:0:
176,160,225549,1,2,0:0:0:0:
292,208,225771,2,0,P|364:212|404:220,1,88.000002685547,8|2,3:2|0:0,0:0:0:0:
448,156,226215,6,0,P|468:204|464:240,1,88.000002685547,4|2,3:2|0:0,0:0:0:0:
399,300,226660,2,0,P|355:293|312:292,1,88.000002685547,8|2,3:2|0:0,0:0:0:0:
232,332,227104,2,0,P|168:344|116:336,1,88.000002685547,0|2,3:0|0:0,0:0:0:0:
80,284,227549,1,8,3:2:0:0:
73,263,227660,1,0,0:0:0:0:
69,241,227771,1,2,0:0:0:0:
68,219,227882,1,0,0:0:0:0:
69,197,227993,5,4,3:2:0:0:
