osu file format v14

[General]
AudioFilename: sEE NEW THE WORLD, SHE KNEW THE WORLD - CYTOKINE Remix - itori.mp3
AudioLeadIn: 0
PreviewTime: 71549
Countdown: 0
SampleSet: Soft
StackLeniency: 0.3
Mode: 0
LetterboxInBreaks: 0
WidescreenStoryboard: 0

[Editor]
DistanceSpacing: 1
BeatDivisor: 4
GridSize: 4
TimelineZoom: 1

[Metadata]
Title:sEE NEW THE WORLD, SHE KNEW THE WORLD - CYTOKINE Remix
TitleUnicode:sEE NEW THE WORLD, SHE KNEW THE WORLD - CYTOKINE Remix
Artist:CYTOKINE
ArtistUnicode:CYTOKINE
Creator:Frey
Version:eASY
Source:東方Project
Tags:th11 BACKFLASH Audibility itori Touhou Zun Comiket 80 C80 隣人 Linjin 東方地霊殿 Subterranean Animism ハルトマンの妖怪少女 Hartmann's Youkai Girl 古明地 こいし Komeiji Koishi
BeatmapID:955734
BeatmapSetID:442378

[Difficulty]
HPDrainRate:3
CircleSize:3
OverallDifficulty:3
ApproachRate:3
SliderMultiplier:1.2
SliderTickRate:1

[Events]
//Background and Video events
0,0,"komeji.jpg",0,0
//Break Periods
2,29081,41664
2,128637,141220
//Storyboard Layer 0 (Background)
//Storyboard Layer 1 (Fail)
//Storyboard Layer 2 (Pass)
//Storyboard Layer 3 (Foreground)
//Storyboard Sound Samples

[TimingPoints]
438,444.444444444444,4,2,0,80,1,0
99993,-100,4,2,0,85,0,1
128437,-100,4,2,0,80,0,0
199549,-100,4,2,0,85,0,1
227993,-100,4,2,0,80,0,0

[Colours]
Combo1 : 170,143,177
Combo2 : 45,125,210
Combo3 : 225,75,125
Combo4 : 255,176,145
Combo5 : 87,255,171

[HitObjects]
64,88,438,6,0,L|196:76,1,120,4|2,0:0|0:0,0:0:0:0:
292,68,1326,2,0,P|272:124|272:192,1,120,0|2,0:0|0:0,0:0:0:0:
328,276,2215,1,0,0:0:0:0:
436,264,2660,1,2,0:0:0:0:
484,168,3104,2,0,P|440:168|348:128,1,120,0|2,0:0|0:0,0:0:0:0:
292,68,3993,6,0,P|224:76|176:116,1,120,0|2,0:0|0:0,0:0:0:0:
136,204,4882,2,0,P|132:261|144:328,1,120,0|2,0:0|0:0,0:0:0:0:
240,368,5771,2,0,L|368:376,2,120,0|2|0,0:0|0:0|0:0,0:0:0:0:
228,260,7104,1,2,0:0:0:0:
136,204,7549,6,0,L|16:211,1,120,0|2,0:0|0:0,0:0:0:0:
4,104,8437,2,0,P|28:44|76:28,1,120,0|2,0:0|0:0,0:0:0:0:
180,56,9326,2,0,P|232:64|300:68,1,120,0|2,0:0|0:0,0:0:0:0:
400,108,10215,1,0,0:0:0:0:
316,176,10660,1,2,0:0:0:0:
208,164,11104,6,0,P|215:214|216:284,1,120,0|2,0:0|0:0,0:0:0:0:
132,352,11993,2,0,P|80:344|44:280,1,120,0|2,0:0|0:0,0:0:0:0:
64,184,12882,1,0,0:0:0:0:
140,108,13326,1,2,0:0:0:0:
244,80,13771,2,0,L|380:96,1,120,0|2,0:0|0:0,0:0:0:0:
464,60,14660,6,0,P|453:125|448:196,1,120,4|2,0:0|0:0,0:0:0:0:
436,288,15549,2,0,P|368:280|320:300,1,120,0|2,0:0|0:0,0:0:0:0:
236,360,16437,2,0,P|176:376|104:364,1,120,0|2,0:0|0:0,0:0:0:0:
24,320,17326,1,0,0:0:0:0:
20,212,17771,1,2,0:0:0:0:
104,148,18215,5,0,0:0:0:0:
212,167,18660,2,0,P|228:110|232:50,2,120,2|0|2,0:0|0:0|0:0,0:0:0:0:
140,248,19993,2,0,P|192:276|250:270,2,120,0|2|0,3:2|3:2|3:2,0:0:0:0:
104,148,21326,1,2,0:0:0:0:
184,76,21771,6,0,L|316:68,1,120,4|2,0:0|3:2,0:0:0:0:
360,160,22660,2,0,P|423:153|480:180,1,120,0|2,0:0|3:2,0:0:0:0:
460,284,23549,2,0,P|396:290|340:264,1,120,0|2,0:0|3:2,0:0:0:0:
268,192,24437,1,0,0:0:0:0:
164,224,24882,1,2,3:2:0:0:
156,332,25326,6,0,P|220:336|280:352,1,120,0|2,3:0|3:2,0:0:0:0:
345,268,26215,2,0,P|349:204|365:144,1,120,0|2,3:0|3:2,0:0:0:0:
439,71,27104,2,0,P|387:44|328:47,1,120,4|2,3:2|3:2,0:0:0:0:
256,128,27993,2,0,P|152:160|52:80,1,240,0|4,3:0|3:2,0:0:0:0:
224,80,43104,6,0,L|104:88,1,120,4|8,3:2|3:2,0:0:0:0:
148,188,43993,1,0,0:0:0:0:
256,180,44437,1,8,3:2:0:0:
344,116,44882,2,0,P|408:136|476:136,1,120,0|8,3:0|3:2,0:0:0:0:
500,176,45549,2,0,P|500:252|472:296,1,120,0|0,3:0|0:0,0:0:0:0:
436,320,46215,1,8,3:2:0:0:
332,356,46660,6,0,P|272:364|212:368,1,120,0|8,3:0|3:2,0:0:0:0:
112,328,47549,2,0,P|104:268|100:208,1,120,0|8,0:0|3:2,0:0:0:0:
136,104,48437,2,0,P|192:88|256:128,1,120,0|8,3:0|3:2,0:0:0:0:
280,156,49104,2,0,P|332:181|389:165,1,120,0|0,3:0|0:0,0:0:0:0:
432,132,49771,2,0,L|440:60,1,60,8|8,3:2|3:2,0:0:0:0:
444,20,50215,5,4,3:2:0:0:
340,0,50660,1,8,3:2:0:0:
260,72,51104,2,0,L|141:91,1,120,0|8,0:0|3:2,0:0:0:0:
36,80,51993,2,0,L|16:212,1,120,0|8,3:0|3:2,0:0:0:0:
40,248,52660,2,0,P|100:240|160:280,1,120,0|0,3:0|0:0,0:0:0:0:
164,320,53326,1,8,3:2:0:0:
256,380,53771,6,0,L|376:368,1,120,0|8,3:0|3:2,0:0:0:0:
416,332,54437,2,0,P|391:278|401:220,1,120,0|0,3:0|0:0,0:0:0:0:
432,176,55104,1,8,3:2:0:0:
507,99,55549,2,0,P|456:69|397:72,1,120,4|8,3:2|3:2,0:0:0:0:
328,156,56437,1,0,0:0:0:0:
224,188,56882,1,8,3:2:0:0:
128,140,57326,6,0,P|120:80|140:16,1,120,4|8,3:2|3:2,0:0:0:0:
231,71,58215,2,0,P|239:131|219:195,1,120,0|8,3:2|3:2,0:0:0:0:
132,244,59104,2,0,L|8:260,1,120,0|8,3:0|3:2,0:0:0:0:
20,152,59993,1,0,3:0:0:0:
128,140,60437,1,8,3:2:0:0:
228,184,60882,6,0,P|220:244|228:304,1,120,0|8,3:0|3:2,0:0:0:0:
300,380,61771,2,0,P|356:356|420:368,1,120,0|8,3:0|3:2,0:0:0:0:
472,272,62660,2,0,P|480:212|472:152,1,120,0|8,3:0|3:2,0:0:0:0:
436,52,63549,1,0,3:0:0:0:
328,36,63993,1,8,3:2:0:0:
364,136,64437,6,0,P|304:140|244:152,1,120,4|8,3:2|3:2,0:0:0:0:
188,60,65326,2,0,P|128:56|69:44,1,120,0|8,3:0|3:2,0:0:0:0:
76,152,66215,2,0,P|72:211|60:270,1,120,0|8,3:0|3:2,0:0:0:0:
0,360,67104,2,0,P|55:379|112:364,1,120,0|8,3:0|3:2,0:0:0:0:
204,304,67993,6,0,P|256:288|336:296,1,120,0|8,3:0|3:2,0:0:0:0:
416,340,68882,1,0,3:0:0:0:
512,296,69326,1,8,3:2:0:0:
500,188,69771,2,0,P|492:120|488:48,1,120,0|8,3:0|3:2,0:0:0:0:
392,116,70660,2,0,P|396:175|403:235,1,120,0|8,3:0|3:2,0:0:0:0:
408,288,71326,1,2,0:0:0:0:
416,340,71549,6,0,P|348:324|280:328,1,120,4|8,3:2|3:2,0:0:0:0:
212,264,72437,2,0,P|144:280|76:276,1,120,0|8,3:0|3:2,0:0:0:0:
16,200,73326,2,0,P|32:148|92:116,1,120,0|8,3:0|3:2,0:0:0:0:
192,108,74215,2,0,P|244:122|278:181,1,120,0|8,3:0|3:2,0:0:0:0:
212,264,75104,5,0,3:0:0:0:
107,234,75549,2,0,P|99:162|83:110,1,120,8|0,3:2|3:0,0:0:0:0:
148,32,76437,1,8,3:2:0:0:
256,44,76882,2,0,P|332:56|400:64,2,120,0|8|0,3:0|3:2|3:0,0:0:0:0:
192,128,78215,1,8,3:2:0:0:
220,232,78660,6,0,P|272:216|348:220,1,120,0|8,3:0|3:2,0:0:0:0:
440,252,79549,2,0,P|437:192|454:134,1,120,0|8,3:0|3:2,0:0:0:0:
508,44,80437,1,0,3:0:0:0:
408,4,80882,1,8,3:2:0:0:
354,94,81326,2,0,L|212:104,1,120,0|8,3:0|3:2,0:0:0:0:
144,40,82215,6,0,L|24:31,1,120,0|8,3:0|3:2,0:0:0:0:
16,140,83104,2,0,L|135:148,1,120,0|8,3:0|3:2,0:0:0:0:
236,104,83993,2,0,P|247:161|223:216,1,120,0|8,3:0|3:2,0:0:0:0:
124,256,84882,1,0,3:0:0:0:
132,364,85326,1,8,0:2:0:0:
240,384,85771,6,0,P|320:372|376:368,1,120,4|8,3:2|3:2,0:0:0:0:
452,312,86660,2,0,P|412:276|400:208,1,120,0|8,3:0|3:2,0:0:0:0:
496,168,87549,1,0,3:0:0:0:
505,63,87993,1,8,3:2:0:0:
408,108,88437,2,0,P|337:121|271:121,1,120,0|8,3:0|3:2,0:0:0:0:
184,112,89326,6,0,P|114:94|54:65,1,120,0|8,3:0|3:2,0:0:0:0:
36,176,90215,2,0,P|91:199|149:212,1,120,0|8,3:0|3:2,0:0:0:0:
256,232,91104,2,0,B|244:280|268:300|256:352,2,120,0|8|0,3:0|3:2|3:0,0:0:0:0:
362,212,92437,1,8,0:0:0:0:
400,112,92882,5,0,3:0:0:0:
292,128,93326,1,8,3:2:0:0:
256,232,93771,2,0,P|216:212|132:220,1,120,0|8,3:0|3:2,0:0:0:0:
59,144,94660,2,0,P|36:198|43:257,1,120,0|8,3:0|3:2,0:0:0:0:
108,344,95549,1,0,3:0:0:0:
216,332,95993,1,8,3:2:0:0:
256,232,96437,6,0,L|268:92,1,120,0|8,3:0|3:2,0:0:0:0:
364,68,97326,2,0,L|353:187,1,120,0|8,3:0|3:2,0:0:0:0:
440,252,98215,1,4,3:2:0:0:
344,300,98660,1,8,3:2:0:0:
256,232,99104,2,0,P|200:228|136:244,1,120,0|8,3:0|3:2,0:0:0:0:
48,300,99993,6,0,P|26:242|32:172,1,120,4|8,3:2|3:2,0:0:0:0:
64,84,100882,1,0,3:0:0:0:
164,120,101326,1,8,3:2:0:0:
220,212,101771,2,0,P|221:271|200:327,1,120,0|8,3:0|3:2,0:0:0:0:
108,380,102660,1,0,3:0:0:0:
44,296,103104,1,8,3:2:0:0:
68,188,103549,6,0,P|119:158|161:115,1,120,0|8,3:0|3:2,0:0:0:0:
260,156,104437,2,0,P|259:215|276:273,1,120,0|8,3:0|3:2,0:0:0:0:
376,316,105326,2,0,P|427:286|469:243,2,120,0|8|0,3:0|3:2|3:0,0:0:0:0:
276,273,106660,1,8,3:2:0:0:
288,380,107104,5,0,3:0:0:0:
188,340,107549,2,0,P|176:284|176:200,1,120,8|0,3:2|3:0,0:0:0:0:
272,168,108437,1,8,3:2:0:0:
380,152,108882,2,0,P|439:153|498:166,1,120,0|8,3:0|3:2,0:0:0:0:
460,268,109771,2,0,P|400:266|341:253,1,120,0|8,3:0|3:2,0:0:0:0:
272,168,110660,6,0,P|260:108|264:48,1,120,0|8,3:0|3:2,0:0:0:0:
372,44,111549,1,0,3:0:0:0:
380,152,111993,1,8,3:2:0:0:
340,253,112437,2,0,P|284:272|220:264,1,120,0|8,3:0|3:2,0:0:0:0:
132,212,113326,2,0,P|72:205|16:224,1,120,0|8,3:0|3:2,0:0:0:0:
28,116,114215,5,4,3:2:0:0:
120,60,114660,1,8,3:2:0:0:
220,100,115104,2,0,P|220:152|228:224,1,120,0|8,3:0|3:2,0:0:0:0:
160,304,115993,2,0,P|108:304|36:312,1,120,0|8,3:0|3:2,0:0:0:0:
12,208,116882,1,0,3:0:0:0:
120,200,117326,1,8,3:2:0:0:
227,219,117771,6,0,P|286:225|346:226,1,120,0|8,3:0|3:2,0:0:0:0:
392,128,118660,2,0,P|444:156|508:164,1,120,0|8,3:0|3:2,0:0:0:0:
452,260,119549,2,0,P|428:308|424:376,2,120,0|8|0,3:0|3:2|3:0,0:0:0:0:
503,164,120882,1,8,3:2:0:0:
460,64,121326,6,0,L|324:80,1,120,0|8,3:0|3:2,0:0:0:0:
272,164,122215,2,0,L|152:149,1,120,0|8,3:0|3:2,0:0:0:0:
48,184,123104,1,0,3:0:0:0:
13,80,123549,1,8,3:2:0:0:
117,45,123993,2,0,L|237:60,1,120,0|8,3:0|3:2,0:0:0:0:
272,164,124882,6,0,P|280:236|268:300,1,120,0|8,3:0|3:2,0:0:0:0:
180,340,125771,2,0,P|172:268|184:204,1,120,0|8,3:0|3:2,0:0:0:0:
180,112,126660,1,4,3:2:0:0:
272,164,127104,1,8,3:2:0:0:
380,172,127549,2,0,P|432:152|456:296,1,240,0|4,3:0|3:2,0:0:0:0:
192,220,142660,6,0,L|204:88,1,120,4|8,3:2|0:0,0:0:0:0:
309,100,143549,2,0,L|320:220,1,120,0|8,0:0|3:2,0:0:0:0:
256,308,144437,2,0,P|184:316|136:332,1,120,0|8,3:0|3:2,0:0:0:0:
96,300,145104,2,0,P|88:228|72:180,1,120,0|0,3:0|0:0,0:0:0:0:
56,132,145771,1,8,3:2:0:0:
164,148,146215,6,0,P|192:116|184:40,1,120,0|8,3:0|3:2,0:0:0:0:
148,4,146882,2,0,P|88:16|20:24,1,120,0|0,3:0|0:0,0:0:0:0:
0,68,147549,1,8,3:2:0:0:
45,168,147993,2,0,P|103:156|163:148,1,120,0|8,3:0|3:2,0:0:0:0:
264,200,148882,1,0,0:0:0:0:
372,180,149326,2,0,P|364:136|364:100,1,60,8|8,3:2|3:2,0:0:0:0:
376,68,149771,6,0,P|448:56|496:96,1,120,4|8,3:2|3:2,0:0:0:0:
496,132,150437,2,0,P|508:216|508:272,1,120,0|0,3:0|0:0,0:0:0:0:
480,296,151104,1,8,3:2:0:0:
380,340,151549,2,0,L|236:328,1,120,0|8,3:0|3:2,0:0:0:0:
164,280,152437,1,0,0:0:0:0:
76,340,152882,1,8,3:2:0:0:
16,252,153326,6,0,P|12:200|32:124,1,120,0|8,3:0|3:2,0:0:0:0:
64,92,153993,2,0,L|183:101,1,120,0|0,3:0|0:0,0:0:0:0:
220,144,154660,1,8,3:2:0:0:
288,60,155104,2,0,L|407:69,1,120,4|0,3:2|0:0,0:0:0:0:
491,137,155993,1,0,3:0:0:0:
423,221,156437,1,8,3:2:0:0:
339,153,156882,6,0,P|316:196|328:272,1,120,4|8,3:2|3:2,0:0:0:0:
412,328,157771,1,0,3:0:0:0:
312,371,158215,1,8,3:2:0:0:
224,308,158660,2,0,L|88:320,1,120,0|8,3:0|3:2,0:0:0:0:
16,256,159549,2,0,P|28:200|28:128,1,120,0|8,3:0|3:2,0:0:0:0:
116,76,160437,6,0,P|124:136|180:184,1,120,0|8,3:0|3:2,0:0:0:0:
256,232,161326,1,0,3:0:0:0:
256,124,161771,1,8,3:2:0:0:
347,177,162215,2,0,P|388:134|396:76,1,120,0|8,3:0|3:2,0:0:0:0:
300,24,163104,1,0,3:0:0:0:
256,124,163549,1,8,3:2:0:0:
256,232,163993,6,0,B|248:297|264:300|256:352,1,120,4|8,3:2|3:2,0:0:0:0:
156,316,164882,2,0,L|24:336,1,120,0|8,3:0|3:2,0:0:0:0:
32,224,165771,2,0,L|150:206,1,120,0|8,3:0|0:2,0:0:0:0:
256,232,166660,2,0,P|328:248|388:244,1,120,0|8,3:0|3:2,0:0:0:0:
456,176,167549,6,0,P|482:229|475:288,1,120,0|8,3:0|3:2,0:0:0:0:
392,352,168437,1,0,3:0:0:0:
373,246,168882,1,8,3:2:0:0:
456,176,169326,2,0,L|428:32,1,120,0|8,3:0|3:2,0:0:0:0:
336,16,170215,1,0,3:0:0:0:
252,84,170660,2,0,L|267:162,1,60,8|2,3:2|0:0,0:0:0:0:
272,196,171104,6,0,P|216:180|144:176,1,120,4|8,3:2|3:2,0:0:0:0:
136,68,171993,2,0,P|78:84|18:88,1,120,0|8,3:0|3:2,0:0:0:0:
0,192,172882,1,0,3:0:0:0:
52,288,173326,1,8,3:2:0:0:
152,332,173771,2,0,P|211:340|271:344,1,120,0|8,3:0|3:2,0:0:0:0:
380,348,174660,6,0,P|376:288|367:228,1,120,0|8,3:0|3:2,0:0:0:0:
260,244,175549,1,0,3:0:0:0:
296,144,175993,1,8,3:2:0:0:
404,132,176437,2,0,P|468:144|528:148,2,120,0|8|0,3:0|3:2|3:0,0:0:0:0:
340,44,177771,1,8,3:2:0:0:
232,60,178215,6,0,P|236:136|248:184,1,120,0|8,3:0|3:2,0:0:0:0:
271,283,179104,2,0,P|217:259|158:265,1,120,0|8,3:0|3:2,0:0:0:0:
200,364,179993,1,0,3:0:0:0:
92,348,180437,1,8,3:2:0:0:
52,248,180882,2,0,L|72:124,1,120,0|8,3:0|3:2,0:0:0:0:
152,55,181771,6,0,P|197:93|256:104,1,120,0|8,3:0|3:2,0:0:0:0:
356,56,182660,1,0,3:0:0:0:
432,132,183104,1,8,3:2:0:0:
380,228,183549,2,0,L|236:240,1,120,0|8,3:0|3:2,0:0:0:0:
172,176,184437,2,0,P|116:192|40:184,1,120,0|8,3:0|0:2,0:0:0:0:
24,84,185326,6,0,P|80:68|156:76,1,120,4|8,3:2|3:2,0:0:0:0:
244,112,186215,1,0,3:0:0:0:
352,128,186660,1,8,3:2:0:0:
460,104,187104,2,0,P|460:172|476:232,1,120,0|8,3:0|3:2,0:0:0:0:
400,300,187993,2,0,P|332:300|272:316,1,120,0|8,3:0|3:2,0:0:0:0:
184,356,188882,5,0,3:0:0:0:
80,328,189326,2,0,P|80:248|96:184,1,120,8|0,3:2|3:0,0:0:0:0:
116,104,190215,1,8,3:2:0:0:
220,72,190660,2,0,P|264:68|344:92,2,120,0|8|0,3:0|3:2|3:0,0:0:0:0:
140,0,191993,1,8,3:2:0:0:
116,104,192437,6,0,L|124:236,1,120,0|8,3:0|3:2,0:0:0:0:
200,300,193326,1,0,3:0:0:0:
312,300,193771,1,8,3:2:0:0:
388,223,194215,2,0,L|396:104,1,120,0|8,3:0|3:2,0:0:0:0:
320,28,195104,2,0,P|240:44|196:24,1,120,0|8,3:0|3:2,0:0:0:0:
124,100,195993,6,0,P|175:131|233:143,1,120,0|8,3:0|3:2,0:0:0:0:
296,232,196882,1,0,3:0:0:0:
212,296,197326,1,8,3:2:0:0:
147,212,197771,2,0,P|113:260|108:319,1,120,4|8,3:2|3:2,0:0:0:0:
4,340,198660,2,0,P|0:280|24:204,1,120,0|8,3:0|3:2,0:0:0:0:
76,132,199549,5,4,3:2:0:0:
180,100,199993,2,0,P|240:108|328:112,1,120,8|0,3:2|3:0,0:0:0:0:
392,168,200882,1,8,3:2:0:0:
492,124,201326,2,0,P|498:183|477:238,1,120,0|8,3:0|3:2,0:0:0:0:
374,274,202215,2,0,P|320:248|284:200,1,120,0|8,3:0|3:2,0:0:0:0:
311,95,203104,6,0,P|252:96|202:128,1,120,0|8,3:0|3:2,0:0:0:0:
156,228,203993,2,0,L|24:248,1,120,0|8,3:0|3:2,0:0:0:0:
52,140,204882,2,0,L|72:8,2,120,0|8|0,3:0|3:2|3:0,0:0:0:0:
37,245,206215,1,8,3:2:0:0:
96,336,206660,6,0,P|168:320|224:328,1,120,0|8,3:0|3:2,0:0:0:0:
300,260,207549,2,0,P|357:275|417:270,1,120,0|8,3:0|3:2,0:0:0:0:
500,204,208437,1,0,3:0:0:0:
483,98,208882,1,8,3:2:0:0:
384,52,209326,2,0,P|324:47|266:62,1,120,0|8,3:0|3:2,0:0:0:0:
199,148,210215,6,0,P|140:151|87:125,1,120,0|8,3:0|3:2,0:0:0:0:
160,48,211104,1,0,3:0:0:0:
266,62,211549,1,8,3:2:0:0:
308,160,211993,2,0,P|312:228|312:280,1,120,0|8,3:0|3:2,0:0:0:0:
224,344,212882,2,0,P|156:348|104:348,1,120,0|8,3:0|3:2,0:0:0:0:
8,296,213771,5,4,3:2:0:0:
48,196,214215,2,0,P|116:192|168:192,1,120,8|0,3:2|3:0,0:0:0:0:
256,256,215104,1,8,3:2:0:0:
364,248,215549,2,0,P|352:188|360:108,1,120,0|8,3:0|3:2,0:0:0:0:
436,60,216437,1,0,3:0:0:0:
512,136,216882,1,8,3:2:0:0:
492,240,217326,6,0,P|480:296|468:364,1,120,0|8,3:0|3:2,0:0:0:0:
364,324,218215,2,0,P|312:320|228:348,1,120,0|8,3:0|3:2,0:0:0:0:
175,255,219104,2,0,P|156:200|165:141,2,120,0|8|0,3:0|3:2|3:0,0:0:0:0:
260,188,220437,1,8,3:2:0:0:
256,80,220882,6,0,P|210:41|152:31,1,120,0|8,3:0|3:2,0:0:0:0:
66,99,221771,2,0,P|56:216|52:240,1,120,0|8,3:0|3:2,0:0:0:0:
40,324,222660,1,0,3:0:0:0:
148,336,223104,1,8,3:2:0:0:
163,230,223549,2,0,L|288:216,1,120,0|8,3:0|3:2,0:0:0:0:
368,279,224437,6,0,P|387:224|376:165,1,120,0|8,3:0|3:2,0:0:0:0:
284,108,225326,2,0,L|164:121,1,120,0|8,3:0|3:2,0:0:0:0:
79,56,226215,2,0,P|60:111|71:170,1,120,4|8,3:2|3:2,0:0:0:0:
160,232,227104,2,0,B|252:200|288:308|392:276,1,240,0|4,3:0|3:2,0:0:0:0:
