osu file format v14

[General]
AudioFilename: shoewer.mp3
AudioLeadIn: 3000
PreviewTime: 49310
Countdown: 0
SampleSet: Soft
StackLeniency: 0
Mode: 0
LetterboxInBreaks: 1
WidescreenStoryboard: 1

[Editor]
DistanceSpacing: 0.9
BeatDivisor: 4
GridSize: 8
TimelineZoom: 2.799999

[Metadata]
Title:SHOEWER
TitleUnicode:SHOEWER
Artist:CXu
ArtistUnicode:CXu
Creator:MillhioreF
Version:Intense
Source:cxubeat
Tags:reflec beat ripples knit append
BeatmapID:760603
BeatmapSetID:344273

[Difficulty]
HPDrainRate:3
CircleSize:3.5
OverallDifficulty:7.5
ApproachRate:9.3
SliderMultiplier:1.9
SliderTickRate:1

[Events]
//Background and Video events
0,0,"BG.jpg",0,0
Video,0,"shoewer.avi"
//Break Periods
//Storyboard Layer 0 (Background)
//Storyboard Layer 1 (Fail)
//Storyboard Layer 2 (Pass)
//Storyboard Layer 3 (Foreground)
//Storyboard Sound Samples

[TimingPoints]
756,346.820809248555,4,1,0,60,1,0
5958,-100,4,2,0,60,0,0
15322,-100,4,1,0,40,0,0
16623,-100,4,2,0,50,0,0
17576,-100,4,1,0,60,0,0
34050,-98.0392156862745,4,1,0,60,0,0
49224,-50,4,1,0,60,0,0
49527,-47.619,4,1,0,60,0,0
49787,-45.454545,4,1,0,60,0,0
50047,-43.47826,4,1,0,60,0,0
50308,-41.6666666,4,1,0,60,0,0
50698,-57.1428571428571,4,1,0,60,0,1
72894,-100,4,1,0,60,0,1
74282,-100,4,1,0,60,0,0
75669,-100,4,1,0,60,0,1
77056,-100,4,1,0,60,0,0
78443,-100,4,1,0,60,0,1
79831,-100,4,1,0,60,0,0
80177,-50,4,1,0,60,0,0
80524,-100,4,1,0,60,0,0
81218,-100,4,1,0,60,0,1
82605,-100,4,1,0,60,0,0
83992,-158.730158730159,4,1,0,60,0,1
84079,-100,4,1,0,10,0,1
85380,-100,4,1,0,5,0,1
86680,-100,4,1,0,5,0,0

[Colours]
Combo1 : 0,255,128
Combo2 : 255,0,0
Combo3 : 255,255,128
Combo4 : 128,255,255
Combo5 : 0,128,255

[HitObjects]
96,312,756,5,0,0:0:0:0:
416,72,1102,1,8,0:0:0:0:
376,160,1276,1,0,0:0:0:0:
296,120,1449,1,0,0:0:0:0:
216,264,1623,1,0,0:0:0:0:
184,152,1796,1,8,0:0:0:0:
328,232,1969,1,0,0:0:0:0:
440,264,2143,2,0,L|496:176,1,95,8|0,0:0|0:0,0:0:0:0:
368,328,2490,2,0,L|256:352,1,95
144,336,2836,2,0,L|112:336,7,23.75,8|8|8|8|8|8|8|8,0:0|0:0|0:0|0:0|0:0|0:0|0:0|0:0,0:0:0:0:
448,96,3530,5,0,0:0:0:0:
112,144,3877,1,8,0:0:0:0:
248,256,4050,1,8,0:0:0:0:
312,72,4224,1,8,0:0:0:0:
72,280,4397,1,8,0:0:0:0:
232,152,4571,1,8,0:0:0:0:
360,320,4744,1,0,0:0:0:0:
360,320,4787,1,0,0:0:0:0:
360,320,4831,1,0,0:0:0:0:
360,320,4874,1,0,0:0:0:0:
360,320,4917,1,8,0:0:0:0:
256,192,4961,12,0,5958,0:0:0:0:
112,32,6305,5,0,0:0:0:0:
168,104,6478,1,0,0:0:0:0:
256,80,6651,1,0,0:0:0:0:
320,16,6825,2,0,P|408:0|504:48,1,190,2|0,0:0|0:0,0:0:0:0:
256,104,7345,1,0,0:0:0:0:
200,208,7519,2,0,P|142:276|135:383,1,190,2|0,0:0|0:0,0:0:0:0:
256,128,8039,1,0,0:0:0:0:
352,120,8212,2,0,P|436:150|495:239,1,190,2|0,0:0|0:0,0:0:0:0:
256,128,8732,1,0,0:0:0:0:
192,16,8906,2,0,P|104:0|8:48,1,190,2|0,0:0|0:0,0:0:0:0:
256,104,9426,1,0,0:0:0:0:
312,208,9599,2,0,P|369:276|376:383,1,190,2|0,0:0|0:0,0:0:0:0:
256,80,10120,1,0,0:0:0:0:
160,120,10293,1,2,0:0:0:0:
360,64,10466,6,0,P|408:88|416:128,1,95
496,280,10813,2,0,P|448:256|440:216,1,95,0|2,0:0|0:0,0:0:0:0:
16,280,11334,2,0,P|64:256|72:216,2,95,0|0|2,0:0|0:0|0:0,0:0:0:0:
160,176,11854,5,0,0:0:0:0:
243,227,12027,1,0,0:0:0:0:
192,310,12201,1,0,0:0:0:0:
280,352,12374,2,0,L|472:352,1,190,2|0,0:0|0:0,0:0:0:0:
184,352,12894,1,0,0:0:0:0:
232,272,13068,2,0,L|40:272,1,190,2|0,0:0|0:0,0:0:0:0:
328,272,13588,1,0,0:0:0:0:
280,192,13761,2,0,L|472:192,1,190,2|0,0:0|0:0,0:0:0:0:
184,192,14282,1,0,0:0:0:0:
232,112,14455,1,2,0:0:0:0:
288,40,14628,5,0,0:0:0:0:
432,112,14802,1,0,0:0:0:0:
432,272,14975,1,0,0:0:0:0:
288,344,15149,1,2,0:0:0:0:
144,112,15495,1,2,0:0:0:0:
288,192,15669,1,0,0:0:0:0:
144,272,15843,2,0,P|101:192|144:112,2,190,0|2|0,0:0|0:0|0:0,0:0:0:0:
288,192,16688,6,0,L|320:192,1,23.75
312,192,16775,2,0,L|336:192,1,23.75
336,192,16862,2,0,L|369:192,1,23.75,2|0,0:0|0:0,0:0:0:0:
360,192,16948,2,0,L|385:192,1,23.75
384,192,17035,2,0,L|408:192,1,23.75
408,192,17122,2,0,L|432:192,1,23.75
432,192,17208,2,0,L|456:192,1,23.75,0|2,0:0|0:0,0:0:0:0:
456,192,17295,2,0,L|488:192,1,23.75
480,192,17403,1,0,0:0:0:0:
440,64,17576,5,2,0:0:0:0:
320,80,17750,1,0,0:0:0:0:
280,104,17836,1,8,0:0:0:0:
256,64,17923,1,0,0:0:0:0:
232,104,18010,1,0,0:0:0:0:
192,80,18097,2,0,P|104:72|56:128,2,142.5,8|2|8,0:0|0:0|0:0,0:0:0:0:
304,192,18790,5,2,0:0:0:0:
208,272,18964,1,8,0:0:0:0:
112,200,19137,1,0,0:0:0:0:
72,176,19224,1,8,0:0:0:0:
27,168,19310,1,0,0:0:0:0:
72,288,19484,2,0,P|120:344|200:352,2,142.5,8|2|8,0:0|0:0|0:0,0:0:0:0:
27,168,20177,6,0,L|16:120,2,47.5,2|0|8,0:0|0:0|0:0,0:0:0:0:
152,216,20524,2,0,L|163:264,2,47.5,0|8|0,0:0|0:0|0:0,0:0:0:0:
224,120,20871,1,8,0:0:0:0:
256,88,20958,1,0,0:0:0:0:
288,120,21045,1,0,0:0:0:0:
320,88,21131,2,0,L|416:88,1,95,2|0,0:0|0:0,0:0:0:0:
480,160,21478,5,8,0:0:0:0:
392,304,21803,1,8,0:0:0:0:
256,200,22150,1,8,0:0:0:0:
120,304,22497,1,8,0:0:0:0:
32,160,22844,1,8,0:0:0:0:
32,112,22952,6,0,P|80:80|136:64,1,95,2|8,0:0|0:0,0:0:0:0:
256,32,23299,2,0,L|304:16,2,47.5,0|8|0,0:0|0:0|0:0,0:0:0:0:
208,144,23646,2,0,L|160:160,2,47.5,8|0|0,0:0|0:0|0:0,0:0:0:0:
248,120,23906,2,0,P|312:128|328:200,1,142.5,2|8,0:0|0:0,0:0:0:0:
256,304,24339,6,0,L|176:240,1,95,2|8,0:0|0:0,0:0:0:0:
152,280,24599,2,0,L|72:216,1,95,0|8,0:0|0:0,0:0:0:0:
48,256,24860,1,0,0:0:0:0:
80,360,25033,1,8,0:0:0:0:
112,384,25120,1,0,0:0:0:0:
152,384,25206,1,0,0:0:0:0:
184,360,25293,2,0,P|224:320|224:224,1,142.5,2|8,0:0|0:0,0:0:0:0:
152,120,25727,5,2,0:0:0:0:
48,56,25900,1,8,0:0:0:0:
48,56,25987,1,0,0:0:0:0:
48,176,26160,1,8,0:0:0:0:
48,176,26247,1,0,0:0:0:0:
152,120,26420,1,8,0:0:0:0:
152,120,26507,2,0,P|232:88|272:96,2,95,0|2|0,0:0|0:0|0:0,0:0:0:0:
136,168,26940,1,8,0:0:0:0:
80,320,27114,5,2,0:0:0:0:
192,256,27287,1,8,0:0:0:0:
304,320,27461,1,0,0:0:0:0:
344,288,27547,1,8,0:0:0:0:
352,240,27634,1,0,0:0:0:0:
312,144,27808,2,0,L|272:168,1,47.5,8|0,0:0|0:0,0:0:0:0:
392,72,28068,2,0,L|432:48,1,47.5,2|0,0:0|0:0,0:0:0:0:
288,16,28328,1,8,0:0:0:0:
208,92,28501,6,0,P|163:78|118:92,1,95,2|0,0:0|0:0,0:0:0:0:
120,242,28761,2,0,P|165:256|210:242,1,95,2|0,0:0|0:0,0:0:0:0:
163,168,29021,1,2,0:0:0:0:
56,168,29195,1,2,0:0:0:0:
56,168,29282,1,0,0:0:0:0:
272,168,29455,1,0,0:0:0:0:
272,168,29542,1,2,0:0:0:0:
128,352,29715,1,2,0:0:0:0:
304,292,29888,6,0,P|349:306|394:292,1,95,2|0,0:0|0:0,0:0:0:0:
392,142,30148,2,0,P|347:128|302:142,1,95,2|0,0:0|0:0,0:0:0:0:
349,216,30408,1,2,0:0:0:0:
456,216,30582,1,2,0:0:0:0:
456,216,30669,1,0,0:0:0:0:
240,216,30842,1,0,0:0:0:0:
240,216,30929,1,2,0:0:0:0:
384,32,31102,1,0,0:0:0:0:
192,72,31276,6,0,B|152:48|152:48|104:48,1,95,2|0,0:0|0:0,0:0:0:0:
64,184,31536,2,0,B|104:208|104:208|152:208,1,95,2|0,0:0|0:0,0:0:0:0:
128,128,31796,1,2,0:0:0:0:
48,264,31969,2,0,L|32:312,1,47.5,2|0,0:0|0:0,0:0:0:0:
168,288,32229,2,0,L|176:344,1,47.5,0|2,0:0|0:0,0:0:0:0:
256,160,32490,1,0,0:0:0:0:
320,312,32663,6,0,B|360:336|360:336|408:336,1,95,2|0,0:0|0:0,0:0:0:0:
448,200,32923,2,0,B|408:176|408:176|360:176,1,95,2|0,0:0|0:0,0:0:0:0:
384,256,33183,1,2,0:0:0:0:
464,120,33356,2,0,L|480:72,1,47.5,2|0,0:0|0:0,0:0:0:0:
344,96,33616,2,0,L|336:40,1,47.5,0|2,0:0|0:0,0:0:0:0:
256,224,33877,1,0,0:0:0:0:
76,232,34050,6,0,P|36:196|22:156,1,96.9000005914307,2|0,0:0|0:0,0:0:0:0:
109,150,34310,2,0,P|145:109|185:95,1,96.9000005914307,2|0,0:0|0:0,0:0:0:0:
191,183,34571,2,0,P|232:219|245:259,1,96.9000005914307,2|2,0:0|0:0,0:0:0:0:
158,266,34831,2,0,P|123:306|82:320,1,96.9000005914307
0,288,35091,1,2,0:0:0:0:
232,360,35264,1,0,0:0:0:0:
435,232,35438,6,0,P|475:196|489:156,1,96.9000005914307,2|0,0:0|0:0,0:0:0:0:
402,150,35698,2,0,P|366:109|326:95,1,96.9000005914307,2|0,0:0|0:0,0:0:0:0:
320,183,35958,2,0,P|279:219|266:259,1,96.9000005914307,2|2,0:0|0:0,0:0:0:0:
353,266,36219,2,0,P|388:306|429:320,1,96.9000005914307
512,288,36478,1,2,0:0:0:0:
288,360,36652,1,0,0:0:0:0:
216,96,36825,6,0,P|171:115|140:153,1,96.9000005914307,2|0,0:0|0:0,0:0:0:0:
80,88,37085,2,0,P|117:49|159:25,1,96.9000005914307,2|0,0:0|0:0,0:0:0:0:
296,96,37345,2,0,P|341:115|372:153,1,96.9000005914307,2|2,0:0|0:0,0:0:0:0:
432,88,37605,2,0,P|395:49|353:25,1,96.9000005914307
256,8,37865,1,2,0:0:0:0:
256,192,38039,1,0,0:0:0:0:
431,296,38212,6,0,P|399:331|358:356,1,96.9000005914307,2|0,0:0|0:0,0:0:0:0:
296,288,38472,2,0,P|341:269|372:231,1,96.9000005914307,2|0,0:0|0:0,0:0:0:0:
80,296,38732,2,0,P|117:335|159:359,1,96.9000005914307,2|2,0:0|0:0,0:0:0:0:
216,288,38992,2,0,P|171:269|140:231,1,96.9000005914307
256,376,39252,1,2,0:0:0:0:
256,192,39426,1,0,0:0:0:0:
320,40,39599,5,2,0:0:0:0:
416,128,39773,2,0,P|432:152|450:157,1,48.4500002957153,0|2,0:0|0:0,0:0:0:0:
328,240,40033,1,0,0:0:0:0:
328,240,40120,1,2,0:0:0:0:
184,240,40293,1,2,0:0:0:0:
184,240,40380,1,0,0:0:0:0:
95,128,40553,2,0,P|84:148|62:157,1,48.4500002957153,0|2,0:0|0:0,0:0:0:0:
192,40,40813,1,0,0:0:0:0:
320,344,40987,6,0,P|392:320|400:296,1,96.9000005914307,2|0,0:0|0:0,0:0:0:0:
416,256,41247,1,2,0:0:0:0:
328,144,41421,1,0,0:0:0:0:
328,144,41507,2,0,P|272:120|224:128,1,96.9000005914307,2|2,0:0|0:0,0:0:0:0:
184,144,41768,1,0,0:0:0:0:
95,255,41940,1,0,0:0:0:0:
114,306,42027,2,0,P|144:342|192:344,1,96.9000005914307,2|0,0:0|0:0,0:0:0:0:
408,344,42374,5,2,0:0:0:0:
480,240,42547,1,0,0:0:0:0:
480,240,42634,1,2,0:0:0:0:
360,192,42808,1,0,0:0:0:0:
360,192,42894,1,2,0:0:0:0:
480,144,43068,1,2,0:0:0:0:
480,144,43155,1,0,0:0:0:0:
408,40,43328,1,0,0:0:0:0:
408,40,43414,2,0,P|368:72|312:72,1,96.9000005914307,2|0,0:0|0:0,0:0:0:0:
104,40,43761,5,2,0:0:0:0:
32,144,43934,1,0,0:0:0:0:
32,144,44021,1,2,0:0:0:0:
152,192,44195,1,0,0:0:0:0:
152,192,44281,1,2,0:0:0:0:
32,240,44455,1,2,0:0:0:0:
32,240,44542,1,0,0:0:0:0:
104,344,44715,1,0,0:0:0:0:
104,344,44801,2,0,P|160:312|200:320,1,96.9000005914307,2|0,0:0|0:0,0:0:0:0:
300,316,45149,6,0,P|356:284|332:244,1,96.9000005914307,2|0,0:0|0:0,0:0:0:0:
285,214,45409,2,0,B|270:206|256:177|256:177|241:206|226:214,1,96.9000005914307,2|0,0:0|0:0,0:0:0:0:
160,264,45669,2,0,P|104:272|69:257,2,96.9000005914307,2|2|0,0:0|0:0|0:0,0:0:0:0:
226,214,46102,2,0,B|241:206|256:177|256:177|270:206|285:214,1,96.9000005914307,2|0,0:0|0:0,0:0:0:0:
352,264,46362,2,0,P|408:272|443:257,2,96.9000005914307,2|2|0,0:0|0:0|0:0,0:0:0:0:
285,214,46796,2,0,B|270:206|256:177|256:177|241:206|226:214,1,96.9000005914307,2|0,0:0|0:0,0:0:0:0:
160,264,47056,2,0,P|104:272|69:257,2,96.9000005914307,2|2|0,0:0|0:0|0:0,0:0:0:0:
226,214,47490,2,0,B|241:206|256:177|256:177|270:206|285:214,1,96.9000005914307,2|0,0:0|0:0,0:0:0:0:
352,264,47750,2,0,P|408:272|443:257,1,96.9000005914307,2|2,0:0|0:0,0:0:0:0:
472,216,48010,5,0,0:0:0:0:
488,168,48097,2,0,L|504:120,1,48.4500002957153
408,128,48270,1,2,0:0:0:0:
376,96,48357,1,0,0:0:0:0:
344,64,48443,2,0,L|304:24,1,48.4500002957153
240,120,48617,1,2,0:0:0:0:
216,88,48703,1,0,0:0:0:0:
254,100,48790,1,0,0:0:0:0:
216,112,48877,1,0,0:0:0:0:
240,80,48964,1,8,0:0:0:0:
368,184,49310,6,2,P|344:272|256:296,1,190
144,120,49571,6,2,P|212:53|304:77,1,199.500201673712
328,368,49831,6,2,P|228:376|170:294,1,209.000006378174
368,16,50091,6,2,P|453:76|444:181,1,218.500004167557
96,344,50351,6,2,P|18:266|46:160,1,227.999993041992
320,288,50698,6,0,P|384:232|376:152,1,166.250001585484,8|0,0:0|0:0,0:0:0:0:
344,112,50958,2,0,P|272:64|192:64,1,166.250001585484,2|0,0:0|0:0,0:0:0:0:
144,88,51218,2,0,P|120:136|128:176,1,83.1250007927418
184,264,51391,1,8,0:0:0:0:
208,312,51478,1,0,0:0:0:0:
256,336,51565,1,0,0:0:0:0:
304,312,51651,1,0,0:0:0:0:
328,264,51738,1,2,0:0:0:0:
352,216,51825,1,0,0:0:0:0:
400,192,51912,6,0,L|440:272,2,83.1250007927418,0|0|8,0:0|0:0|0:0,0:0:0:0:
112,192,52258,2,0,L|72:272,1,83.1250007927418,0|2,0:0|0:0,0:0:0:0:
256,120,52519,2,0,L|256:32,2,83.1250007927418
216,208,52779,1,8,0:0:0:0:
176,248,52865,1,0,0:0:0:0:
176,304,52952,2,0,P|208:328|240:296,1,83.1250007927418
296,208,53125,1,2,0:0:0:0:
336,248,53211,1,0,0:0:0:0:
336,304,53298,2,0,P|304:328|272:296,1,83.1250007927418
216,208,53472,6,0,P|152:144|80:128,1,166.250001585484,8|0,0:0|0:0,0:0:0:0:
296,208,53732,2,0,P|360:144|432:128,1,166.250001585484,2|0,0:0|0:0,0:0:0:0:
408,232,53992,2,0,P|400:272|368:296,1,83.1250007927418
272,336,54166,1,8,0:0:0:0:
238,336,54253,1,0,0:0:0:0:
229,304,54340,1,0,0:0:0:0:
256,285,54426,1,0,0:0:0:0:
283,305,54513,1,2,0:0:0:0:
272,336,54599,1,0,0:0:0:0:
238,336,54686,2,0,P|193:320|169:280,1,83.1250007927418
88,136,54860,6,0,P|144:72|224:56,1,166.250001585484,8|0,0:0|0:0,0:0:0:0:
424,136,55120,2,0,P|368:72|288:56,1,166.250001585484,8|0,0:0|0:0,0:0:0:0:
256,152,55380,1,2,0:0:0:0:
328,288,55553,1,8,0:0:0:0:
368,224,55640,1,0,0:0:0:0:
440,224,55727,1,0,0:0:0:0:
480,288,55813,1,8,0:0:0:0:
184,224,55987,1,0,0:0:0:0:
144,288,56074,1,2,0:0:0:0:
72,288,56161,1,0,0:0:0:0:
32,224,56247,6,0,P|31:152|104:104,1,166.250001585484,8|0,0:0|0:0,0:0:0:0:
184,144,56507,2,0,P|256:179|328:144,1,166.250001585484,2|0,0:0|0:0,0:0:0:0:
408,104,56767,2,0,P|448:115|478:145,1,83.1250007927418
472,256,56940,2,0,L|496:336,1,83.1250007927418,8|0,0:0|0:0,0:0:0:0:
360,248,57114,2,0,L|304:320,1,83.1250007927418
328,143,57287,2,0,L|240:176,1,83.1250007927418,2|0,0:0|0:0,0:0:0:0:
312,32,57461,5,0,0:0:0:0:
256,88,57547,1,0,0:0:0:0:
200,32,57634,2,0,P|112:64|80:128,1,166.250001585484,8|0,0:0|0:0,0:0:0:0:
312,32,57894,2,0,P|400:64|432:128,1,166.250001585484,2|0,0:0|0:0,0:0:0:0:
432,208,58154,1,0,0:0:0:0:
348,226,58241,1,0,0:0:0:0:
302,157,58328,2,0,L|256:88,1,83.1250007927418,8|0,0:0|0:0,0:0:0:0:
209,157,58501,2,0,L|256:88,1,83.1250007927418
348,226,58675,2,0,L|301:156,1,83.1250007927418,2|0,0:0|0:0,0:0:0:0:
163,226,58848,2,0,L|209:156,1,83.1250007927418
256,272,59021,5,8,0:0:0:0:
136,344,59195,1,0,0:0:0:0:
136,344,59282,1,2,0:0:0:0:
376,344,59455,1,0,0:0:0:0:
376,344,59542,2,0,P|424:312|432:288,1,83.1250007927418
464,200,59715,1,8,0:0:0:0:
432,160,59802,1,0,0:0:0:0:
400,120,59888,2,0,P|360:96|320:112,1,83.1250007927418
256,192,60062,1,2,0:0:0:0:
208,168,60149,1,0,0:0:0:0:
176,128,60235,2,0,P|168:80|192:40,1,83.1250007927418
47,103,60409,6,0,P|99:168|96:248,1,166.250001585484,8|0,0:0|0:0,0:0:0:0:
256,192,60669,2,0,L|256:24,1,166.250001585484,8|0,0:0|0:0,0:0:0:0:
464,103,60929,2,0,P|413:168|416:248,1,166.250001585484,2|8,0:0|0:0,0:0:0:0:
472,304,61189,1,0,0:0:0:0:
416,360,61276,1,0,0:0:0:0:
360,304,61362,1,8,0:0:0:0:
95,248,61536,1,0,0:0:0:0:
40,304,61622,1,2,0:0:0:0:
96,360,61709,1,0,0:0:0:0:
152,304,61796,6,0,P|168:219|106:170,1,166.250001585484,8|0,0:0|0:0,0:0:0:0:
360,304,62056,2,0,P|344:219|406:170,1,166.250001585484,2|0,0:0|0:0,0:0:0:0:
416,248,62316,2,0,L|480:312,1,83.1250007927418
496,168,62490,2,0,L|496:80,1,83.1250007927418,8|0,0:0|0:0,0:0:0:0:
256,248,62663,2,0,L|256:160,1,83.1250007927418
386,94,62836,2,0,L|386:6,1,83.1250007927418,2|0,0:0|0:0,0:0:0:0:
146,174,63009,2,0,L|146:86,1,83.1250007927418
296,32,63183,6,0,P|326:137|368:176,1,166.250001585484,8|0,0:0|0:0,0:0:0:0:
216,32,63443,2,0,P|186:137|144:176,1,166.250001585484,2|0,0:0|0:0,0:0:0:0:
256,248,63703,2,0,L|256:160,1,83.1250007927418
64,264,63877,1,8,0:0:0:0:
104,312,63964,1,0,0:0:0:0:
160,344,64050,1,0,0:0:0:0:
224,352,64137,1,0,0:0:0:0:
288,352,64224,1,2,0:0:0:0:
352,344,64311,1,0,0:0:0:0:
408,312,64397,1,0,0:0:0:0:
448,264,64484,1,0,0:0:0:0:
448,200,64571,6,0,P|378:131|312:112,1,166.250001585484,8|0,0:0|0:0,0:0:0:0:
197,112,64831,2,0,P|119:139|64:200,1,166.250001585484,2|0,0:0|0:0,0:0:0:0:
216,192,65091,2,0,P|256:201|296:192,1,83.1250007927418
400,96,65264,1,8,0:0:0:0:
414,31,65351,1,0,0:0:0:0:
351,52,65438,1,0,0:0:0:0:
337,116,65525,1,0,0:0:0:0:
386,161,65611,1,2,0:0:0:0:
449,140,65698,1,0,0:0:0:0:
463,76,65785,1,0,0:0:0:0:
414,31,65871,1,0,0:0:0:0:
351,52,65958,6,0,P|280:96|296:168,1,166.250001585484,8|0,0:0|0:0,0:0:0:0:
161,332,66218,2,0,P|232:288|216:216,1,166.250001585484,8|0,0:0|0:0,0:0:0:0:
312,288,66478,1,2,0:0:0:0:
192,72,66651,1,8,0:0:0:0:
160,136,66738,1,0,0:0:0:0:
128,200,66825,1,0,0:0:0:0:
96,264,66912,1,8,0:0:0:0:
416,264,67085,1,0,0:0:0:0:
384,200,67172,1,2,0:0:0:0:
352,136,67259,1,0,0:0:0:0:
320,72,67345,6,0,P|256:27|192:72,1,166.250001585484,8|0,0:0|0:0,0:0:0:0:
192,199,67605,2,0,P|256:244|320:199,1,166.250001585484,2|0,0:0|0:0,0:0:0:0:
256,94,67865,2,0,L|256:182,1,83.1250007927418
400,344,68039,2,0,L|480:312,1,83.1250007927418,8|0,0:0|0:0,0:0:0:0:
144,272,68212,2,0,L|104:200,1,83.1250007927418
368,272,68386,2,0,L|408:200,1,83.1250007927418,2|0,0:0|0:0,0:0:0:0:
112,344,68559,2,0,L|34:313,1,83.1250007927418
296,216,68732,6,0,P|344:136|408:96,1,166.250001585484,8|0,0:0|0:0,0:0:0:0:
216,216,68992,2,0,P|168:136|104:96,1,166.250001585484,2|0,0:0|0:0,0:0:0:0:
64,184,69253,1,0,0:0:0:0:
48,236,69339,1,0,0:0:0:0:
64,288,69426,2,0,P|104:328|132:336,1,83.1250007927418,8|0,0:0|0:0,0:0:0:0:
216,312,69599,2,0,P|256:302|296:312,1,83.1250007927418
383,335,69773,2,0,P|421:319|448:288,1,83.1250007927418,2|0,0:0|0:0,0:0:0:0:
464,236,69946,1,0,0:0:0:0:
448,184,70032,1,0,0:0:0:0:
432,128,70120,6,0,L|304:16,1,166.250001585484,8|0,0:0|0:0,0:0:0:0:
205,18,70380,2,0,L|80:128,1,166.250001585484,2|0,0:0|0:0,0:0:0:0:
24,200,70640,2,0,P|2:232|24:264,1,83.1250007927418
104,328,70813,1,8,0:0:0:0:
140,280,70900,1,0,0:0:0:0:
176,328,70987,1,0,0:0:0:0:
212,280,71073,1,0,0:0:0:0:
248,328,71160,1,2,0:0:0:0:
284,280,71247,1,0,0:0:0:0:
320,328,71334,1,0,0:0:0:0:
356,280,71420,1,0,0:0:0:0:
392,328,71507,6,0,P|456:256|424:232,1,166.250001585484,8|0,0:0|0:0,0:0:0:0:
392,56,71767,2,0,P|456:128|424:152,1,166.250001585484,8|0,0:0|0:0,0:0:0:0:
340,192,72027,2,0,L|172:192,1,166.250001585484,2|8,0:0|0:0,0:0:0:0:
86,232,72287,5,0,0:0:0:0:
52,298,72374,1,0,0:0:0:0:
120,328,72460,1,8,0:0:0:0:
86,151,72634,1,0,0:0:0:0:
52,85,72721,1,2,0:0:0:0:
120,56,72807,1,0,0:0:0:0:
152,120,72894,5,0,0:0:0:0:
360,120,73111,1,0,0:0:0:0:
152,192,73371,1,0,0:0:0:0:
360,192,73610,1,0,0:0:0:0:
152,264,73913,5,0,0:0:0:0:
360,264,74087,1,0,0:0:0:0:
256,360,74282,5,2,0:0:0:0:
256,272,74455,1,8,0:0:0:0:
256,184,74628,1,2,0:0:0:0:
256,144,74715,1,0,0:0:0:0:
256,104,74802,1,8,0:0:0:0:
256,24,74975,2,0,L|256:0,8,23.75
256,104,75495,1,0,0:0:0:0:
152,120,75647,5,0,0:0:0:0:
360,192,75907,1,0,0:0:0:0:
152,264,76146,1,0,0:0:0:0:
360,264,76362,1,0,0:0:0:0:
152,192,76666,5,0,0:0:0:0:
360,120,76839,1,0,0:0:0:0:
416,56,77056,6,0,P|368:32|328:40,1,95,2|0,0:0|0:0,0:0:0:0:
96,56,77316,2,0,P|144:32|184:40,1,95,2|0,0:0|0:0,0:0:0:0:
256,72,77576,1,8,0:0:0:0:
256,160,77750,1,0,0:0:0:0:
256,160,77793,1,0,0:0:0:0:
256,160,77836,1,0,0:0:0:0:
256,248,78010,1,2,0:0:0:0:
256,336,78183,2,0,L|256:384,1,47.5,0|8,0:0|0:0,0:0:0:0:
152,264,78422,5,0,0:0:0:0:
152,192,78660,1,0,0:0:0:0:
360,264,78899,1,0,0:0:0:0:
360,192,79137,1,0,0:0:0:0:
152,120,79419,5,0,0:0:0:0:
360,120,79614,1,0,0:0:0:0:
256,24,79831,5,2,0:0:0:0:
256,112,80004,1,8,0:0:0:0:
256,200,80177,1,2,0:0:0:0:
256,240,80264,1,0,0:0:0:0:
256,280,80351,1,8,0:0:0:0:
256,360,80524,2,0,L|256:384,8,23.75
256,280,81044,1,0,0:0:0:0:
152,264,81175,5,0,0:0:0:0:
360,120,81413,1,0,0:0:0:0:
152,192,81651,1,0,0:0:0:0:
360,192,81890,1,0,0:0:0:0:
152,120,82193,5,0,0:0:0:0:
360,264,82367,1,0,0:0:0:0:
152,120,82605,5,2,0:0:0:0:
360,264,82779,1,8,0:0:0:0:
472,120,82952,1,2,0:0:0:0:
472,192,83039,1,0,0:0:0:0:
472,264,83125,1,8,0:0:0:0:
360,264,83299,2,0,L|360:320,1,47.5,8|0,0:0|0:0,0:0:0:0:
360,192,83559,1,2,0:0:0:0:
360,120,83732,2,0,L|360:72,1,47.5,0|8,0:0|0:0,0:0:0:0:
97,86,83992,6,0,B|103:139|72:172|96:228|96:228|184:188|200:316|312:276|422:281|422:281|465:282|450:255|401:247|401:247|360:236|232:188|216:116|190:94|190:94|145:97|97:86,1,927.674971689607,4|0,0:0|0:0,0:0:0:0:
