osu file format v14

[General]
AudioFilename: PKMN.mp3
AudioLeadIn: 971
PreviewTime: -1
Countdown: 1
SampleSet: Soft
StackLeniency: 0.5
Mode: 0
LetterboxInBreaks: 1
WidescreenStoryboard: 0

[Editor]
DistanceSpacing: 0.8
BeatDivisor: 4
GridSize: 32
TimelineZoom: 1

[Metadata]
Title:practice 5
TitleUnicode:practice 5
Artist:CTB
ArtistUnicode:CTB
Creator:ExGon
Version:vs. #korean(ALL)
Source:
Tags:
BeatmapID:647303
BeatmapSetID:286751

[Difficulty]
HPDrainRate:6
CircleSize:5
OverallDifficulty:8
ApproachRate:8
SliderMultiplier:1.7
SliderTickRate:2

[Events]
//Background and Video events
0,0,"One.PNG",0,0
//Break Periods
2,63942,67492
//Storyboard Layer 0 (Background)
//Storyboard Layer 1 (Fail)
//Storyboard Layer 2 (Pass)
//Storyboard Layer 3 (Foreground)
//Storyboard Sound Samples

[TimingPoints]
1342,300,4,2,0,100,1,0
6062,-100,4,1,0,100,0,0
33137,-100,4,2,0,100,0,0
34637,-100,4,1,0,100,0,0
35612,-100,4,2,0,100,0,0
36662,-100,4,1,0,100,0,0
49262,-100,4,2,0,100,0,0
49449,-100,4,2,0,91,0,0
49599,-100,4,2,0,80,0,0
49749,-100,4,2,0,70,0,0
49899,-100,4,2,0,59,0,0
50049,-100,4,2,0,50,0,0
50199,-100,4,2,0,49,0,0
50349,-100,4,2,0,39,0,0
50499,-100,4,2,0,30,0,0
54099,-125,4,1,0,100,0,0
63742,-100,4,1,0,0,0,0
63817,-100,4,1,0,100,0,0
78737,-100,4,2,0,100,0,0
80162,-100,4,1,0,100,0,0
81137,-100,4,2,0,100,0,0
82787,-100,4,1,0,100,0,0
94787,-100,4,2,0,100,0,0
99287,-100,4,1,0,100,0,0

[Colours]
Combo1 : 50,62,109
Combo2 : 230,230,0
Combo3 : 192,192,192

[HitObjects]
64,64,1342,5,0,0:0:0:0:
448,64,1942,5,0,0:0:0:0:
64,320,2542,5,0,0:0:0:0:
448,320,3142,5,0,0:0:0:0:
448,320,3442,1,2,0:0:0:0:
448,320,3742,1,0,0:0:0:0:
448,320,3892,1,0,0:0:0:0:
64,320,4342,5,0,0:0:0:0:
64,320,4492,1,0,0:0:0:0:
448,64,4942,5,0,0:0:0:0:
448,64,5092,1,0,0:0:0:0:
64,64,5542,5,0,0:0:0:0:
64,64,5692,1,0,0:0:0:0:
64,64,5842,1,6,0:0:0:0:
96,192,6142,6,0,B|192:192,1,85
256,32,6742,6,0,B|256:128,1,85
416,192,7342,6,0,B|320:192,1,85
256,352,7942,6,0,B|256:256,2,85,4|0|6,0:0|0:0|0:0,0:0:0:0:
181,192,8542,6,0,B|96:192,1,85
256,117,9142,6,0,B|256:32,1,85
331,192,9742,6,0,B|416:192,1,85
256,267,10342,6,0,B|256:352,2,85,4|0|6,0:0|0:0|0:0,0:0:0:0:
64,64,10942,5,0,0:0:0:0:
64,128,11092,1,0,0:0:0:0:
64,192,11242,2,0,B|64:256|64:256|64:288|160:288,1,170,0|0,0:0|0:0,0:0:0:0:
128,224,11692,1,0,0:0:0:0:
192,256,11842,2,0,B|192:192|192:192|192:160|96:160,1,170,2|0,0:0|0:0,0:0:0:0:
32,192,12292,5,0,0:0:0:0:
99,223,12442,2,0,B|192:224|192:192|192:192|192:128,1,170
128,160,12892,1,0,0:0:0:0:
156,96,13042,2,0,B|64:96|64:128|64:128|64:192,1,170,2|0,0:0|0:0,0:0:0:0:
64,256,13492,5,0,0:0:0:0:
64,320,13642,1,0,0:0:0:0:
448,192,13942,1,0,0:0:0:0:
448,128,14092,1,0,0:0:0:0:
448,64,14242,1,2,0:0:0:0:
64,64,14542,5,0,0:0:0:0:
64,128,14692,1,0,0:0:0:0:
64,192,14842,1,0,0:0:0:0:
448,320,15142,1,0,0:0:0:0:
448,256,15292,1,0,0:0:0:0:
448,192,15442,1,2,0:0:0:0:
448,64,15742,5,0,0:0:0:0:
448,128,15892,1,0,0:0:0:0:
448,192,16042,2,0,B|448:256|448:256|448:288|352:288,1,170,0|0,0:0|0:0,0:0:0:0:
384,224,16492,1,0,0:0:0:0:
320,256,16642,2,0,B|320:192|320:192|320:160|416:160,1,170,2|0,0:0|0:0,0:0:0:0:
480,192,17092,5,0,0:0:0:0:
412,223,17242,2,0,B|320:224|320:192|320:192|320:128,1,170
384,160,17692,1,0,0:0:0:0:
355,96,17842,2,0,B|448:96|448:128|448:128|448:192,1,170,2|0,0:0|0:0,0:0:0:0:
448,256,18292,5,0,0:0:0:0:
448,320,18442,1,0,0:0:0:0:
64,192,18742,1,0,0:0:0:0:
64,128,18892,1,0,0:0:0:0:
64,64,19042,1,2,0:0:0:0:
448,64,19342,5,0,0:0:0:0:
448,128,19492,1,0,0:0:0:0:
448,192,19642,1,0,0:0:0:0:
64,320,19942,1,0,0:0:0:0:
64,256,20092,1,0,0:0:0:0:
64,192,20242,1,2,0:0:0:0:
64,64,20542,5,4,0:0:0:0:
448,64,21142,5,4,0:0:0:0:
256,352,21742,5,6,0:0:0:0:
256,192,21817,12,0,22642,0:0:0:0:
212,164,22942,6,0,B|256:192|256:192|192:192|256:224|256:224|320:192|256:192|256:192|320:152,2,255,6|0|2,0:0|0:0|0:0,0:0:0:0:
160,128,23992,1,0,0:0:0:0:
96,160,24142,5,2,0:0:0:0:
160,192,24292,1,0,0:0:0:0:
96,224,24442,1,2,0:0:0:0:
160,256,24592,1,0,0:0:0:0:
96,288,24742,1,2,0:0:0:0:
160,320,24892,1,0,0:0:0:0:
224,288,25042,1,2,0:0:0:0:
224,256,25117,1,0,0:0:0:0:
256,224,25192,1,0,0:0:0:0:
288,256,25267,1,0,0:0:0:0:
288,288,25342,5,2,0:0:0:0:
352,320,25492,1,0,0:0:0:0:
416,288,25642,1,8,0:0:0:0:
352,256,25792,1,0,0:0:0:0:
416,224,25942,1,0,0:0:0:0:
352,192,26092,1,0,0:0:0:0:
416,160,26242,1,8,0:0:0:0:
352,128,26392,1,0,0:0:0:0:
300,164,26542,6,0,B|256:192|256:192|320:192|256:224|256:224|192:192|256:192|256:192|192:152,2,255,0|0|2,0:0|0:0|0:0,0:0:0:0:
356,288,27742,6,0,B|416:224|416:224|480:296|480:296,1,170,6|0,0:0|0:0,0:0:0:0:
416,320,28192,2,0,B|416:128,1,170
384,96,28642,1,2,0:0:0:0:
320,96,28792,1,0,0:0:0:0:
256,64,28942,5,2,0:0:0:0:
192,96,29092,1,0,0:0:0:0:
128,96,29242,1,2,0:0:0:0:
96,150,29392,2,0,B|96:320,1,170
41,285,29842,2,0,B|32:296|96:224|96:224|156:288,1,170,2|2,0:0|0:0,0:0:0:0:
470,98,30442,6,8,B|480:88|416:160|416:160|356:96,1,170,8|0,0:0|0:0,0:0:0:0:
41,98,31042,2,8,B|32:88|96:160|96:160|156:96,1,170,8|0,0:0|0:0,0:0:0:0:
470,285,31642,2,8,B|480:296|416:224|416:224|356:288,1,170,8|0,0:0|0:0,0:0:0:0:
256,192,32242,1,8,0:0:0:0:
256,64,32542,5,4,0:0:0:0:
256,64,32692,1,4,0:0:0:0:
128,128,32992,1,0,0:0:0:0:
128,256,33292,1,0,0:0:0:0:
256,320,33592,1,0,0:0:0:0:
384,256,33892,5,0,0:0:0:0:
384,128,34192,1,0,0:0:0:0:
256,64,34492,1,0,0:0:0:0:
256,64,34642,1,2,0:0:0:0:
256,192,34942,5,4,0:0:0:0:
256,192,35092,1,4,0:0:0:0:
128,192,35392,1,0,0:0:0:0:
256,128,35692,1,0,0:0:0:0:
384,192,35992,1,0,0:0:0:0:
256,256,36292,5,0,0:0:0:0:
256,128,36592,1,0,0:0:0:0:
256,128,36742,1,2,0:0:0:0:
160,192,37342,6,4,B|160:128|160:128|160:96|256:96|352:96|352:128|352:128|352:192,3,340,4|4|4|6,0:0|0:0|0:0|0:0,0:0:0:0:
64,192,39742,5,4,0:0:0:0:
96,128,39892,1,0,0:0:0:0:
160,96,40042,2,0,B|224:96|224:96|256:96|256:192,1,170
224,256,40454,2,0,B|160:256|160:256|128:256|128:160,1,170
192,192,40904,5,0,0:0:0:0:
224,128,41054,1,0,0:0:0:0:
288,128,41204,1,0,0:0:0:0:
320,192,41354,1,0,0:0:0:0:
256,320,41654,1,0,0:0:0:0:
256,320,41804,1,0,0:0:0:0:
448,192,42142,5,4,0:0:0:0:
416,128,42292,1,0,0:0:0:0:
352,96,42442,2,0,B|288:96|288:96|256:96|256:192,1,170
288,256,42892,2,0,B|352:256|352:256|384:256|384:160,1,170
320,192,43342,5,0,0:0:0:0:
288,128,43492,1,0,0:0:0:0:
224,128,43642,1,0,0:0:0:0:
192,192,43792,1,0,0:0:0:0:
256,320,44092,1,0,0:0:0:0:
256,320,44242,1,2,0:0:0:0:
160,192,44542,5,2,0:0:0:0:
352,192,44842,1,0,0:0:0:0:
160,192,45142,1,2,0:0:0:0:
352,192,45442,1,0,0:0:0:0:
256,136,45742,5,2,0:0:0:0:
200,176,45892,1,0,0:0:0:0:
224,240,46042,1,2,0:0:0:0:
288,240,46192,1,0,0:0:0:0:
312,176,46342,1,2,0:0:0:0:
256,56,46642,1,2,0:0:0:0:
352,192,46942,5,2,0:0:0:0:
160,192,47242,1,0,0:0:0:0:
352,192,47542,1,2,0:0:0:0:
160,192,47842,1,0,0:0:0:0:
256,136,48142,5,2,0:0:0:0:
312,176,48292,1,0,0:0:0:0:
288,240,48442,1,2,0:0:0:0:
224,240,48592,1,0,0:0:0:0:
200,176,48742,1,2,0:0:0:0:
256,56,49042,1,2,0:0:0:0:
256,192,49342,6,0,B|208:192,15,42.5,4|0|0|0|0|0|0|0|0|0|0|0|0|0|0|0,0:0|0:0|0:0|0:0|0:0|0:0|0:0|0:0|0:0|0:0|0:0|0:0|0:0|0:0|0:0|0:0,0:0:0:0:
256,192,50542,6,0,B|256:144,15,42.5,4|0|0|0|0|0|0|0|0|0|0|0|0|0|0|0,0:0|0:0|0:0|0:0|0:0|0:0|0:0|0:0|0:0|0:0|0:0|0:0|0:0|0:0|0:0|0:0,0:0:0:0:
256,192,51742,6,0,B|304:192,15,42.5,4|0|0|0|0|0|0|0|0|0|0|0|0|0|0|0,0:0|0:0|0:0|0:0|0:0|0:0|0:0|0:0|0:0|0:0|0:0|0:0|0:0|0:0|0:0|0:0,0:0:0:0:
256,192,52942,6,0,B|256:240,15,42.5,4|0|0|0|0|0|0|0|0|0|0|0|0|0|0|0,0:0|0:0|0:0|0:0|0:0|0:0|0:0|0:0|0:0|0:0|0:0|0:0|0:0|0:0|0:0|0:0,0:0:0:0:
256,192,54142,5,0,0:0:0:0:
192,192,54292,1,0,0:0:0:0:
224,128,54442,2,0,B|128:128,1,68,2|0,0:0|0:0,0:0:0:0:
192,192,54742,1,0,0:0:0:0:
128,192,54892,1,0,0:0:0:0:
160,256,55042,2,0,B|256:256,1,68,2|0,0:0|0:0,0:0:0:0:
256,192,55342,5,0,0:0:0:0:
320,192,55492,1,0,0:0:0:0:
288,256,55642,2,0,B|384:256,1,68,2|0,0:0|0:0,0:0:0:0:
320,192,55942,1,0,0:0:0:0:
384,192,56092,1,0,0:0:0:0:
352,128,56242,2,0,B|256:128,1,68,2|0,0:0|0:0,0:0:0:0:
256,192,56542,5,0,0:0:0:0:
192,192,56692,1,0,0:0:0:0:
160,128,56842,1,2,0:0:0:0:
224,128,56992,1,0,0:0:0:0:
192,64,57142,1,0,0:0:0:0:
256,64,57292,1,0,0:0:0:0:
320,64,57442,1,2,0:0:0:0:
352,128,57592,1,0,0:0:0:0:
288,128,57742,5,0,0:0:0:0:
320,192,57892,1,0,0:0:0:0:
256,192,58042,1,2,0:0:0:0:
224,128,58192,1,0,0:0:0:0:
288,128,58342,1,0,0:0:0:0:
256,192,58492,1,0,0:0:0:0:
224,256,58642,1,2,0:0:0:0:
288,256,58792,1,0,0:0:0:0:
256,192,58942,5,2,0:0:0:0:
160,160,59242,1,0,0:0:0:0:
128,96,59392,1,0,0:0:0:0:
96,32,59542,1,2,0:0:0:0:
352,224,59842,1,0,0:0:0:0:
384,288,59992,1,0,0:0:0:0:
416,352,60142,5,2,0:0:0:0:
160,224,60442,1,0,0:0:0:0:
128,288,60592,1,0,0:0:0:0:
96,352,60742,1,2,0:0:0:0:
352,160,61042,1,0,0:0:0:0:
384,96,61192,1,0,0:0:0:0:
416,32,61342,5,2,0:0:0:0:
256,64,61642,1,0,0:0:0:0:
224,128,61792,1,0,0:0:0:0:
288,128,61942,1,2,0:0:0:0:
256,320,62242,1,0,0:0:0:0:
288,256,62392,1,0,0:0:0:0:
224,256,62542,5,2,0:0:0:0:
320,192,62842,1,0,0:0:0:0:
256,192,62992,1,0,0:0:0:0:
192,192,63142,1,2,0:0:0:0:
256,192,63217,12,4,63742,0:0:0:0:
224,192,68242,5,0,0:0:0:0:
240,192,68317,5,0,0:0:0:0:
256,192,68392,5,0,0:0:0:0:
272,192,68467,5,0,0:0:0:0:
288,192,68542,6,0,B|256:68|256:68|224:204,2,255,6|0|2,0:0|0:0|0:0,0:0:0:0:
256,256,69592,1,0,0:0:0:0:
192,224,69742,5,2,0:0:0:0:
224,288,69892,1,0,0:0:0:0:
288,288,70042,1,2,0:0:0:0:
320,224,70192,1,0,0:0:0:0:
320,160,70342,5,2,0:0:0:0:
288,96,70492,1,0,0:0:0:0:
224,96,70642,1,2,0:0:0:0:
192,160,70792,1,0,0:0:0:0:
288,192,70942,6,0,B|256:316|256:316|224:180,2,255,6|0|8,0:0|0:0|0:0,0:0:0:0:
256,128,71992,1,0,0:0:0:0:
320,160,72142,5,0,0:0:0:0:
288,96,72292,1,0,0:0:0:0:
224,96,72442,1,8,0:0:0:0:
192,160,72592,1,0,0:0:0:0:
192,224,72742,5,0,0:0:0:0:
224,288,72892,1,0,0:0:0:0:
288,288,73042,1,8,0:0:0:0:
320,224,73192,1,0,0:0:0:0:
256,192,73342,6,0,B|192:160|192:160|192:224|96:192,1,170,6|0,0:0|0:0,0:0:0:0:
256,192,73792,2,0,B|320:160|320:160|320:224|416:192,1,170,2|0,0:0|0:0,0:0:0:0:
416,128,74242,1,2,0:0:0:0:
352,96,74392,1,0,0:0:0:0:
288,64,74542,5,2,0:0:0:0:
256,128,74692,1,0,0:0:0:0:
224,64,74842,1,2,0:0:0:0:
160,96,74992,1,0,0:0:0:0:
96,128,75142,1,2,0:0:0:0:
160,160,75292,1,0,0:0:0:0:
224,192,75442,1,2,0:0:0:0:
288,192,75592,1,0,0:0:0:0:
352,160,75742,5,2,0:0:0:0:
160,160,76042,1,8,0:0:0:0:
416,192,76342,1,2,0:0:0:0:
96,192,76642,1,8,0:0:0:0:
128,256,76792,1,0,0:0:0:0:
192,224,76942,5,0,0:0:0:0:
224,288,77092,1,0,0:0:0:0:
256,352,77242,1,8,0:0:0:0:
288,288,77392,1,0,0:0:0:0:
320,224,77542,1,2,0:0:0:0:
384,256,77692,1,0,0:0:0:0:
416,192,77842,1,8,0:0:0:0:
288,160,78142,5,4,0:0:0:0:
224,160,78292,1,4,0:0:0:0:
256,288,78592,1,0,0:0:0:0:
160,192,78892,1,0,0:0:0:0:
128,128,79042,1,0,0:0:0:0:
192,128,79192,1,0,0:0:0:0:
256,96,79342,5,0,0:0:0:0:
320,128,79492,1,0,0:0:0:0:
384,128,79642,1,0,0:0:0:0:
352,192,79792,1,0,0:0:0:0:
320,256,79942,1,0,0:0:0:0:
256,224,80092,1,0,0:0:0:0:
192,256,80242,1,2,0:0:0:0:
256,128,80542,5,4,0:0:0:0:
256,128,80692,1,4,0:0:0:0:
256,256,80992,1,0,0:0:0:0:
128,192,81292,1,0,0:0:0:0:
160,128,81442,1,0,0:0:0:0:
224,96,81592,1,0,0:0:0:0:
256,160,81742,5,0,0:0:0:0:
256,160,81892,1,0,0:0:0:0:
288,96,82042,1,0,0:0:0:0:
352,128,82192,1,0,0:0:0:0:
384,192,82342,1,4,0:0:0:0:
256,192,82417,12,4,82942,0:0:0:0:
256,192,83017,12,4,83542,0:0:0:0:
256,192,83617,12,4,84142,0:0:0:0:
256,192,84217,12,4,84742,0:0:0:0:
192,64,85342,6,0,B|107:64,2,85,4|0|0,0:0|0:0|0:0,0:0:0:0:
160,128,85792,2,0,B|75:128,2,85
128,192,86204,2,0,B|43:192,2,85
160,256,86654,6,0,B|64:256,2,85
192,320,87067,2,0,B|96:320,2,85
320,320,87704,6,0,B|405:320,2,85,4|0|0,0:0|0:0|0:0,0:0:0:0:
352,256,88154,2,0,B|437:256,2,85
384,192,88604,2,0,B|469:192,2,85
352,128,89054,6,0,B|448:128,2,85
320,64,89542,2,0,B|416:64,2,85,0|0|2,0:0|0:0|0:0,0:0:0:0:
256,192,90142,5,2,0:0:0:0:
64,192,90442,1,0,0:0:0:0:
256,192,90742,1,2,0:0:0:0:
448,192,91042,1,0,0:0:0:0:
256,96,91342,6,0,B|256:160,8,42.5,2|0|2|0|2|0|2|0|2,0:0|0:0|0:0|0:0|0:0|0:0|0:0|0:0|0:0,0:0:0:0:
256,320,92242,1,2,0:0:0:0:
256,192,92542,5,2,0:0:0:0:
448,192,92842,1,0,0:0:0:0:
256,192,93142,1,2,0:0:0:0:
64,192,93442,1,0,0:0:0:0:
256,288,93742,6,0,B|256:224,8,42.5,2|0|2|0|2|0|2|0|2,0:0|0:0|0:0|0:0|0:0|0:0|0:0|0:0|0:0,0:0:0:0:
256,64,94642,1,2,0:0:0:0:
320,96,94942,6,0,B|256:128|256:128|256:96|224:192|224:192|256:192,1,170,4|0,0:0|0:0,0:0:0:0:
352,256,95542,2,0,B|320:192|320:192|352:192|256:160|256:160|256:192,1,170
192,288,96142,2,0,B|256:256|256:256|256:288|288:192|288:192|256:192,1,170,0|0,0:0|0:0,0:0:0:0:
160,128,96742,2,0,B|192:192|192:192|160:192|256:224|256:224|256:192,1,170,0|8,0:0|0:0,0:0:0:0:
256,160,97342,5,0,0:0:0:0:
224,176,97492,1,0,0:0:0:0:
256,192,97642,1,0,0:0:0:0:
288,176,97792,1,0,0:0:0:0:
256,192,97942,1,0,0:0:0:0:
224,208,98092,1,0,0:0:0:0:
256,224,98242,1,0,0:0:0:0:
288,208,98392,1,0,0:0:0:0:
256,192,98542,5,0,0:0:0:0:
256,192,98842,1,0,0:0:0:0:
256,192,99142,1,0,0:0:0:0:
256,64,99442,1,4,0:0:0:0:
128,64,99742,6,0,B|48:64,2,42.5
192,96,100042,1,2,0:0:0:0:
128,128,100192,1,0,0:0:0:0:
192,160,100342,2,0,B|256:160,2,42.5
128,192,100642,1,2,0:0:0:0:
192,224,100792,1,0,0:0:0:0:
256,256,100942,6,0,B|256:192,2,42.5
320,224,101242,1,2,0:0:0:0:
384,192,101392,1,0,0:0:0:0:
320,160,101542,2,0,B|256:160,2,42.5
384,128,101842,1,2,0:0:0:0:
320,96,101992,1,0,0:0:0:0:
384,64,102142,6,0,B|448:64,2,42.5
320,96,102442,1,2,0:0:0:0:
256,64,102592,1,0,0:0:0:0:
192,96,102742,1,0,0:0:0:0:
128,64,102892,2,0,B|64:64,2,42.5,0|0|2,0:0|0:0|0:0,0:0:0:0:
192,96,103192,2,0,B|160:128|160:128|192:160,1,85
320,96,103492,6,0,B|352:128|352:128|320:160,1,85,0|2,0:0|0:0,0:0:0:0:
256,192,103792,1,0,0:0:0:0:
256,256,103942,2,0,B|256:352,2,85,0|0|2,0:0|0:0|0:0,0:0:0:0:
64,64,104542,6,0,B|64:160,1,85
64,320,104842,6,0,B|64:224,1,85,2|0,0:0|0:0,0:0:0:0:
192,64,105142,6,0,B|192:160,1,85
192,320,105442,6,0,B|192:224,1,85,2|0,0:0|0:0,0:0:0:0:
320,64,105742,6,0,B|320:160,1,85
320,320,106042,6,0,B|320:224,1,85,2|0,0:0|0:0,0:0:0:0:
448,64,106342,6,0,B|448:160,1,85
448,320,106642,6,0,B|448:224,1,85,2|0,0:0|0:0,0:0:0:0:
384,192,106942,5,4,0:0:0:0:
320,192,107092,5,0,0:0:0:0:
256,192,107242,5,10,0:0:0:0:
128,192,107542,5,4,0:0:0:0:
192,192,107692,5,0,0:0:0:0:
256,192,107842,5,10,0:0:0:0:
64,96,108142,6,0,B|108:128|172:80,2,85,4|0|10,0:0|0:0|0:0,0:0:0:0:
448,96,108742,6,0,B|404:128|340:80,2,85,4|0|10,0:0|0:0|0:0,0:0:0:0:
256,192,109342,5,6,0:0:0:0:
256,192,109417,12,6,110542,0:0:0:0:
