osu file format v14

[General]
AudioFilename: LapFox Trax - He Has No Mittens.mp3
AudioLeadIn: 3000
PreviewTime: 26892
Countdown: 1
SampleSet: None
StackLeniency: 0.7
Mode: 0
LetterboxInBreaks: 1
WidescreenStoryboard: 0

[Editor]
Bookmarks: 34,4320,22749,23177,28000,28285
DistanceSpacing: 1
BeatDivisor: 4
GridSize: 8
TimelineZoom: 1

[Metadata]
Title:practice 5
TitleUnicode:practice 5
Artist:CTB
ArtistUnicode:CTB
Creator:ExGon
Version:mini(ALL)
Source:
Tags:
BeatmapID:647317
BeatmapSetID:286751

[Difficulty]
HPDrainRate:4
CircleSize:6
OverallDifficulty:8
ApproachRate:7
SliderMultiplier:1.6
SliderTickRate:2

[Events]
//Background and Video events
0,0,"wall.png",0,0
//Break Periods
//Storyboard Layer 0 (Background)
//Storyboard Layer 1 (Fail)
//Storyboard Layer 2 (Pass)
//Storyboard Layer 3 (Foreground)
//Storyboard Sound Samples

[TimingPoints]
2035,285.714285714286,4,1,0,75,1,0
31463,-200,4,1,0,75,0,0
31606,-200,4,1,0,0,0,0
31749,-100,4,1,0,75,0,0
34106,-66.6666666666667,4,1,0,8,0,0
34392,-66.6666666666667,4,1,0,12,0,0
34606,-66.6666666666667,4,1,0,15,0,0
35463,-100,4,1,0,0,0,0
36320,-100,4,1,0,75,0,0
45463,-66.6666666666667,4,1,0,75,0,1
47320,-100,4,1,0,75,0,1
47749,-66.6666666666667,4,1,0,75,0,1
49606,-100,4,1,0,75,0,1

[Colours]
Combo1 : 0,0,0
Combo2 : 255,255,255

[HitObjects]
40,32,2034,6,0,B|304:32,1,240
280,112,2606,6,0,B|32:112,1,240
40,192,3177,6,0,B|208:192,2,160,0|0|2,0:0|0:0|0:0,0:0:0:0:
80,264,3892,5,0,0:0:0:0:
149,224,4035,5,2,0:0:0:0:
109,154,4177,5,0,0:0:0:0:
192,152,4320,6,0,B|316:152,1,80,4|0,0:0|0:0,0:0:0:0:
352,152,4606,6,0,B|352:240,1,80,2|0,0:0|0:0,0:0:0:0:
272,232,4892,6,0,B|272:320,1,80
192,312,5177,6,0,B|192:224,1,80,2|0,0:0|0:0,0:0:0:0:
192,152,5463,6,0,B|192:56,1,80,2|0,0:0|0:0,0:0:0:0:
272,72,5749,6,0,B|376:72,1,80,2|0,0:0|0:0,0:0:0:0:
432,72,6035,6,0,B|432:240,2,160,2|2|2,0:0|0:0|0:0,0:0:0:0:
352,72,6749,6,0,B|272:48,1,80,0|2,0:0|0:0,0:0:0:0:
160,72,7035,6,0,B|240:48,1,80,0|2,0:0|0:0,0:0:0:0:
368,128,7320,6,0,B|288:104,1,80,0|2,0:0|0:0,0:0:0:0:
144,128,7606,6,0,B|224:104,1,80,0|2,0:0|0:0,0:0:0:0:
384,184,7892,6,0,B|304:160,1,80,0|2,0:0|0:0,0:0:0:0:
128,184,8177,6,0,B|208:160,1,80,0|2,0:0|0:0,0:0:0:0:
256,312,8606,5,8,0:0:0:0:
256,312,8749,5,0,0:0:0:0:
176,288,8892,6,0,B|144:224|176:160,1,80
336,288,9177,6,0,B|368:224|336:160,1,80,8|0,0:0|0:0,0:0:0:0:
176,288,9463,6,0,B|240:256|304:288,1,80
336,288,9749,6,0,B|272:256|208:288,1,80,8|0,0:0|0:0,0:0:0:0:
160,288,10035,6,0,B|88:296|39:244,1,80
352,288,10320,6,0,B|423:296|472:244,1,80,8|0,0:0|0:0,0:0:0:0:
152,288,10606,6,0,B|80:296|31:244,1,80
360,288,10892,6,0,B|431:296|480:244,1,80,8|0,0:0|0:0,0:0:0:0:
438,276,11177,6,0,B|494:148|382:52,1,240,2|0,0:0|0:0,0:0:0:0:
122,58,11749,6,0,B|18:148|74:276,1,240,2|0,0:0|0:0,0:0:0:0:
256,320,12320,6,0,B|256:384,4,40,0|0|8|8|0,0:0|0:0|0:0|0:0|0:0,0:0:0:0:
192,81,12749,5,8,0:0:0:0:
366,256,12892,5,0,0:0:0:0:
132,225,13035,5,8,0:0:0:0:
346,101,13177,5,0,0:0:0:0:
64,192,13463,6,0,B|64:72,1,80,4|0,0:0|0:0,0:0:0:0:
144,112,13749,6,0,B|144:216,1,80,2|0,0:0|0:0,0:0:0:0:
224,192,14035,6,0,B|224:104,1,80
304,112,14320,6,0,B|304:208,1,80,2|0,0:0|0:0,0:0:0:0:
376,152,14606,6,0,B|285:204,1,80,2|0,0:0|0:0,0:0:0:0:
390,208,14892,6,0,B|293:264,1,80,2|0,0:0|0:0,0:0:0:0:
404,264,15177,6,0,B|286:332,3,80,2|0|2|0,0:0|0:0|0:0|0:0,0:0:0:0:
136,152,15749,6,0,B|226:204,1,80,2|0,0:0|0:0,0:0:0:0:
122,208,16035,6,0,B|218:264,1,80,2|0,0:0|0:0,0:0:0:0:
108,264,16320,6,0,B|225:332,3,80,2|0|2|0,0:0|0:0|0:0|0:0,0:0:0:0:
256,280,16892,6,0,B|256:160,1,80,2|0,0:0|0:0,0:0:0:0:
136,192,17177,5,2,0:0:0:0:
256,160,17320,5,0,0:0:0:0:
376,192,17463,5,2,0:0:0:0:
256,160,17606,6,0,B|256:72,1,80,0|8,0:0|0:0,0:0:0:0:
64,320,18035,5,0,0:0:0:0:
192,320,18177,5,0,0:0:0:0:
32,224,18320,5,8,0:0:0:0:
224,224,18463,5,0,0:0:0:0:
320,224,18606,5,0,0:0:0:0:
448,224,18749,5,0,0:0:0:0:
288,320,18892,5,8,0:0:0:0:
480,320,19035,5,0,0:0:0:0:
480,320,19177,5,0,0:0:0:0:
448,224,19320,5,0,0:0:0:0:
320,224,19463,5,8,0:0:0:0:
288,320,19606,5,0,0:0:0:0:
224,224,19749,5,0,0:0:0:0:
192,320,19892,5,0,0:0:0:0:
64,320,20035,5,8,0:0:0:0:
32,224,20177,5,0,0:0:0:0:
128,152,20320,6,0,B|128:256,3,80,0|0|8|0,0:0|0:0|0:0|0:0,0:0:0:0:
384,152,20892,6,0,B|384:256,3,80,0|0|8|0,0:0|0:0|0:0|0:0,0:0:0:0:
328,280,21463,5,0,0:0:0:0:
296,296,21535,5,0,0:0:0:0:
256,304,21606,5,8,0:0:0:0:
216,296,21677,5,8,0:0:0:0:
184,280,21749,5,0,0:0:0:0:
256,56,21892,5,8,0:0:0:0:
144,192,22035,5,0,0:0:0:0:
256,240,22177,5,8,0:0:0:0:
368,192,22320,5,0,0:0:0:0:
176,56,22606,5,2,0:0:0:0:
176,56,22749,6,0,B|224:120|200:192|200:192|120:192|192:288,1,240,2|2,0:0|0:0,0:0:0:0:
341,256,23320,6,0,B|392:192|312:192|312:192|288:120|336:56,1,240,2|2,0:0|0:0,0:0:0:0:
144,56,23892,6,0,B|192:120|168:192|168:192|88:192|160:288,1,240,2|2,0:0|0:0,0:0:0:0:
376,256,24463,6,0,B|426:191|346:191|346:191|322:119|370:55,1,240,2|2,0:0|0:0,0:0:0:0:
231,124,25035,6,0,B|195:26,1,80,0|2,0:0|0:0,0:0:0:0:
323,167,25320,6,0,B|421:131,1,80,0|2,0:0|0:0,0:0:0:0:
280,259,25606,6,0,B|316:357,1,80,0|2,0:0|0:0,0:0:0:0:
188,216,25892,6,0,B|90:252,1,80,0|2,0:0|0:0,0:0:0:0:
204,49,26177,5,0,0:0:0:0:
398,140,26320,5,2,0:0:0:0:
307,334,26463,5,0,0:0:0:0:
256,192,26606,5,2,0:0:0:0:
256,192,26677,5,0,0:0:0:0:
256,192,26749,5,2,0:0:0:0:
256,192,26820,5,0,0:0:0:0:
256,192,26892,5,2,0:0:0:0:
64,160,27177,5,0,0:0:0:0:
128,112,27320,5,0,0:0:0:0:
152,192,27463,5,8,0:0:0:0:
216,144,27606,5,0,0:0:0:0:
192,64,27749,6,2,B|264:32|384:40,1,160
64,224,28320,5,0,0:0:0:0:
128,272,28463,5,0,0:0:0:0:
152,192,28606,5,8,0:0:0:0:
216,240,28749,5,0,0:0:0:0:
192,320,28892,6,2,B|264:352|384:344,1,160
152,132,29463,5,2,0:0:0:0:
316,88,29606,5,0,0:0:0:0:
359,251,29749,5,2,0:0:0:0:
196,295,29891,5,0,0:0:0:0:
256,192,30035,5,2,0:0:0:0:
256,192,30320,5,2,0:0:0:0:
144,72,30606,5,2,0:0:0:0:
224,72,30749,5,0,0:0:0:0:
240,72,30820,5,0,0:0:0:0:
256,72,30892,6,0,B|256:160,1,80,2|0,0:0|0:0,0:0:0:0:
272,152,31106,5,0,0:0:0:0:
288,152,31177,6,0,B|288:248,1,80,2|0,0:0|0:0,0:0:0:0:
304,232,31392,5,0,0:0:0:0:
320,232,31463,6,2,B|320:288,1,40,2|0,0:0|0:0,0:0:0:0:
448,160,31749,5,0,0:0:0:0:
384,112,31892,5,0,0:0:0:0:
360,192,32035,5,8,0:0:0:0:
296,144,32178,5,0,0:0:0:0:
320,64,32321,6,2,B|248:32|128:40,1,160
448,224,32892,5,0,0:0:0:0:
384,272,33035,5,0,0:0:0:0:
360,192,33178,5,8,0:0:0:0:
296,240,33321,5,0,0:0:0:0:
320,320,33463,6,2,B|248:352|128:344,2,160
320,320,34106,6,0,B|376:304,15,59.9999982118607
256,192,35892,5,0,0:0:0:0:
256,192,36035,5,8,0:0:0:0:
256,192,36177,5,8,0:0:0:0:
256,112,36320,5,4,0:0:0:0:
328,152,36463,5,0,0:0:0:0:
328,72,36606,5,8,0:0:0:0:
256,32,36749,5,0,0:0:0:0:
184,72,36892,5,0,0:0:0:0:
184,152,37035,5,0,0:0:0:0:
256,112,37177,5,8,0:0:0:0:
256,192,37320,5,0,0:0:0:0:
256,272,37463,5,2,0:0:0:0:
184,232,37606,5,0,0:0:0:0:
184,312,37749,5,8,0:0:0:0:
256,352,37892,5,0,0:0:0:0:
328,312,38035,5,2,0:0:0:0:
328,232,38178,5,0,0:0:0:0:
256,272,38320,5,8,0:0:0:0:
256,192,38463,5,0,0:0:0:0:
184,152,38606,6,0,B|72:136,1,80,2|0,0:0|0:0,0:0:0:0:
224,104,38892,6,0,B|112:88,1,80,8|0,0:0|0:0,0:0:0:0:
328,152,39177,6,0,B|440:136,1,80,2|0,0:0|0:0,0:0:0:0:
288,104,39463,6,0,B|400:88,1,80,8|0,0:0|0:0,0:0:0:0:
367,291,39749,6,0,B|288:280,1,80,2|0,0:0|0:0,0:0:0:0:
407,243,40035,6,0,B|328:232,1,80,8|0,0:0|0:0,0:0:0:0:
144,291,40320,6,0,B|224:280,1,80,2|0,0:0|0:0,0:0:0:0:
104,243,40606,6,0,B|184:232,1,80,8|0,0:0|0:0,0:0:0:0:
256,192,40892,5,2,0:0:0:0:
336,192,41035,6,0,B|392:176|368:120,1,80,0|2,0:0|0:0,0:0:0:0:
256,272,41320,6,0,B|272:328|328:304,1,80,0|2,0:0|0:0,0:0:0:0:
176,192,41606,6,0,B|120:208|144:264,1,80,0|2,0:0|0:0,0:0:0:0:
256,112,41892,6,0,B|240:56|184:80,1,80,0|2,0:0|0:0,0:0:0:0:
325,232,42177,6,0,B|381:246|388:185,1,80,0|2,0:0|0:0,0:0:0:0:
216,261,42462,6,0,B|201:317|262:324,1,80,0|2,0:0|0:0,0:0:0:0:
186,152,42748,6,0,B|130:137|123:198,1,80,0|2,0:0|0:0,0:0:0:0:
296,122,43034,6,0,B|310:66|249:59,1,80,0|2,0:0|0:0,0:0:0:0:
296,261,43320,6,0,B|337:301|374:252,1,80,0|2,0:0|0:0,0:0:0:0:
186,232,43605,6,0,B|146:273|195:310,1,80,0|2,0:0|0:0,0:0:0:0:
216,122,43891,6,0,B|174:82|137:131,1,80,0|2,0:0|0:0,0:0:0:0:
325,152,44177,6,0,B|365:110|316:73,1,80,0|2,0:0|0:0,0:0:0:0:
296,56,44392,5,0,0:0:0:0:
256,48,44463,5,0,0:0:0:0:
216,56,44535,5,0,0:0:0:0:
184,80,44606,5,2,0:0:0:0:
186,232,44749,5,0,0:0:0:0:
296,261,44891,5,2,0:0:0:0:
325,152,45034,5,0,0:0:0:0:
216,122,45177,5,8,0:0:0:0:
56,48,45463,5,2,0:0:0:0:
56,48,45606,6,0,B|424:48,1,359.999989271164,2|2,0:0|0:0,0:0:0:0:
480,192,46177,6,0,B|112:192,1,359.999989271164,2|2,0:0|0:0,0:0:0:0:
56,336,46749,6,0,B|424:336,1,359.999989271164,2|2,0:0|0:0,0:0:0:0:
400,256,47320,5,0,0:0:0:0:
440,184,47463,5,8,0:0:0:0:
392,120,47606,5,0,0:0:0:0:
456,48,47749,5,2,0:0:0:0:
456,48,47892,6,0,B|88:48,1,359.999989271164,2|2,0:0|0:0,0:0:0:0:
32,192,48463,6,0,B|400:192,1,359.999989271164,2|2,0:0|0:0,0:0:0:0:
456,336,49035,6,0,B|88:336,1,359.999989271164,2|2,0:0|0:0,0:0:0:0:
112,256,49606,5,0,0:0:0:0:
72,184,49749,5,2,0:0:0:0:
120,120,49892,5,0,0:0:0:0:
160,192,50035,5,0,0:0:0:0:
160,192,50106,5,2,0:0:0:0:
160,192,50177,5,0,0:0:0:0:
464,192,50320,5,4,0:0:0:0:
