osu file format v12

[General]
AudioFilename: Senam yang iya iyalah-IndonesiaVerNo surprise exerciseIndonesia.mp3
AudioLeadIn: 0
PreviewTime: 24111
Countdown: 0
SampleSet: Normal
StackLeniency: 0.7
Mode: 0
LetterboxInBreaks: 1
WidescreenStoryboard: 0

[Editor]
DistanceSpacing: 0.6
BeatDivisor: 4
GridSize: 4

[Metadata]
Title:Senam yang Iya Iyalah
TitleUnicode:Senam yang Iya Iyalah
Artist:COWCOW
ArtistUnicode:COWCOW
Creator:Thalos
Version:YA IYA DONK
Source:
Tags:comedy cowcow youtube indonesia
BeatmapID:321303
BeatmapSetID:126454

[Difficulty]
HPDrainRate:5
CircleSize:4
OverallDifficulty:6
ApproachRate:7
SliderMultiplier:1.4
SliderTickRate:1

[Events]
//Background and Video events
Video,0,"Senam yang iya iyalah - Indonesia Ver 【No surprise exercise Indonesia】.flv"
0,0,"senam ya iyalah image.jpg",0,0
//Break Periods
//Storyboard Layer 0 (Background)
//Storyboard Layer 1 (Fail)
//Storyboard Layer 2 (Pass)
//Storyboard Layer 3 (Foreground)
//Storyboard Sound Samples
//Background Colour Transformations
3,100,163,162,255

[TimingPoints]
615,480,4,1,0,100,1,0
6375,571.428571428571,4,1,0,69,1,0
8600,480,4,1,0,69,1,0
84420,-100,4,1,0,69,0,1
92600,-100,4,1,0,69,0,0
98840,571.428571428571,4,1,0,69,1,0

[Colours]
Combo1 : 255,255,128
Combo2 : 128,128,255
Combo3 : 192,192,192

[HitObjects]
96,112,8610,2,0,P|192:64|248:80,1,140,2|0,0:0|0:0,0:0:0:0:
256,128,9330,1,0,0:0:0:0:
292,68,9570,2,0,P|360:70|416:112,1,140
416,271,10530,6,0,P|360:313|292:315,1,140,2|0,0:0|0:0,0:0:0:0:
256,256,11250,1,0,0:0:0:0:
219,315,11490,2,0,P|151:313|96:272,1,140
112,168,12450,5,0,0:0:0:0:
168,80,12930,2,0,B|262:135|262:135|262:79|335:137,1,210
416,112,13890,1,0,0:0:0:0:
416,112,14130,1,0,0:0:0:0:
400,200,14370,1,0,0:0:0:0:
312,247,14850,2,0,P|247:272|184:248,1,140
96,120,16290,5,2,0:0:0:0:
184,80,16770,1,0,0:0:0:0:
168,168,17250,1,0,0:0:0:0:
168,168,17490,1,0,0:0:0:0:
264,144,17730,1,0,0:0:0:0:
304,72,18210,6,0,L|440:32,1,140,2|0,0:0|0:0,0:0:0:0:
464,104,19170,1,0,0:0:0:0:
456,144,19410,1,0,0:0:0:0:
448,184,19650,1,0,0:0:0:0:
381,257,20130,2,0,B|312:288|256:80|200:288|133:265,1,280
112,184,21330,2,0,L|88:112,1,70
72,48,21810,1,0,0:0:0:0:
224,96,22530,2,0,L|368:136,1,140
264,208,23970,5,0,0:0:0:0:
216,272,24210,2,0,P|152:240|144:224,1,70
112,192,24690,1,0,0:0:0:0:
112,192,24930,1,0,0:0:0:0:
120,112,25170,2,0,P|147:90|181:83,1,70
256,56,25650,1,0,0:0:0:0:
328,56,25890,1,0,0:0:0:0:
288,120,26370,2,0,L|288:264,1,140
176,104,27810,6,0,L|248:72,1,70,2|0,0:0|0:0,0:0:0:0:
239,75,28290,1,0,0:0:0:0:
240,176,28770,1,0,0:0:0:0:
240,280,29250,1,0,0:0:0:0:
336,248,29730,2,0,L|472:200,1,140,2|0,0:0|0:0,0:0:0:0:
400,192,30690,2,0,P|416:152|384:128,1,70
328,104,31170,1,0,0:0:0:0:
248,72,31650,2,0,B|160:8|128:80|128:80|64:16|0:128,1,280
80,144,32850,1,0,0:0:0:0:
32,200,33090,2,0,P|88:232|112:216,1,70
176,176,34050,2,0,L|280:80,1,140
384,224,35480,6,0,L|384:154,2,70
304,224,36200,1,0,0:0:0:0:
304,152,36440,2,0,L|304:56,1,70
216,80,36920,1,0,0:0:0:0:
216,160,37160,2,0,L|216:256,1,70
128,232,37880,2,0,L|128:64,1,140
288,200,39320,6,0,L|208:200,1,70,2|0,0:0|0:0,0:0:0:0:
168,136,39800,1,0,0:0:0:0:
128,104,40040,1,0,0:0:0:0:
88,64,40280,2,0,L|88:152,1,70,2|0,0:0|0:0,0:0:0:0:
88,192,40760,1,0,0:0:0:0:
272,192,41240,2,0,L|208:192,4,35,2|0|2|0|2,0:0|0:0|0:0|0:0|0:0,0:0:0:0:
344,144,41960,2,0,L|416:96,1,70,0|2,0:0|0:0,0:0:0:0:
400,104,42440,1,0,0:0:0:0:
400,104,42680,1,2,0:0:0:0:
408,184,43160,2,0,P|312:288|176:320,1,280
184,248,44360,1,0,0:0:0:0:
256,224,44600,2,0,P|304:200|320:168,1,70
248,144,45560,2,0,P|184:72|128:72,1,140
200,80,47000,6,0,L|152:160,2,70
256,144,47720,1,0,0:0:0:0:
312,80,47960,2,0,L|352:152,2,70
256,144,48680,1,0,0:0:0:0:
256,184,48920,1,0,0:0:0:0:
192,256,49400,2,0,P|256:272|336:248,1,140
400,232,50840,6,0,L|440:144,1,70,2|0,0:0|0:0,0:0:0:0:
448,120,51320,1,0,0:0:0:0:
352,144,51800,2,0,L|392:56,1,70,2|0,0:0|0:0,0:0:0:0:
400,32,52280,1,0,0:0:0:0:
272,32,52760,2,0,L|208:32,3,35
256,96,53240,2,0,L|256:176,1,70,2|0,0:0|0:0,0:0:0:0:
256,232,53720,1,2,0:0:0:0:
256,304,53960,1,0,0:0:0:0:
184,272,54200,1,2,0:0:0:0:
112,320,54680,2,0,P|64:200|176:136,1,280
256,192,55880,2,0,L|328:192,1,70
326,192,56360,1,0,0:0:0:0:
328,272,57080,2,0,P|424:208|424:184,1,140
448,80,58520,5,0,0:0:0:0:
376,80,58760,2,0,L|296:80,1,70
304,152,59240,1,0,0:0:0:0:
304,224,59480,2,0,L|384:224,1,70
448,232,59960,1,0,0:0:0:0:
448,232,60200,1,0,0:0:0:0:
448,304,60440,2,0,L|308:304,1,140
308,304,61400,1,0,0:0:0:0:
156,288,62360,6,0,P|104:232|108:216,1,70,2|0,0:0|0:0,0:0:0:0:
156,192,62840,1,0,0:0:0:0:
105,136,63080,2,0,P|123:107|156:96,1,70
216,144,63560,1,0,0:0:0:0:
276,96,63800,2,0,P|328:152|324:168,1,70,0|2,0:0|0:0,0:0:0:0:
416,144,64280,2,0,B|384:256|304:200|324:256|324:256|268:256,1,210
220,328,65240,2,0,B|184:328|184:328|197:243|117:299|104:264,1,140
256,264,66200,2,0,P|379:218|436:80,1,280
328,116,67400,2,0,L|256:64,1,70
88,104,67880,1,0,0:0:0:0:
188,224,68600,2,0,L|344:224,1,140
131,111,70040,6,0,B|164:136|108:176|140:172|141:170,1,70
216,196,70520,1,0,0:0:0:0:
296,196,70760,1,0,0:0:0:0:
380,111,71000,2,0,B|348:136|404:176|372:172|370:170,1,70
344,272,71480,1,0,0:0:0:0:
256,316,71720,1,0,0:0:0:0:
164,272,71960,1,0,0:0:0:0:
256,232,72440,2,0,L|256:68,1,140
384,120,73880,6,0,P|360:72|332:60,1,70
296,120,74360,1,0,0:0:0:0:
212,120,74600,1,0,0:0:0:0:
160,64,74840,2,0,P|133:86|123:119,1,70
220,196,75320,2,0,L|296:196,1,70
384,264,75800,6,0,P|360:312|332:324,1,70
296,264,76280,1,0,0:0:0:0:
212,264,76520,1,0,0:0:0:0:
160,320,76760,2,0,P|133:297|123:264,1,70
256,192,77240,2,0,L|256:44,1,140
256,52,77960,1,0,0:0:0:0:
256,52,78080,1,0,0:0:0:0:
256,52,78200,1,0,0:0:0:0:
256,128,78440,1,0,0:0:0:0:
224,204,78680,2,0,P|256:216|288:204,1,70
256,128,79160,2,0,L|256:224,1,70
256,196,81560,6,0,L|200:128,1,70
256,196,82040,2,0,L|312:128,1,70
256,196,82520,1,0,0:0:0:0:
256,196,82760,2,0,L|256:288,2,70
256,196,83480,1,0,0:0:0:0:
92,200,84440,5,0,0:0:0:0:
140,112,84680,1,0,0:0:0:0:
232,72,84920,1,0,0:0:0:0:
268,108,85040,1,0,0:0:0:0:
308,72,85160,1,0,0:0:0:0:
344,108,85280,1,0,0:0:0:0:
388,76,85400,1,0,0:0:0:0:
396,188,85640,6,0,L|396:288,1,70
316,260,86120,1,0,0:0:0:0:
232,260,86360,1,0,0:0:0:0:
316,176,86600,1,0,0:0:0:0:
228,176,86840,1,0,0:0:0:0:
228,176,87320,5,0,0:0:0:0:
316,176,87560,1,0,0:0:0:0:
316,260,87800,1,0,0:0:0:0:
232,260,88040,1,0,0:0:0:0:
148,260,88281,2,0,L|148:190,1,70
148,112,88760,1,0,0:0:0:0:
232,112,89240,6,0,L|328:112,1,70
304,188,89720,1,0,0:0:0:0:
392,188,89960,1,0,0:0:0:0:
348,264,90200,1,0,0:0:0:0:
268,264,90440,2,0,L|198:264,1,70
120,220,91160,6,0,L|120:124,1,70
260,200,91640,2,0,L|260:284,1,70
392,220,92120,2,0,L|392:124,1,70
256,88,92600,1,0,0:0:0:0:
392,220,93080,5,0,0:0:0:0:
256,304,93320,1,0,0:0:0:0:
120,220,93560,1,0,0:0:0:0:
256,200,93800,2,0,L|256:112,1,70
256,130,94280,1,0,0:0:0:0:
256,130,94400,1,0,0:0:0:0:
256,130,94520,1,0,0:0:0:0:
392,112,95000,5,0,0:0:0:0:
256,28,95240,1,0,0:0:0:0:
120,112,95480,1,0,0:0:0:0:
256,132,95720,2,0,L|256:220,1,70
256,202,96200,1,0,0:0:0:0:
256,202,96320,1,0,0:0:0:0:
256,202,96440,1,0,0:0:0:0:
256,248,96680,1,0,0:0:0:0:
256,284,96920,5,0,0:0:0:0:
124,128,97880,1,0,0:0:0:0:
392,124,98840,1,0,0:0:0:0:
256,192,99411,1,0,0:0:0:0:
256,264,99982,2,0,L|256:316,1,35
256,336,100268,1,0,0:0:0:0:
