osu file format v5

[General]
AudioFilename: COOL&CREATE - Help me, ERINNNNNN!!.mp3
AudioLeadIn: 0
PreviewTime: -1
Countdown: 1
SampleSet: Soft
StackLeniency: 0.7
Mode: 0
LetterboxInBreaks: 1

[Metadata]
Title:Help me, ERINNNNNN!!
Artist:COOL&CREATE
Creator:Doomsday93
Version:Normal
Source:
Tags:

[Difficulty]
HPDrainRate:2
CircleSize:4
OverallDifficulty:4
SliderMultiplier:1
SliderTickRate:1

[Events]
//Background and Video events
0,0,"erin0.jpg"
//Break Periods
2,32807,33179
2,35401,35773
2,62645,72097
2,83402,92704
2,114861,123989
//Storyboard Layer 0 (Background)
//Storyboard Layer 1 (Failing)
//Storyboard Layer 2 (Passing)
//Storyboard Layer 3 (Foreground)
//Storyboard Sound Samples
//Background Colour Transformations
3,100,0,0,0

[TimingPoints]
521,324.324324324324,4,2,0,80,1
41526,-100,4,1,0,80,0
72661,-100,4,2,0,80,0
124715,-100,4,1,0,80,0

[Colours]
Combo1 : 236,199,174
Combo2 : 0,0,128
Combo3 : 200,45,49
Combo4 : 221,221,221

[HitObjects]
184,144,21278,2,2,B|224:112|288:144,1,100
280,216,21926,2,2,B|240:248|176:216,1,100
104,216,22575,1,0
208,336,23224,1,0
368,336,23872,6,2,B|400:296|368:232,1,100
296,224,24521,2,2,B|264:264|296:328,1,100
368,320,25169,1,0
368,160,25818,1,0
208,136,26467,6,2,B|216:80|280:72,1,100
328,128,27115,2,2,B|320:184|256:192,1,100
176,192,27764,1,0
72,312,28413,1,0
232,312,29061,2,2,B|288:304|296:240,1,100
296,160,29710,2,2,B|240:168|232:232,1,100
232,304,30359,1,0
392,304,31007,1,0
288,176,31656,6,10,B|320:176|344:144|344:96,1,100
384,176,32305,2,10,B|416:176|440:144|440:96,1,100
184,192,34251,6,10,B|152:192|128:160|128:112,1,100
96,192,34899,2,10,B|64:192|40:160|40:112,1,100
440,80,36845,6,10,B|416:56|368:48|344:96,1,100
352,160,37494,6,10,B|376:184|424:192|448:144,1,100
440,240,38142,6,10,B|464:264|472:312|424:336,1,100
360,312,38791,6,10,B|336:336|288:344|264:296,1,100
256,232,39440,5,4
200,176,39764,1,4
256,120,40088,1,4
312,176,40413,1,4
256,192,40737,12,2,41710
432,56,42034,6,0,B|328:48|216:112,1,200
144,168,43169,1,8
216,208,43494,2,8,B|280:240|368:248,1,150
360,328,44305,6,0,B|296:328,1,50
272,328,44629,1,2
192,328,44953,6,0,B|128:328,1,50
104,328,45278,2,0,B|104:264,3,50,2|2|0|0
104,240,45926,1,12
104,160,46251,1,12
184,160,46575,1,12
344,152,47224,6,0,B|344:232|304:272|216:296|216:280,1,200
104,272,48359,1,8
104,192,48683,2,8,B|104:136|112:104|144:96|200:96,1,150
264,96,49494,2,0,B|328:96,2,50,0|0|2
184,96,50142,2,0,B|120:96,1,50
96,96,50467,1,2
96,176,50791,1,0
256,192,51115,12,12,52088
152,304,52413,6,0,B|232:312|368:248,1,200
344,136,53548,1,8
264,136,53872,2,8,B|192:136|136:152|112:176,1,150
120,248,54683,2,0,B|120:312,1,50
160,296,55007,1,2
240,296,55332,2,0,B|296:296,1,50
328,296,55656,2,0,B|328:240,3,50,2|2|0|0
328,208,56305,1,12
248,208,56629,1,12
168,208,56953,1,12
72,80,57602,6,0,B|64:160|72:216|176:208,1,200
288,208,58737,1,8
368,208,59061,2,8,B|424:208|448:248|440:320,1,150
360,312,59872,2,0,B|296:312,1,50
272,312,60196,1,2
192,312,60521,5,0
152,312,60683,1,0
112,312,60845,2,2,B|72:256,1,50,2|2
80,232,61169,2,2,B|128:184,1,50
144,168,61494,1,0
264,168,61980,2,4,B|304:168,4,25
224,168,62467,1,4
216,104,73169,6,0,B|96:104,2,100,0|0|8
296,104,74142,2,0,B|360:104,1,50
352,184,74629,1,0
352,224,74791,1,0
352,264,74953,2,0,B|240:264,1,100,8|0
168,264,75602,5,0
168,224,75764,1,0
168,144,76088,1,0
168,64,76413,2,0,B|104:64,2,50,8|8|0
208,64,76899,2,8,B|272:64|312:80|336:128|344:168|336:240,1,250
344,312,78034,2,0,B|280:312,1,50
256,312,78359,1,8
256,152,79007,5,0
176,152,79332,1,0
96,152,79656,1,8
96,272,80142,2,0,B|160:272,1,50
224,264,80629,5,0
264,264,80791,1,0
264,224,80953,1,8
264,64,81602,2,0,B|376:64,1,100
256,192,82251,12,8,83224
384,80,93926,5,0
304,80,94251,1,8
224,80,94575,1,0
144,80,94899,2,0,B|88:80,1,50,8|0
96,160,95386,2,0,B|96:216,1,50,0|8
96,248,95710,2,0,B|96:288|96:304|136:320|160:312,1,100
192,312,96196,6,0,B|296:312,1,100,8|0
368,312,96845,1,0
368,232,97169,2,8,B|424:232,2,50
328,232,97656,2,8,B|264:232|240:208|216:160|240:120|240:112|264:96|304:88|336:96,1,250
336,248,99115,5,0
256,248,99440,1,8
176,248,99764,1,0
96,248,100088,2,0,B|96:184,1,50,8|0
96,120,100575,2,0,B|152:120,1,50,0|8
184,120,100899,2,0,B|296:120,1,100
320,120,101386,6,8,B|376:120,1,50
408,120,101710,1,0
408,200,102034,1,0
408,280,102359,2,8,B|464:280,2,50
256,192,102845,12,10,103980
72,56,104305,5,0
72,136,104629,1,8
72,216,104953,1,0
72,296,105278,2,0,B|128:296,1,50,8|0
200,296,105764,2,0,B|200:232,1,50,0|8
200,208,106088,2,0,B|200:168|200:152|232:144|256:144|272:144,1,100
336,144,106737,5,0
376,144,106899,1,0
368,224,107224,1,0
368,304,107548,2,2,B|424:304,2,50
328,304,108034,2,2,B|248:304|216:288|184:240|184:224|184:208|184:144,1,250
184,64,109169,6,0,B|248:64,1,50
272,64,109494,1,2
352,64,109818,1,2
352,144,110142,1,2
352,224,110467,2,2,B|352:280,1,50
272,272,110953,2,2,B|208:272,1,50
144,272,111440,1,2
144,192,111764,6,0,B|144:136,1,50
144,104,112088,1,2
224,104,112413,1,2
304,104,112737,2,4,B|384:104,2,66.6666666666667
256,192,113386,12,6,114683
64,64,125061,6,0,B|64:144|72:176|120:176|160:176|200:176,1,200
312,176,126196,2,0,B|432:176,1,100
448,176,126683,2,8,B|448:232,2,50
448,96,127332,6,0,B|384:96,1,50
360,96,127656,1,2
280,96,127980,2,0,B|216:96,1,50
192,96,128305,2,0,B|192:168,1,50,2|0
192,184,128629,2,0,B|120:184,1,50
104,184,128953,1,4
104,344,129602,1,4
264,344,130251,6,0,B|328:344|344:344|360:336|376:320|384:280|384:248|384:216,1,200
384,112,131386,2,0,B|264:112,1,100
240,112,131872,2,8,B|168:112,2,50
320,112,132521,6,0,B|392:112,2,50,0|0|2
240,112,133169,6,0,B|184:112,1,50
152,112,133494,2,0,B|88:112,3,50,2|0|0|0
256,192,134142,12,2,135115
456,48,135440,6,0,B|424:48|384:64|376:96|368:112|328:120|280:128|264:112,1,200
152,120,136575,2,0,B|104:120|96:128|80:144|80:168|80:224,1,150,0|8
80,264,137224,2,8,B|80:328,1,50
160,304,137710,6,0,B|224:304,1,50
248,304,138034,2,2,B|296:304|320:280|320:224|344:200|408:200,1,200,2|2
480,200,139007,2,0,B|480:136,1,50,0|0
480,112,139332,1,4
320,112,139980,1,4
160,112,140629,6,0,B|160:168|160:200|184:232|240:256|288:248,1,200
384,248,141764,1,0
384,328,142088,2,8,B|312:328,1,50
296,328,142413,2,8,B|240:328,1,50
168,328,142899,2,0,B|168:264,1,50
168,240,143224,2,0,B|168:88,1,150,2|0
168,48,143872,2,0,B|96:48,3,50,2|0|0|0
80,48,144521,1,4
80,208,145169,1,4
240,208,145818,6,0,B|280:208|296:208|312:224|320:256|352:280|360:280|384:280|400:280|408:280|432:280,1,200
416,160,146953,1,0
416,80,147278,2,8,B|344:80,1,50
328,80,147602,1,8
288,80,147764,1,8
208,80,148088,6,0,B|144:80,1,50
120,80,148413,2,0,B|80:80|56:96|48:128|40:160|48:184|48:248,1,200,2|2
48,320,149386,1,0
128,320,149710,1,4
288,320,150359,1,4
448,312,151007,6,0,B|368:224|288:152,1,200
216,88,152142,1,0
136,88,152467,2,8,B|136:160,3,50
136,216,153278,6,0,B|136:280,1,50
136,304,153602,2,0,B|240:304,1,100,2|0
272,304,154088,1,0
312,304,154251,2,0,B|392:304|416:280|416:256|416:160,1,200,2|4
416,96,155224,1,4
336,96,155548,1,4
256,96,155872,6,0,B|192:96,1,50
168,96,156196,2,0,B|104:96|88:96|56:112|48:136|48:160,1,200
48,328,157332,1,0
128,328,157656,2,8,B|192:328,1,50
216,328,157980,1,8
256,328,158142,1,8
336,328,158467,6,0,B|336:264,1,50
336,240,158791,2,0,B|336:128,1,100,2|0
336,96,159278,1,0
336,56,159440,2,0,B|264:56,3,50,2|0|0|0
248,56,160088,1,4
168,56,160413,1,4
88,56,160737,1,4
88,136,161061,6,0,B|88:208,1,50
88,224,161386,2,0,B|88:288|96:312|144:328|224:328,1,200
336,320,162521,1,8
456,320,162844,2,8,B|456:248,1,50
456,232,163169,1,8
456,192,163331,1,8
456,112,163656,6,4,B|400:112,1,50
256,192,163980,12,4,166251
