osu file format v5

[General]
AudioFilename: COOL&CREATE - Help me, ERINNNNNN!!.mp3
AudioLeadIn: 0
PreviewTime: -1
Countdown: 1
SampleSet: Soft
StackLeniency: 0.7
Mode: 0
LetterboxInBreaks: 1

[Metadata]
Title:Help me, ERINNNNNN!!
Artist:COOL&CREATE
Creator:Doomsday93
Version:HELP ME ERINNNNNN!!
Source:
Tags:

[Difficulty]
HPDrainRate:5
CircleSize:5
OverallDifficulty:6
SliderMultiplier:1.2
SliderTickRate:1

[Events]
//Background and Video events
0,0,"erin0.jpg"
//Break Periods
2,32807,33179
2,35401,35773
2,62645,72097
2,114861,123989
//Storyboard Layer 0 (Background)
//Storyboard Layer 1 (Failing)
//Storyboard Layer 2 (Passing)
//Storyboard Layer 3 (Foreground)
4,3,1,"speed-up.png",320,240 S,0,120174,121472,0.1,0.9799998 R,0,120174,120337,0,1.616 P,0,120174,120174,H R,0,120337,120499,1.616,3.113347 R,0,120499,120661,3.113347,4.690989 R,0,120661,120823,4.690989,6.281948 R,0,120823,120985,6.281948,7.86588 R,0,120985,121147,7.86588,9.425304 R,0,121147,121310,9.425304,11.01815 R,0,121310,121472,11.01815,6.288001 S,0,121472,122120,0.9799998,0.9799998 R,0,121472,122120,6.288001,6.288001 F,0,122120,124066,1,0 S,0,122120,124066,0.9799998,3.06 R,0,122120,122120,6.288001,6.288001 R,0,122120,124066,6.288001,5.424001
//Storyboard Sound Samples
//Background Colour Transformations
3,100,0,0,0

[TimingPoints]
521,324.324324324324,4,2,0,100,1
41526,-100,4,1,0,100,0
72661,-100,4,2,0,100,0
124715,-50,4,1,0,100,0

[Colours]
Combo1 : 236,199,174
Combo2 : 0,0,128
Combo3 : 200,45,49
Combo4 : 221,221,221

[HitObjects]
152,160,21277,2,2,B|168:120|216:96|256:88,1,120
304,168,21925,2,2,B|288:208|240:232|200:240,1,120
120,232,22574,1,0
24,232,22898,1,0
48,320,23223,1,0
144,320,23547,1,0
240,320,23871,6,2,B|280:320|320:288|336:240,1,120
288,160,24520,2,2,B|248:160|208:192|192:240,1,120
232,312,25168,1,0
328,312,25493,1,0
424,312,25817,1,0
384,224,26141,1,0
344,136,26466,6,2,B|328:96|288:72|240:64,1,120
200,144,27114,2,2,B|216:184|256:208|304:216,1,120
384,208,27763,1,0
432,288,28087,1,0
336,296,28412,1,0
288,208,28736,1,0
248,120,29060,6,2,B|232:80|184:56|136:72,1,120
112,160,29709,2,2,B|128:200|176:224|224:208,1,120
304,208,30358,1,0
304,112,30682,1,0
224,56,31006,1,0
224,152,31331,1,0
224,248,31655,6,8,B|184:248|144:200|152:160,1,120
104,248,32304,2,8,B|64:248|24:200|32:160,1,120
288,248,34250,6,8,B|328:248|368:200|360:160,1,120
408,248,34898,2,8,B|448:248|488:200|480:160,1,120
296,152,36844,6,8,B|328:184|320:224|288:264,1,120
224,192,37493,6,8,B|192:224|200:264|232:304,1,120
320,312,38141,6,8,B|352:344|392:336|432:304,1,120
400,216,38790,6,8,B|368:184|328:192|288:224,1,120
136,80,39439,5,2
376,80,39763,1,2
376,304,40087,1,2
136,304,40412,1,2
136,208,40736,1,4
160,208,40817,1,4
232,208,40979,1,4
304,208,41141,1,4
352,208,41304,1,4
376,208,41385,1,4
376,96,41709,5,0
272,48,42033,2,0,B|200:40|112:64|80:112|64:176,1,240
64,192,42844,1,8
64,240,43006,1,8
72,280,43168,2,0,B|72:336|136:344|184:320,1,120
224,312,43655,1,8
264,280,43817,1,8
288,240,43979,1,8
304,144,44304,5,0
336,104,44466,1,0
368,144,44628,1,2
432,208,44952,1,0
464,240,45114,1,0
432,272,45277,1,2
392,304,45439,1,0
352,336,45601,1,0
312,304,45763,1,0
264,304,45925,6,2,B|192:304,1,60
152,304,46250,2,2,B|152:216,1,60
152,192,46574,2,2,B|224:192,1,60
256,168,46898,1,0
280,128,47060,1,0
312,88,47223,6,0,B|352:56|424:56|472:88|488:184,1,240
472,224,48033,1,8
432,256,48195,1,8
392,280,48358,2,0,B|352:336|328:344|336:360|272:344,1,120
256,328,48844,1,8
240,280,49006,1,8
224,232,49168,2,8,B|208:96,1,120
232,72,49655,1,0
280,56,49817,6,0,B|344:32|392:48|400:48,1,120
432,80,50304,1,8
400,120,50466,1,8
432,160,50628,1,8
400,200,50790,1,8
432,240,50952,1,8
400,280,51114,2,0,B|352:336|264:336|200:296|56:192,1,360
48,168,52250,1,0
40,120,52412,6,0,B|88:72|128:56|208:56|280:120,1,240
288,136,53223,1,8
328,160,53385,1,8
352,200,53547,2,0,B|384:288|312:320,1,120
288,320,54033,1,8
240,304,54195,1,8
200,272,54358,1,8
128,208,54682,5,0
96,168,54844,1,0
128,128,55006,1,2
192,56,55331,5,0
224,96,55493,1,0
256,136,55655,1,2
288,96,55817,1,0
320,56,55979,1,0
352,96,56141,1,0
384,136,56304,2,2,B|432:192,1,60
384,208,56628,2,2,B|432:264,1,60
384,280,56952,2,2,B|424:328,1,60
464,352,57277,1,0
472,304,57439,1,0
464,256,57601,6,0,B|464:200|384:96|312:56,1,240
280,48,58412,1,8
232,48,58574,1,8
192,72,58736,2,0,B|112:136|152:192,1,120
128,216,59223,1,8
120,264,59385,1,8
112,312,59547,1,8
192,360,59871,5,0
240,344,60033,1,0
280,320,60195,2,4,B|336:272|336:200,1,120
328,168,60682,1,0
296,128,60844,2,4,B|256:80,1,60
224,40,61168,2,4,B|144:40,1,60
112,40,61493,2,4,B|56:40|24:72|24:128,1,120
24,152,61979,5,2
24,152,62060,1,2
24,152,62141,1,2
24,152,62223,1,2
24,152,62304,1,2
24,152,62466,1,2
64,64,73168,5,8
80,160,73493,1,0
120,248,73817,1,8
184,312,74141,2,0,B|248:328,1,60
336,312,74628,1,8
368,280,74790,1,8
400,248,74952,2,8,B|440:216|456:168|448:120,1,120
448,48,75601,1,0
400,32,75763,5,0
304,32,76087,1,0
208,56,76412,1,8
176,88,76574,1,8
144,120,76736,1,8
112,152,76898,2,8,B|64:208|48:288|72:336|216:352,1,300
304,352,78033,1,0
352,352,78195,1,0
400,352,78358,6,0,B|472:248,1,120,0|8
464,160,79006,1,0
400,88,79331,1,8
336,16,79655,2,0,B|288:16|256:48|264:112,1,120,0|8
264,136,80141,2,0,B|264:200,1,60
264,288,80628,2,0,B|200:288,1,60,8|0
152,288,80952,2,2,B|96:288|40:232|40:168|40:96,1,240
40,8,81925,1,2
256,192,82250,12,0,83223
200,224,83547,6,2,B|152:224|120:192|128:144,1,120
224,152,84195,2,2,B|272:152|304:120|304:72,1,120
400,80,84844,1,0
432,120,85006,1,0
400,160,85168,1,0
432,200,85331,1,0
400,240,85493,2,2,B|440:288,2,60
304,240,86141,5,0
240,168,86466,1,0
176,240,86790,1,0
112,168,87114,2,8,B|64:216,1,60
72,304,87601,1,8
112,328,87763,1,8
160,344,87925,1,8
208,344,88087,1,8
256,336,88250,1,8
296,312,88412,1,8
352,232,88736,6,10,B|400:232|424:200|424:152,1,120
328,152,89385,2,10,B|280:152|248:120|248:64,1,120
152,80,90033,1,0
120,112,90195,1,0
152,144,90358,1,0
120,184,90520,1,0
152,224,90682,2,2,B|120:280,2,60
256,192,91331,12,0,92628
256,32,92952,5,4
88,192,93277,1,4
256,336,93601,1,4
344,336,93925,5,0
336,240,94250,1,8
288,160,94574,1,0
224,88,94898,2,8,B|168:64,1,60
88,112,95385,1,8
56,152,95547,1,8
24,192,95709,1,8
24,288,96033,1,0
56,320,96195,1,0
88,352,96358,1,0
136,352,96520,5,0
224,320,96844,1,0
296,256,97168,2,2,B|352:304,2,60
256,224,97655,2,2,B|192:168|168:88|248:40|344:16,1,300
448,176,99114,5,0
416,264,99439,1,8
336,320,99763,1,0
240,344,100087,2,8,B|176:320,1,60
136,240,100574,1,8
136,192,100736,1,8
136,144,100898,1,8
232,144,101223,5,0
232,192,101385,1,0
232,240,101547,1,0
232,288,101709,2,2,B|184:344,1,60
144,336,102033,2,2,B|104:288,1,60
72,248,102358,1,2
40,216,102520,1,2
72,184,102682,1,2
256,192,102844,12,0,103979
448,320,104304,5,0
432,224,104629,1,8
392,136,104953,1,0
328,72,105277,2,8,B|264:56,1,60
176,72,105764,1,8
144,104,105926,1,8
112,136,106088,2,8,B|72:168|56:216|64:264,1,120
64,336,106737,1,0
112,352,106899,5,8
208,352,107223,1,8
304,328,107548,1,8
336,296,107710,1,8
368,264,107872,1,8
400,232,108034,2,8,B|448:176|464:96|440:48|296:32,1,300
208,32,109169,1,0
160,32,109331,1,0
112,32,109493,6,2,B|56:88,1,60
40,112,109817,2,2,B|88:160,1,60
120,184,110141,2,2,B|72:232,1,60
40,256,110466,1,2
0,288,110628,1,2
104,352,110952,2,0,B|160:296,1,60
208,232,111439,1,0
264,152,111763,5,0
288,112,111925,1,0
312,72,112087,2,4,B|376:48,1,60
416,48,112412,2,4,B|472:80,1,60
472,128,112736,1,4
472,192,112952,1,4
472,256,113168,1,4
256,192,113385,12,4,114682
80,40,125060,6,0,B|32:88|32:192|152:312|216:312|288:304|392:280,1,480
416,208,125871,1,8
408,112,126033,1,8
336,48,126195,2,0,B|256:32|184:32|128:96|104:168,1,240
88,208,126682,1,8
104,304,126844,1,8
192,336,127006,1,8
288,168,127331,5,0
344,88,127493,1,0
432,56,127655,1,2
464,240,127979,1,0
400,304,128141,1,0
304,320,128304,2,2,B|240:200,1,120
152,208,128628,2,2,B|88:328,1,120
48,232,128952,1,4
136,64,129277,1,4
224,232,129601,1,4
416,264,129925,5,0
408,168,130087,1,0
360,80,130250,2,0,B|272:48|208:32|136:32|88:112|56:168|40:312,1,480
120,344,131060,1,8
216,320,131223,1,8
296,288,131385,2,0,B|408:224,1,120
480,176,131709,2,0,B|368:104,1,120
296,64,132033,1,8
200,48,132195,1,8
72,192,132520,5,0
72,288,132682,1,0
168,288,132844,1,2
360,288,133168,1,0
400,200,133331,1,0
432,112,133493,2,2,B|320:56,1,120
224,56,133817,2,2,B|120:128,1,120
48,176,134141,1,4
136,344,134466,1,4
224,176,134790,1,4
352,32,135114,5,0
416,104,135277,1,0
416,200,135439,2,0,B|416:264|368:320|248:320|112:312|32:96,1,480
64,48,136250,1,8
160,24,136412,1,8
256,48,136574,1,8
392,184,136898,2,8,B|480:280,3,120
280,304,137709,5,0
184,304,137871,1,0
88,304,138033,1,2
88,112,138358,1,0
184,112,138520,1,0
280,112,138682,1,2
376,112,138844,1,0
376,208,139006,1,0
376,304,139168,1,0
280,304,139331,2,4,B|280:40,1,240
88,64,139979,2,4,B|88:320,1,240
280,304,140628,6,0,B|400:224|384:184|344:104|320:80|272:56|248:48|208:40|176:48|152:72|136:80|112:88|80:96|72:120,1,480
48,176,141439,1,8
72,264,141601,1,8
152,312,141763,2,4,B|152:176,1,120
248,192,142087,2,4,B|248:328,1,120
344,312,142412,2,4,B|344:184,1,120
208,56,142898,6,0,B|72:56,2,120
400,56,143547,2,8,B|312:152,1,120
416,136,143871,2,8,B|312:248,1,120
432,224,144195,2,8,B|336:328,1,120
256,312,144520,1,4
256,120,144844,1,4
64,120,145168,1,4
88,312,145493,5,0
184,312,145655,1,0
280,312,145817,2,0,B|368:312|400:304|424:248|432:200|448:144|440:120|432:96|392:56|344:40|296:40|248:40,1,480
160,40,146628,1,8
64,40,146790,1,8
64,136,146952,1,8
160,304,147277,2,8,B|312:304,3,120
472,296,148087,5,0
440,200,148250,1,0
376,120,148412,1,2
192,56,148736,1,0
104,88,148898,1,0
64,176,149060,2,2,B|64:240|104:272|168:264,1,120
224,264,149385,2,2,B|352:264,1,120
440,264,149709,2,4,B|440:120,1,120
440,48,150033,2,4,B|304:48,1,120
224,48,150358,2,4,B|224:192,1,120
48,56,151006,6,0,B|40:192|136:280|240:320|424:328,1,480
456,272,151817,1,8
440,176,151979,1,8
376,104,152141,2,0,B|280:56|152:40|112:56,1,240
56,80,152628,1,8
48,176,152790,1,8
96,256,152952,2,8,B|256:296,1,120
304,296,153277,5,0
400,288,153439,1,0
440,200,153601,1,2
280,88,153925,1,0
208,152,154087,1,0
160,232,154250,2,2,B|160:288|200:320|248:328,1,120
248,232,154574,2,2,B|248:288|288:320|336:328,1,120
408,320,154898,1,4
400,128,155223,1,4
208,128,155547,1,4
64,256,155871,1,0
136,320,156033,1,0
232,328,156195,6,0,B|352:328|424:304|456:248|464:184|440:136|408:112|352:80|264:64,1,480
200,48,157006,1,8
104,40,157168,1,8
32,112,157331,2,0,B|112:224,1,120
160,288,157655,2,0,B|328:288,1,120
368,288,157979,1,8
464,288,158141,1,8
464,96,158466,5,0
376,64,158628,1,0
280,40,158790,2,2,B|136:40|48:144,1,240
32,216,159277,1,0
32,312,159439,2,2,B|128:192,1,120
200,224,159763,2,2,B|288:320,1,120
256,192,160087,12,0,160736
80,48,161060,5,0
176,48,161223,1,0
272,48,161385,2,0,B|392:56|464:152|424:280|296:320|192:328,1,480
120,328,162195,1,8
56,256,162358,1,8
40,160,162520,1,8
200,56,162844,2,0,B|144:184,1,120
248,160,163168,2,0,B|296:48,1,120
256,240,163655,1,0
320,312,163817,1,0
416,320,163979,2,4,B|320:232,1,120
256,168,164304,2,4,B|256:32,1,120
352,48,164628,2,4,B|352:176,1,120
448,160,164952,2,4,B|448:32,1,120
352,48,165277,2,6,C|48:48|16:336|400:344,1,960
