osu file format v6

[General]
AudioFilename: COOL&CREATE - drizzly train - 01 - Yet Another ''drizzly rain''.mp3
AudioLeadIn: 0
PreviewTime: -1
Countdown: 1
SampleSet: Soft
StackLeniency: 0.2
Mode: 0
LetterboxInBreaks: 0

[Editor]
Bookmarks: 45835,78745
DistanceSpacing: 1
BeatDivisor: 4
GridSize: 8

[Metadata]
Title:Yet Another "drizzly rain"
Artist:COOL&CREATE
Creator:varq
Version:Duet
Source:
Tags:touhou

[Difficulty]
HPDrainRate:0
CircleSize:6
OverallDifficulty:7
SliderMultiplier:2
SliderTickRate:2

[Events]
//Background and Video events
//Break Periods
//Storyboard Layer 0 (Background)
//Storyboard Layer 1 (Fail)
//Storyboard Layer 2 (Pass)
//Storyboard Layer 3 (Foreground)
//Storyboard Sound Samples
//Background Colour Transformations
3,100,0,0,0

[TimingPoints]
1954.67064878449,685.635927322592,4,2,0,100,1,0

[Colours]
Combo1 : 255,128,255
Combo2 : 0,255,255

[HitObjects]
239,110,1954,5,0
226,158,2126,1,0
211,213,2297,5,0
134,90,2468,5,0
101,128,2640,1,0
68,166,2811,5,0
89,211,2983,5,0
117,252,3154,5,0
160,280,3325,5,0
209,289,3497,1,0
308,310,3840,5,0
448,258,4354,1,0
426,213,4525,1,0
418,308,4697,5,0
395,263,4868,1,0
371,218,5040,1,0
348,173,5211,1,0
231,57,5382,5,0
259,98,5554,1,0
209,105,5725,1,0
238,145,5897,1,0
189,155,6068,1,0
224,193,6239,5,0
173,253,6411,5,0
189,300,6582,5,0
293,258,6582,5,0
284,329,6925,1,0
382,347,7268,1,0
417,298,7439,5,0
440,253,7611,1,0
440,203,7782,1,0
434,153,7953,1,0
410,98,8125,5,0
361,110,8296,1,0
313,126,8468,1,0
265,141,8639,1,0
73,71,8811,5,0
114,98,8982,1,0
74,127,9153,1,0
115,154,9325,1,0
75,185,9496,1,0
116,212,9668,1,0
206,246,9839,5,0
166,211,9839,1,0
244,277,10010,5,0
207,184,10010,5,0
166,154,10182,5,0
207,127,10353,1,0
164,99,10525,1,0
205,72,10696,1,0
249,49,10867,1,0
399,274,11039,5,0
415,226,11210,1,0
391,181,11382,1,0
412,136,11553,5,0
470,189,11553,5,0
470,189,11639,5,0
470,189,11724,1,0
470,189,11810,1,0
460,48,11896,5,0
470,189,11896,1,0
470,189,11982,5,0
411,58,12067,5,0
470,189,12067,1,0
470,189,12153,5,0
470,189,12239,1,0
316,90,12410,5,0
430,219,12410,1,0
267,100,12582,5,0
391,251,12582,5,0
296,281,12924,5,0
132,160,13096,5,0
246,288,13096,1,0
178,178,13267,1,0
151,253,13439,5,0
273,208,13610,5,0
121,212,13610,1,0
320,221,13781,1,0
114,112,13953,5,0
272,308,14124,5,0
209,140,14296,5,0
247,171,14467,1,0
330,116,14810,5,0
412,241,15324,1,0
412,241,15495,1,0
359,272,15667,5,0
312,253,15838,1,0
275,218,16010,1,0
265,168,16181,1,0
233,109,16353,5,0
231,59,16524,1,0
190,29,16695,1,0
142,45,16867,1,0
116,87,17038,1,0
71,127,17210,5,0
73,176,17381,5,0
115,201,17552,5,0
164,161,17552,5,0
209,233,17895,1,0
120,279,18238,1,0
175,313,18409,5,0
222,329,18581,1,0
270,338,18752,1,0
319,342,18924,1,0
366,320,19095,5,0
392,277,19266,1,0
405,228,19438,1,0
410,178,19609,1,0
419,113,19781,5,0
460,85,19952,1,0
414,64,20124,1,0
376,97,20295,1,0
337,128,20466,1,0
299,161,20638,1,0
339,46,20809,5,0
259,192,20809,1,0
303,81,20981,5,0
218,162,20981,5,0
260,136,21152,5,0
222,102,21323,1,0
183,69,21495,1,0
142,39,21666,1,0
91,40,21838,1,0
122,82,22009,5,0
160,113,22180,1,0
189,153,22352,5,0
130,184,22352,5,0
190,202,22523,1,0
37,221,22695,5,0
96,238,22866,5,0
124,278,23037,5,0
136,231,23037,5,0
178,204,23209,5,0
224,279,23380,5,0
199,323,23552,5,0
276,283,23552,5,0
250,325,23723,5,0
299,329,23895,1,0
348,327,24066,5,0
324,286,24066,1,0
393,307,24237,1,0
422,268,24409,5,0
391,206,24580,5,0
440,221,24580,1,0
340,205,24752,1,0
451,121,24923,5,0
250,161,25094,5,0
351,116,25266,5,0
331,161,25437,1,0
378,55,25780,5,0
228,65,26294,1,0
183,88,26466,1,0
125,119,26637,5,0
85,149,26808,1,0
55,189,26980,1,0
39,236,27151,1,0
81,268,27494,5,0
124,243,27666,1,0
172,230,27837,1,0
221,238,28008,1,0
269,270,28180,5,0
319,253,28351,5,0
319,202,28523,5,0
368,275,28523,5,0
324,102,28865,5,0
355,176,28865,5,0
396,170,29208,5,0
422,136,29208,5,0
460,168,29380,5,0
472,216,29551,1,0
481,265,29722,1,0
487,314,29894,1,0
441,310,30065,5,0
394,291,30237,1,0
347,272,30408,1,0
301,250,30579,1,0
252,227,30751,5,0
209,200,30922,1,0
253,177,31094,1,0
211,149,31265,1,0
256,127,31437,1,0
215,98,31608,1,0
67,103,31779,5,0
165,95,31779,1,0
64,153,31951,5,0
122,121,31951,5,0
163,149,32122,5,0
118,171,32294,1,0
159,198,32465,1,0
114,221,32636,1,0
64,226,32808,1,0
98,287,32979,5,0
144,304,33151,1,0
173,263,33322,5,0
184,315,33322,5,0
197,219,33493,1,0
244,235,33665,5,0
250,134,33836,5,0
288,165,34008,5,0
333,279,34008,5,0
387,170,34350,5,0
370,186,34350,5,0
426,138,34522,1,0
449,246,34693,5,0
351,84,34865,5,0
416,284,34865,1,0
301,84,35036,5,0
378,316,35036,5,0
252,94,35208,5,0
330,332,35208,5,0
280,336,35379,5,0
156,121,35550,5,0
230,332,35550,1,0
115,150,35722,1,0
179,226,36065,1,0
229,120,36236,5,0
278,113,36407,1,0
328,224,36579,5,0
327,122,36579,1,0
348,178,36750,5,0
375,135,36750,5,0
448,67,37264,1,0
459,115,37436,1,0
480,168,37607,5,0
488,217,37779,1,0
492,266,37950,1,0
482,315,38121,1,0
435,333,38293,1,0
425,276,38464,5,0
386,321,38464,1,0
383,247,38636,1,0
341,219,38807,5,0
301,267,38807,5,0
300,189,38979,1,0
201,258,39150,5,0
240,108,39321,5,0
209,147,39493,5,0
251,171,39493,5,0
113,118,39836,5,0
298,82,39836,5,0
76,210,40178,5,0
201,55,40178,5,0
169,93,40350,5,0
157,141,40521,1,0
147,190,40693,1,0
146,239,40864,1,0
203,315,41035,5,0
155,287,41035,1,0
250,300,41207,1,0
267,253,41378,1,0
279,204,41550,1,0
353,314,41721,5,0
399,295,41892,1,0
360,263,42064,1,0
407,246,42235,1,0
368,214,42407,1,0
414,195,42578,1,0
322,66,42750,5,0
454,225,42750,1,0
369,82,42921,5,0
448,274,42921,5,0
438,322,43092,5,0
392,342,43264,1,0
345,360,43435,1,0
307,327,43607,1,0
313,277,43778,1,0
429,218,43949,5,0
379,209,44121,1,0
335,184,44292,1,0
305,143,44464,1,0
288,75,44635,5,0
232,74,44806,5,0
207,117,44978,5,0
243,164,44978,5,0
144,182,45321,5,0
112,233,45492,5,0
159,280,45663,5,0
210,252,45835,5,0
203,302,45835,1,0
300,278,46178,5,0
346,313,46349,5,0
346,313,46521,5,0
221,215,46521,5,0
317,188,46863,5,0
333,163,47035,5,0
333,163,47120,1,0
333,163,47206,5,0
237,127,47206,5,0
333,98,47549,5,0
467,229,47720,5,0
467,229,47806,1,0
467,229,47892,5,0
412,158,47892,5,0
381,253,48235,5,0
459,79,48406,5,0
459,79,48492,1,0
459,79,48577,5,0
337,342,48577,5,0
237,337,48920,5,0
281,247,49263,1,0
334,162,49606,1,0
390,79,49949,1,0
198,74,50120,5,0
290,74,50292,5,0
122,139,50463,5,0
125,188,50634,5,0
224,149,50634,5,0
78,170,50806,1,0
82,219,50977,5,0
160,71,50977,5,0
153,289,51320,5,0
91,144,51320,5,0
159,217,51663,5,0
300,313,51834,5,0
300,313,51920,1,0
300,313,52006,5,0
257,231,52006,5,0
201,313,52348,5,0
442,265,52520,5,0
442,265,52606,1,0
442,265,52691,5,0
300,309,52691,5,0
365,233,53034,5,0
339,155,53205,5,0
432,159,53377,5,0
302,61,53548,5,0
480,71,53720,5,0
231,132,53891,5,0
231,132,54063,5,0
379,69,54063,5,0
279,66,54405,5,0
335,148,54748,1,0
264,218,55091,1,0
264,218,55262,1,0
264,218,55434,1,0
163,215,55777,1,0
163,215,55948,1,0
216,130,56291,1,0
314,121,56634,5,0
213,230,56634,1,0
314,121,57148,5,0
360,204,57148,5,0
360,304,57491,5,0
164,107,57662,5,0
122,134,57833,5,0
360,204,57833,5,0
165,158,58005,1,0
360,304,58176,5,0
258,194,58348,5,0
442,247,58519,5,0
343,141,58691,5,0
443,146,58862,5,0
421,79,59033,5,0
366,81,59205,5,0
327,42,59376,5,0
366,81,59376,1,0
366,81,59548,5,0
273,119,59890,1,0
128,65,60062,5,0
97,104,60233,5,0
194,180,60233,5,0
112,151,60405,1,0
75,185,60576,5,0
273,119,60576,5,0
87,233,60747,1,0
194,180,60919,5,0
175,280,61090,5,0
286,217,61262,5,0
269,311,61433,5,0
385,208,61604,5,0
337,238,61776,5,0
333,122,61947,5,0
386,151,62119,5,0
333,122,62119,1,0
333,122,62290,5,0
412,182,62633,1,0
450,309,62976,5,0
475,258,62976,1,0
417,271,63147,1,0
383,234,63319,5,0
398,322,63319,5,0
348,198,63490,1,0
329,249,63661,5,0
283,121,63833,5,0
252,183,64004,5,0
194,74,64176,5,0
194,74,64347,5,0
242,83,64347,5,0
194,74,64518,1,0
144,106,64690,5,0
150,164,64861,5,0
144,106,64861,1,0
150,164,65033,5,0
144,106,65033,5,0
219,171,65375,5,0
273,249,65547,5,0
273,249,65718,5,0
219,271,65718,5,0
219,271,65890,5,0
219,271,66061,1,0
393,159,66233,5,0
393,159,66318,1,0
393,159,66404,5,0
275,188,66404,5,0
318,163,66575,5,0
343,119,66747,1,0
269,74,66918,5,0
335,69,66918,1,0
269,74,67090,5,0
300,32,67090,5,0
118,72,67775,5,0
394,312,67775,5,0
118,72,67947,5,0
394,312,67947,5,0
81,106,68118,5,0
431,278,68118,5,0
81,106,68289,5,0
431,278,68289,5,0
61,152,68461,5,0
451,232,68461,5,0
61,152,68632,5,0
451,232,68632,5,0
82,197,68804,5,0
430,187,68804,5,0
82,197,68975,5,0
430,187,68975,5,0
172,240,69318,5,0
340,144,69318,5,0
172,240,69489,5,0
340,144,69489,5,0
179,289,69661,5,0
333,95,69661,5,0
179,289,69832,5,0
333,95,69832,5,0
244,325,70089,5,0
268,59,70089,5,0
244,325,70175,5,0
268,59,70175,5,0
293,329,70346,5,0
219,55,70346,5,0
385,290,70689,5,0
127,94,70689,5,0
385,290,70861,5,0
127,94,70861,5,0
414,194,71203,5,0
98,190,71203,5,0
430,120,71461,5,0
82,264,71461,5,0
367,78,71718,5,0
145,306,71718,5,0
270,50,72060,5,0
242,334,72060,5,0
220,60,72232,5,0
292,324,72232,5,0
197,104,72403,5,0
315,280,72403,5,0
153,128,72575,5,0
359,256,72575,5,0
89,167,72832,5,0
423,217,72832,5,0
198,227,73260,5,0
314,157,73260,5,0
198,227,73432,5,0
314,157,73432,5,0
246,240,73603,5,0
266,144,73603,5,0
246,240,73775,5,0
266,144,73775,5,0
294,251,73946,5,0
218,133,73946,5,0
366,269,74203,5,0
146,115,74203,5,0
345,197,74460,5,0
167,187,74460,5,0
284,117,74803,5,0
228,267,74803,5,0
284,117,74974,5,0
228,267,74974,5,0
328,93,75146,5,0
184,291,75146,5,0
328,93,75317,5,0
184,291,75317,5,0
398,119,75574,5,0
114,265,75574,5,0
439,181,75831,5,0
73,203,75831,5,0
428,280,76174,5,0
84,104,76174,5,0
428,280,76346,5,0
84,104,76346,5,0
383,302,76517,5,0
129,82,76517,5,0
383,302,76688,5,0
129,82,76688,5,0
308,312,76946,5,0
204,72,76946,5,0
233,320,77203,5,0
265,114,77203,5,0
198,283,77374,5,0
311,96,77374,5,0
171,240,77546,5,0
352,124,77546,5,0
147,196,77717,5,0
367,171,77717,5,0
150,146,77888,5,0
346,216,77888,5,0
193,120,78060,5,0
326,262,78060,5,0
239,139,78231,5,0
287,294,78231,5,0
239,139,78317,5,0
287,294,78317,5,0
239,139,78403,5,0
287,294,78403,5,0
