osu file format v9

[General]
AudioFilename: UN Owen was her by COOL&CREATE.mp3
AudioLeadIn: 3000
PreviewTime: 48365
Countdown: 0
SampleSet: Normal
StackLeniency: 0.7
Mode: 1
LetterboxInBreaks: 1
SkinPreference:taiko
EpilepsyWarning: 1

[Editor]
Bookmarks: 10630,21400,40075,57390,76890,96665,140165,168890
DistanceSpacing: 0.8
BeatDivisor: 4
GridSize: 8

[Metadata]
Title:U.N. Owen was her
Artist:COOL&CREATE
Creator:Nekoo[]
Version:Taikosaki
Source:Touhou
Tags:embodiment of scarlet devil OnosakiHito

[Difficulty]
HPDrainRate:4
CircleSize:5
OverallDifficulty:6
ApproachRate:5
SliderMultiplier:1.4
SliderTickRate:1

[Events]
//Background and Video events
0,0,"Taiko_BG.jpg"
//Break Periods
//Storyboard Layer 0 (Background)
//Storyboard Layer 1 (Fail)
//Storyboard Layer 2 (Pass)
//Storyboard Layer 3 (Foreground)
//Storyboard Sound Samples
//Background Colour Transformations
3,100,163,162,255

[TimingPoints]
515,300,4,1,0,80,1,0
38915,-100,4,1,0,80,0,1
58115,-100,4,1,0,80,0,0
96515,-100,4,1,0,80,0,1
115715,-100,4,1,0,80,0,0
154115,-83.3333333333333,4,1,0,80,0,1
173315,-83.3333333333333,4,1,0,80,0,0
173465,-100,4,1,0,80,0,0
192965,-100,4,1,0,20,0,0

[HitObjects]
120,80,515,1,4
120,80,815,5,8
120,80,1115,5,0
120,80,1265,5,8
120,80,1415,1,8
120,80,1490,1,8
120,80,1565,1,8
120,80,1715,5,0
120,80,2015,5,8
120,80,2090,1,8
120,80,2165,1,8
120,80,2315,5,0
120,80,2465,5,8
120,80,2615,5,0
120,80,2915,1,4
120,80,3215,5,8
120,80,3290,1,8
120,80,3365,1,8
120,80,3515,5,0
120,80,3665,5,8
120,80,3740,5,0
120,80,3815,5,8
120,80,3965,5,0
120,80,4115,5,8
120,80,4190,1,8
120,80,4265,1,8
120,80,4415,5,0
120,80,4565,5,8
120,80,4640,1,8
120,80,4715,1,8
120,80,4865,5,0
120,80,5015,5,8
120,80,5165,5,0
120,80,5315,1,4
120,80,5615,5,8
120,80,5690,1,8
120,80,5765,1,8
120,80,5915,5,0
120,80,6065,5,8
120,80,6215,1,8
120,80,6290,1,8
120,80,6365,1,8
120,80,6515,5,0
120,80,6815,5,8
120,80,6890,1,8
120,80,6965,1,8
120,80,7115,5,0
120,80,7265,5,8
120,80,7415,5,0
120,80,7565,1,0
120,80,7715,1,4
120,80,8015,5,8
120,80,8090,1,8
120,80,8165,1,8
120,80,8315,5,0
120,80,8465,5,8
120,80,8615,5,0
120,80,8690,5,8
120,80,8765,5,0
120,80,8915,5,8
120,80,8990,1,8
120,80,9065,1,8
120,80,9140,1,8
120,80,9215,1,8
120,80,9290,1,8
120,80,9365,1,8
120,80,9440,1,8
120,80,9515,5,0
120,80,9590,1,0
120,80,9665,1,0
120,80,9740,1,0
120,80,9815,1,0
120,80,9890,1,0
120,80,9965,1,0
120,80,10115,1,4
120,80,10265,5,8
120,80,10415,5,0
120,80,10565,5,8
120,80,10640,1,8
120,80,10715,5,0
120,80,10865,1,0
120,80,11015,5,8
120,80,11165,5,0
120,80,11240,5,8
120,80,11315,5,0
120,80,11390,5,8
120,80,11465,1,8
120,80,11540,5,0
120,80,11615,5,8
120,80,11765,1,8
120,80,11915,5,0
120,80,11990,5,8
120,80,12065,5,0
120,80,12215,5,12
120,80,12515,5,0
120,80,12590,5,8
120,80,12740,1,8
120,80,12815,5,0
120,80,12965,1,0
120,80,13115,5,8
120,80,13190,5,0
120,80,13265,1,0
120,80,13340,5,8
120,80,13415,1,8
120,80,13565,1,8
120,80,13640,1,8
120,80,13715,5,0
120,80,13865,1,0
120,80,14015,5,8
120,80,14090,5,0
120,80,14240,1,0
120,80,14315,5,8
120,80,14465,5,0
120,80,14615,5,8
120,80,14690,5,0
120,80,14765,1,0
120,80,14915,1,4
120,80,15065,5,8
120,80,15215,5,0
120,80,15290,1,0
120,80,15365,1,0
120,80,15515,1,0
120,80,15665,5,8
120,80,15815,5,0
120,80,15890,1,0
120,80,15965,1,0
120,80,16115,5,8
120,80,16190,1,8
120,80,16265,1,8
120,80,16340,1,8
120,80,16415,5,0
120,80,16490,1,0
120,80,16565,1,0
120,80,16640,1,0
120,80,16715,5,8
120,80,16865,5,0
120,80,17015,5,8
120,80,17090,1,8
120,80,17165,1,8
120,80,17315,5,4
120,80,17465,5,8
120,80,17615,5,0
120,80,17690,5,8
120,80,17765,5,0
120,80,17915,1,4
120,80,18065,5,8
120,80,18215,5,0
120,80,18290,1,0
120,80,18365,5,8
120,80,18440,5,0
120,80,18515,5,8
120,80,18665,1,8
120,80,18815,5,0
120,80,18890,1,0
120,80,18965,1,0
120,80,19040,1,0
120,80,19115,5,8
120,80,19265,1,8
120,80,19415,1,8
120,80,19490,1,8
120,80,19565,1,8
120,80,19715,5,0
120,80,19865,5,8
120,80,19940,1,8
120,80,20015,5,0
120,80,20165,1,0
120,80,20315,1,0
120,80,20390,1,0
120,80,20465,5,8
120,80,20615,5,0
120,80,20765,5,8
120,80,20840,1,8
120,80,20915,5,0
120,80,20990,5,8
120,80,21065,5,0
120,80,21215,1,0
120,80,21290,5,8
120,80,21365,1,8
120,80,21515,5,0
120,80,21665,1,0
120,80,21815,5,12
120,80,22115,5,4
120,80,22265,5,8
120,80,22415,5,0
120,80,22565,5,8
120,80,22715,5,4
120,80,22865,5,8
120,80,22940,1,8
120,80,23015,5,0
120,80,23165,5,8
120,80,23315,5,4
120,80,23465,5,8
120,80,23540,1,8
120,80,23615,5,0
120,80,23690,5,8
120,80,23765,1,8
120,80,23915,5,4
120,80,24065,5,8
120,80,24140,5,0
120,80,24215,1,0
120,80,24365,5,8
120,80,24515,5,0
120,80,24590,1,0
120,80,24665,5,8
120,80,24740,1,8
120,80,24815,5,0
120,80,24965,5,8
120,80,25115,5,0
120,80,25190,1,0
120,80,25265,1,0
120,80,25340,5,8
120,80,25415,1,8
120,80,25565,1,8
120,80,25865,1,8
120,80,26015,1,8
120,80,26090,1,8
120,80,26165,1,8
120,80,26240,1,8
120,80,26315,5,0
120,80,26390,5,8
120,80,26465,1,8
120,80,26540,1,8
120,80,26615,5,0
120,80,26690,1,0
120,80,26765,5,8
120,80,26915,5,4
120,80,27065,5,8
120,80,27215,5,0
120,80,27290,1,0
120,80,27365,5,8
120,80,27515,5,4
120,80,27665,5,8
120,80,27740,1,8
120,80,27815,5,0
120,80,27965,5,8
120,80,28040,5,0
120,80,28115,5,8
120,80,28265,1,8
120,80,28415,5,0
120,80,28490,1,0
120,80,28565,5,8
120,80,28715,5,4
120,80,28865,1,0
120,80,29015,1,0
120,80,29090,1,0
120,80,29165,1,0
120,80,29315,5,8
120,80,29390,1,8
120,80,29465,1,8
120,80,29540,1,8
120,80,29615,1,8
120,80,29690,1,8
120,80,29765,1,8
120,80,29840,1,8
120,80,29915,5,0
120,80,29990,1,0
120,80,30065,1,0
120,80,30140,1,0
120,80,30215,1,0
120,80,30290,1,0
120,80,30365,1,0
120,80,30440,1,0
120,80,30515,5,8
120,80,30590,1,8
120,80,30665,1,8
120,80,30740,1,8
120,80,30815,5,0
120,80,30890,1,0
120,80,30965,1,0
120,80,31040,1,0
120,80,31115,5,8
120,80,31190,1,8
120,80,31265,5,0
120,80,31340,1,0
120,80,31415,5,8
120,80,31715,5,0
120,80,31790,1,0
120,80,31865,5,8
120,80,32015,5,0
120,80,32090,1,0
120,80,32165,5,8
120,80,32315,1,8
120,80,32390,5,0
120,80,32465,1,0
120,80,32615,5,8
120,80,32690,5,0
120,80,32765,1,0
120,80,32915,1,0
120,80,32990,1,0
120,80,33065,5,8
120,80,33140,1,8
120,80,33215,5,0
120,80,33290,1,0
120,80,33365,5,8
120,80,33440,1,8
120,80,33515,5,0
120,80,33665,5,8
120,80,33815,5,0
120,80,33965,5,8
120,80,34115,5,4
120,80,34265,5,8
120,80,34340,1,8
120,80,34415,5,0
120,80,34565,5,8
120,80,34715,5,0
120,80,34790,1,0
120,80,34865,5,8
120,80,34940,5,0
120,80,35015,1,0
120,80,35165,5,8
120,80,35240,1,8
120,80,35315,5,0
120,80,35390,1,0
120,80,35465,5,8
120,80,35615,5,0
120,80,35765,5,8
120,80,35915,5,0
120,80,35990,1,0
120,80,36065,1,0
120,80,36140,1,0
120,80,36215,5,8
120,80,36515,5,0
120,80,36590,1,0
120,80,36665,5,8
120,80,36740,1,8
120,80,36815,5,0
120,80,36890,1,0
120,80,36965,5,8
120,80,37040,1,8
120,80,37115,5,0
120,80,37190,1,0
120,80,37265,5,8
120,80,37340,5,0
120,80,37415,5,8
120,80,37490,1,8
120,80,37565,5,0
120,80,37640,1,0
120,80,37715,5,8
120,80,37790,5,0
120,80,37865,5,8
120,80,37940,1,8
120,80,38015,5,0
120,80,38090,1,0
120,80,38165,5,8
120,80,38240,1,8
120,80,38315,5,0
120,80,38465,5,8
120,80,38540,5,0
120,80,38615,5,8
120,80,38690,5,0
120,80,38765,5,8
120,80,38840,5,0
120,80,38915,1,0
120,80,39065,5,8
120,80,39140,1,8
120,80,39215,5,0
120,80,39365,5,8
120,80,39515,5,0
120,80,39590,1,0
120,80,39665,5,8
120,80,39815,1,8
120,80,39890,1,8
120,80,39965,5,0
120,80,40040,1,0
120,80,40115,5,8
120,80,40265,1,8
120,80,40415,5,0
120,80,40565,5,8
120,80,40715,5,0
120,80,40790,5,8
120,80,40865,5,0
120,80,41015,5,8
120,80,41090,5,0
120,80,41165,5,8
120,80,41240,5,0
120,80,41315,5,8
120,80,41390,1,8
120,80,41465,5,0
120,80,41540,1,0
120,80,41615,5,8
120,80,41765,1,8
120,80,41915,1,8
120,80,42065,1,8
120,80,42140,5,0
120,80,42215,5,8
120,80,42365,5,0
120,80,42515,1,0
120,80,42590,1,0
120,80,42665,5,8
120,80,42815,5,0
120,80,42890,1,0
120,80,42965,5,8
120,80,43115,5,0
120,80,43190,1,0
120,80,43265,1,0
120,80,43340,1,0
120,80,43415,1,0
120,80,43490,1,0
120,80,43565,1,0
120,80,43715,1,0
120,80,43865,5,8
120,80,43940,1,8
120,80,44015,5,0
120,80,44165,5,8
120,80,44315,5,0
120,80,44390,1,0
120,80,44465,5,8
120,80,44540,5,0
120,80,44615,1,0
120,80,44765,1,0
120,80,44915,1,0
120,80,44990,1,0
120,80,45065,5,8
120,80,45215,1,8
120,80,45290,5,0
120,80,45365,5,8
120,80,45515,5,0
120,80,45590,5,8
120,80,45665,5,0
120,80,45815,5,8
120,80,45890,1,8
120,80,45965,1,8
120,80,46115,5,4
120,80,46265,5,8
120,80,46340,1,8
120,80,46415,5,0
120,80,46565,5,8
120,80,46715,5,4
120,80,46865,5,8
120,80,46940,1,8
120,80,47015,5,0
120,80,47090,5,8
120,80,47165,5,0
120,80,47315,1,4
120,80,47465,5,8
120,80,47615,5,4
120,80,47765,5,8
120,80,47915,5,0
120,80,47990,5,8
120,80,48065,5,0
120,80,48140,5,8
120,80,48215,5,0
120,80,48265,1,0
120,80,48315,1,0
120,80,48365,1,0
120,80,48515,1,4
120,80,48665,5,8
120,80,48740,1,8
120,80,48815,5,0
120,80,48965,5,8
120,80,49115,5,0
120,80,49190,1,0
120,80,49265,5,8
120,80,49340,5,0
120,80,49415,5,8
120,80,49565,5,0
120,80,49640,1,0
120,80,49715,1,0
120,80,49865,1,0
120,80,50015,1,0
120,80,50165,5,8
120,80,50315,5,0
120,80,50390,1,0
120,80,50465,1,0
120,80,50540,1,0
120,80,50615,5,8
120,80,50690,1,8
120,80,50765,1,8
120,80,50840,1,8
120,80,50915,5,0
120,80,51065,5,8
120,80,51140,1,8
120,80,51215,5,0
120,80,51365,5,8
120,80,51515,5,0
120,80,51590,5,8
120,80,51665,5,0
120,80,51740,5,8
120,80,51815,5,0
120,80,51965,5,8
120,80,52115,5,4
120,80,52265,5,8
120,80,52415,5,4
120,80,52565,5,8
120,80,52715,5,0
120,80,52790,5,8
120,80,52865,5,0
120,80,52940,1,0
120,80,53015,1,0
120,80,53090,1,0
120,80,53165,1,0
120,80,53315,1,0
120,80,53465,5,8
120,80,53540,1,8
120,80,53615,5,0
120,80,53765,5,8
120,80,53915,5,0
120,80,53990,1,0
120,80,54065,5,8
120,80,54215,1,8
120,80,54290,1,8
120,80,54365,5,0
120,80,54440,1,0
120,80,54515,1,0
120,80,54665,1,0
120,80,54815,1,0
120,80,54890,1,0
120,80,54965,5,8
120,80,55115,5,0
120,80,55190,1,0
120,80,55265,5,8
120,80,55340,1,8
120,80,55415,5,0
120,80,55490,5,8
120,80,55565,1,8
120,80,55715,5,0
120,80,55865,5,8
120,80,55940,1,8
120,80,56015,5,0
120,80,56165,5,8
120,80,56315,5,0
120,80,56390,5,8
120,80,56465,5,0
120,80,56540,5,8
120,80,56615,5,0
120,80,56765,1,0
120,80,56915,2,0,B|200:80|200:72,7,70
120,80,58115,1,0
120,80,58190,1,0
120,80,58265,5,8
120,80,58415,1,8
120,80,58565,1,8
120,80,58640,5,0
120,80,58715,1,0
120,80,58865,1,0
120,80,59015,5,8
120,80,59165,1,8
120,80,59315,5,0
120,80,59390,1,0
120,80,59465,1,0
120,80,59540,1,0
120,80,59615,1,0
120,80,59765,1,0
120,80,59840,1,0
120,80,60065,5,8
120,80,60140,5,0
120,80,60215,1,0
120,80,60365,1,0
120,80,60515,1,0
120,80,60590,1,0
120,80,60665,5,8
120,80,60815,1,8
120,80,60965,1,8
120,80,61040,5,0
120,80,61115,1,0
120,80,61265,1,0
120,80,61415,5,8
120,80,61490,5,0
120,80,61565,5,8
120,80,61715,1,8
120,80,61790,1,8
120,80,61865,1,8
120,80,61940,1,8
120,80,62015,1,8
120,80,62165,1,8
120,80,62240,1,8
120,80,62465,5,0
120,80,62540,5,8
120,80,62615,5,0
120,80,62765,5,8
120,80,62840,1,8
120,80,62915,5,0
120,80,62990,1,0
120,80,63065,5,8
120,80,63215,1,8
120,80,63365,1,8
120,80,63440,5,0
120,80,63515,1,0
120,80,63665,1,0
120,80,63815,5,8
120,80,63890,1,8
120,80,63965,5,0
120,80,64115,1,0
120,80,64190,5,8
120,80,64265,5,0
120,80,64340,5,8
120,80,64415,5,0
120,80,64565,5,8
120,80,64640,5,0
120,80,64715,5,8
120,80,64790,5,0
120,80,64865,5,8
120,80,65015,5,4
120,80,65315,1,0
120,80,65390,1,0
120,80,65465,5,8
120,80,65615,1,8
120,80,65765,1,8
120,80,65840,5,0
120,80,65915,1,0
120,80,66065,1,0
120,80,66215,1,0
120,80,66290,5,8
120,80,66365,5,0
120,80,66440,1,0
120,80,66515,5,8
120,80,66590,1,8
120,80,66665,1,8
120,80,66815,1,8
120,80,66890,1,8
120,80,67115,1,8
120,80,67190,1,8
120,80,67265,1,8
120,80,67415,1,12
120,80,67715,1,8
120,80,67790,5,0
120,80,67865,1,0
120,80,68015,1,0
120,80,68165,1,0
120,80,68240,1,0
120,80,68315,5,8
120,80,68465,5,0
120,80,68615,5,8
120,80,68690,5,0
120,80,68765,5,8
120,80,68915,5,0
120,80,68990,1,0
120,80,69065,1,0
120,80,69140,1,0
120,80,69215,1,0
120,80,69365,1,0
120,80,69440,1,0
120,80,69515,5,8
120,80,69590,1,8
120,80,69665,5,0
120,80,69815,5,12
120,80,70115,1,8
120,80,70190,5,0
120,80,70265,1,0
120,80,70415,1,0
120,80,70565,1,0
120,80,70640,1,0
120,80,70715,5,8
120,80,70865,5,0
120,80,71015,5,8
120,80,71090,5,0
120,80,71165,5,8
120,80,71315,1,8
120,80,71390,1,8
120,80,71465,1,8
120,80,71540,1,8
120,80,71615,1,8
120,80,71765,5,0
120,80,71840,1,0
120,80,72065,1,0
120,80,72140,1,0
120,80,72215,5,8
120,80,72365,1,8
120,80,72515,5,0
120,80,72590,1,0
120,80,72665,5,8
120,80,72740,1,8
120,80,72815,5,0
120,80,72890,5,8
120,80,72965,5,0
120,80,73115,1,0
120,80,73265,5,8
120,80,73340,1,8
120,80,73415,5,0
120,80,73565,5,8
120,80,73715,5,8
120,80,73790,5,0
120,80,73865,5,8
120,80,73940,5,0
120,80,74015,5,8
120,80,74090,1,0
120,80,74165,5,8
120,80,74240,1,8
120,80,74315,5,0
120,80,74390,1,0
120,80,74465,5,8
120,80,74540,5,0
120,80,74615,5,8
120,80,74690,1,8
120,80,74765,1,8
120,80,74915,5,0
120,80,74990,1,0
120,80,75065,5,8
120,80,75140,1,8
120,80,75215,5,0
120,80,75365,5,8
120,80,75440,1,8
120,80,75515,5,0
120,80,75590,1,0
120,80,75665,5,8
120,80,75815,5,0
120,80,75965,1,0
120,80,76115,1,4
120,80,76265,5,8
120,80,76340,1,8
120,80,76415,1,8
120,80,76565,5,4
120,80,76715,5,8
120,80,76790,1,8
120,80,76865,1,8
120,80,77015,5,4
120,80,77315,1,0
120,80,77465,5,8
120,80,77540,1,8
120,80,77615,5,0
120,80,77765,5,8
120,80,77915,5,0
120,80,77990,1,0
120,80,78065,5,8
120,80,78140,5,0
120,80,78215,1,0
120,80,78365,5,8
120,80,78440,1,8
120,80,78515,5,0
120,80,78590,1,0
120,80,78665,5,8
120,80,78740,5,0
120,80,78815,5,8
120,80,78890,1,8
120,80,78965,5,0
120,80,79040,5,8
120,80,79115,5,0
120,80,79265,1,0
120,80,79415,5,12
120,80,79715,5,0
120,80,79790,1,0
120,80,79865,5,8
120,80,79940,1,8
120,80,80015,5,0
120,80,80090,1,0
120,80,80165,5,8
120,80,80315,5,0
120,80,80390,1,0
120,80,80465,5,8
120,80,80540,1,8
120,80,80615,5,0
120,80,80690,1,0
120,80,80765,5,8
120,80,80915,5,0
120,80,80990,5,8
120,80,81065,5,0
120,80,81215,1,0
120,80,81365,5,8
120,80,81440,5,0
120,80,81515,1,0
120,80,81665,5,8
120,80,81815,5,0
120,80,81890,1,0
120,80,81965,5,8
120,80,82115,5,0
120,80,82265,5,8
120,80,82340,1,8
120,80,82415,5,0
120,80,82565,5,8
120,80,82715,5,0
120,80,82790,5,8
120,80,82865,5,0
120,80,82940,5,8
120,80,83015,5,0
120,80,83165,5,8
120,80,83240,1,8
120,80,83315,5,0
120,80,83465,5,8
120,80,83540,5,0
120,80,83615,5,8
120,80,83765,5,0
120,80,83915,5,8
120,80,84065,5,0
120,80,84215,5,12
120,80,84515,5,0
120,80,84590,1,0
120,80,84665,5,8
120,80,84740,1,8
120,80,84815,5,0
120,80,84890,5,8
120,80,84965,5,0
120,80,85115,1,0
120,80,85190,1,0
120,80,85265,5,8
120,80,85340,1,8
120,80,85415,5,0
120,80,85490,5,8
120,80,85565,5,0
120,80,85715,5,8
120,80,85790,1,8
120,80,85865,5,0
120,80,85940,1,0
120,80,86015,5,8
120,80,86090,1,8
120,80,86165,5,0
120,80,86240,1,0
120,80,86315,5,8
120,80,86465,1,8
120,80,86615,5,4
120,80,86915,1,0
120,80,87065,5,8
120,80,87140,1,8
120,80,87215,5,0
120,80,87365,5,8
120,80,87515,5,0
120,80,87590,1,0
120,80,87665,5,8
120,80,87740,5,0
120,80,87815,1,0
120,80,87965,5,8
120,80,88040,1,8
120,80,88115,5,0
120,80,88265,5,8
120,80,88415,5,0
120,80,88490,1,0
120,80,88565,5,8
120,80,88715,5,0
120,80,88790,1,0
120,80,88865,5,8
120,80,88940,1,8
120,80,89015,5,0
120,80,89315,1,0
120,80,89465,5,8
120,80,89540,5,0
120,80,89615,5,8
120,80,89765,1,8
120,80,89840,5,0
120,80,89990,1,0
120,80,90065,5,8
120,80,90215,5,0
120,80,90365,5,8
120,80,90440,1,8
120,80,90515,5,0
120,80,90590,1,0
120,80,90665,5,8
120,80,90815,5,0
120,80,90890,5,8
120,80,91040,1,8
120,80,91115,5,0
120,80,91190,1,0
120,80,91265,1,0
120,80,91340,1,0
120,80,91415,1,0
120,80,91490,1,0
120,80,91565,1,0
120,80,91640,1,0
120,80,91715,5,8
120,80,91865,5,0
120,80,91940,1,0
120,80,92015,5,8
120,80,92165,5,0
120,80,92240,5,8
120,80,92390,1,8
120,80,92465,5,0
120,80,92615,1,0
120,80,92690,5,8
120,80,92765,5,0
120,80,92840,1,0
120,80,92915,5,8
120,80,93065,1,8
120,80,93140,1,8
120,80,93215,5,0
120,80,93365,1,0
120,80,93440,5,8
120,80,93590,1,8
120,80,93665,5,0
120,80,93740,5,8
120,80,93815,5,0
120,80,93965,5,8
120,80,94115,1,12
120,80,94265,5,0
120,80,94340,1,0
120,80,94415,5,8
120,80,94565,5,0
120,80,94715,5,12
120,80,94865,5,0
120,80,94940,1,0
120,80,95015,5,8
120,80,95165,5,0
120,80,95315,5,8
120,80,95390,5,0
120,80,95465,1,0
120,80,95540,1,0
120,80,95615,5,8
120,80,95690,5,0
120,80,95765,1,0
120,80,95840,1,0
120,80,95915,5,8
120,80,95990,5,0
120,80,96065,5,8
120,80,96140,5,0
120,80,96215,5,8
120,80,96365,1,8
120,80,96515,5,0
120,80,96665,5,8
120,80,96740,1,8
120,80,96815,5,0
120,80,96965,5,8
120,80,97115,5,0
120,80,97190,1,0
120,80,97265,5,8
120,80,97415,1,8
120,80,97565,5,0
120,80,97640,1,0
120,80,97715,1,0
120,80,97790,1,0
120,80,97865,5,8
120,80,98015,5,0
120,80,98165,5,8
120,80,98240,1,8
120,80,98315,5,0
120,80,98465,1,0
120,80,98615,1,0
120,80,98690,5,8
120,80,98765,1,8
120,80,98840,5,0
120,80,98915,5,8
120,80,99065,5,0
120,80,99215,5,12
120,80,99365,5,4
120,80,99515,5,8
120,80,99665,5,0
120,80,99740,1,0
120,80,99815,5,8
120,80,99965,5,0
120,80,100115,1,0
120,80,100190,1,0
120,80,100265,5,8
120,80,100415,5,0
120,80,100490,1,0
120,80,100565,5,8
120,80,100715,5,0
120,80,100790,1,0
120,80,100865,1,0
120,80,100940,1,0
120,80,101015,1,0
120,80,101090,1,0
120,80,101165,1,0
120,80,101240,1,0
120,80,101315,5,8
120,80,101465,5,0
120,80,101540,5,8
120,80,101615,5,0
120,80,101765,5,8
120,80,101915,5,0
120,80,102065,5,8
120,80,102140,1,8
120,80,102215,5,0
120,80,102365,1,0
120,80,102440,1,0
120,80,102515,5,8
120,80,102665,1,8
120,80,102815,5,0
120,80,102890,1,0
120,80,102965,5,8
120,80,103040,1,8
120,80,103115,5,0
120,80,103265,1,0
120,80,103415,5,8
120,80,103490,1,8
120,80,103565,1,8
120,80,103640,1,8
120,80,103715,5,0
120,80,103865,1,0
120,80,104015,5,8
120,80,104090,5,0
120,80,104165,5,8
120,80,104315,1,8
120,80,104465,5,0
120,80,104540,1,0
120,80,104615,5,8
120,80,104690,5,0
120,80,104765,5,8
120,80,104840,1,8
120,80,104915,5,0
120,80,104990,1,0
120,80,105065,1,0
120,80,105140,1,0
120,80,105215,5,8
120,80,105365,5,0
120,80,105440,1,0
120,80,105515,5,8
120,80,105590,5,0
120,80,105665,5,8
120,80,105740,1,8
120,80,105815,5,0
120,80,105865,1,0
120,80,105915,1,0
120,80,105965,1,0
120,80,106115,1,0
120,80,106265,5,8
120,80,106340,1,8
120,80,106415,5,0
120,80,106565,5,8
120,80,106715,5,0
120,80,106790,5,8
120,80,106865,5,0
120,80,107015,5,8
120,80,107165,5,0
120,80,107240,1,0
120,80,107315,5,8
120,80,107465,1,8
120,80,107615,5,0
120,80,107690,5,8
120,80,107765,5,0
120,80,107840,1,0
120,80,107915,5,8
120,80,108065,5,0
120,80,108215,5,8
120,80,108290,1,8
120,80,108365,1,8
120,80,108440,5,0
120,80,108515,5,8
120,80,108665,5,0
120,80,108815,5,8
120,80,108890,1,8
120,80,108965,5,0
120,80,109115,5,8
120,80,109265,5,0
120,80,109340,5,8
120,80,109415,5,0
120,80,109565,1,0
120,80,109715,1,0
120,80,109790,1,0
120,80,109865,5,8
120,80,109940,1,8
120,80,110015,5,0
120,80,110090,1,0
120,80,110165,5,8
120,80,110240,1,8
120,80,110315,5,0
120,80,110390,1,0
120,80,110465,1,0
120,80,110540,1,0
120,80,110615,5,8
120,80,110765,5,0
120,80,110915,1,4
120,80,111065,5,8
120,80,111140,5,0
120,80,111215,1,0
120,80,111365,5,8
120,80,111515,5,0
120,80,111590,1,0
120,80,111665,5,8
120,80,111815,1,12
120,80,111965,5,4
120,80,112115,1,0
120,80,112190,1,0
120,80,112265,5,8
120,80,112415,5,0
120,80,112565,1,0
120,80,112715,5,8
120,80,112790,1,8
120,80,112865,5,0
120,80,112940,1,0
120,80,113015,5,8
120,80,113090,1,8
120,80,113165,1,8
120,80,113240,1,8
120,80,113315,5,0
120,80,113465,1,0
120,80,113615,5,8
120,80,113690,5,0
120,80,113765,5,8
120,80,113915,1,12
120,80,114065,1,8
120,80,114140,1,8
120,80,114215,5,0
120,80,114365,1,0
120,80,114515,1,0
120,80,114590,1,0
120,80,114665,5,8
120,80,114740,5,0
120,80,114815,1,0
120,80,114890,1,0
120,80,114965,5,8
120,80,115040,5,0
120,80,115115,1,0
120,80,115190,5,8
120,80,115265,1,8
120,80,115340,5,0
120,80,115415,5,8
120,80,115490,5,0
120,80,115565,5,8
120,80,115715,1,8
120,80,116015,5,0
120,80,116315,5,8
120,80,116615,5,0
120,80,116765,5,8
120,80,117065,1,8
120,80,117215,5,0
120,80,117515,5,8
120,80,117815,1,8
120,80,118115,5,0
120,80,118265,5,8
120,80,118340,5,0
120,80,118415,5,8
120,80,118565,1,8
120,80,118715,5,0
120,80,118865,5,8
120,80,118940,5,0
120,80,119015,5,8
120,80,119165,1,8
120,80,119240,1,8
120,80,119315,5,0
120,80,119465,5,8
120,80,119615,5,0
120,80,119690,5,8
120,80,119840,1,8
120,80,119915,1,8
120,80,120065,5,0
120,80,120215,5,8
120,80,120365,5,0
120,80,120515,5,12
120,80,120815,5,0
120,80,121115,5,8
120,80,121415,5,0
120,80,121565,5,8
120,80,121865,1,8
120,80,122015,5,0
120,80,122315,5,8
120,80,122615,5,0
120,80,122915,1,0
120,80,123065,5,8
120,80,123140,5,0
120,80,123215,5,8
120,80,123365,1,8
120,80,123515,5,0
120,80,123665,5,8
120,80,123740,5,0
120,80,123815,5,8
120,80,123965,1,8
120,80,124115,1,8
120,80,124190,5,0
120,80,124265,1,0
120,80,124340,1,0
120,80,124415,5,8
120,80,124490,5,0
120,80,124565,1,0
120,80,124640,1,0
120,80,124715,5,8
120,80,124790,5,0
120,80,124865,5,8
120,80,124940,5,0
120,80,125015,5,8
120,80,125165,5,0
120,80,125315,5,12
120,80,125465,5,0
120,80,125615,5,8
120,80,125765,5,0
120,80,125915,5,8
120,80,126065,5,0
120,80,126140,1,0
120,80,126215,5,8
120,80,126365,1,8
120,80,126440,1,8
120,80,126515,5,0
120,80,126590,1,0
120,80,126665,5,8
120,80,126815,5,0
120,80,126965,1,0
120,80,127115,1,0
120,80,127190,1,0
120,80,127265,5,8
120,80,127415,5,0
120,80,127715,1,0
120,80,127865,5,8
120,80,127940,5,0
120,80,128015,5,8
120,80,128165,5,0
120,80,128315,5,8
120,80,128465,5,0
120,80,128540,5,8
120,80,128615,5,0
120,80,128765,5,8
120,80,128915,5,0
120,80,129065,5,8
120,80,129140,5,0
120,80,129215,5,8
120,80,129365,1,8
120,80,129515,5,0
120,80,129665,5,8
120,80,129740,5,0
120,80,129815,5,8
120,80,129965,5,0
120,80,130115,5,12
120,80,130415,5,0
120,80,130715,5,8
120,80,131015,5,0
120,80,131165,5,8
120,80,131315,1,12
120,80,131465,5,0
120,80,131615,1,0
120,80,131915,5,8
120,80,132215,5,0
120,80,132515,5,12
120,80,132815,5,0
120,80,132965,1,0
120,80,133115,5,12
120,80,133415,5,0
120,80,133565,1,0
120,80,133715,5,12
120,80,133865,5,0
120,80,134015,5,12
120,80,134165,5,0
120,80,134315,5,8
120,80,134390,5,0
120,80,134465,1,0
120,80,134540,1,0
120,80,134615,5,8
120,80,134690,5,0
120,80,134765,5,8
120,80,134840,5,0
120,80,134915,5,8
120,80,135065,5,0
120,80,135215,5,8
120,80,135515,5,0
120,80,135665,1,0
120,80,135815,5,8
120,80,135965,5,0
120,80,136265,1,0
120,80,136415,5,8
120,80,136565,1,8
120,80,136715,5,0
120,80,137015,5,12
120,80,137315,1,8
120,80,137465,5,0
120,80,137615,5,8
120,80,137765,1,8
120,80,137915,5,0
120,80,138065,1,0
120,80,138140,1,0
120,80,138215,5,8
120,80,138365,5,0
120,80,138515,1,0
120,80,138590,1,0
120,80,138665,5,8
120,80,138815,5,0
120,80,138890,1,0
120,80,138965,5,8
120,80,139115,5,0
120,80,139190,1,0
120,80,139265,1,0
120,80,139340,1,0
120,80,139415,1,0
120,80,139490,1,0
120,80,139565,1,0
120,80,139715,1,4
120,80,140015,5,8
120,80,140315,5,0
120,80,140465,1,0
120,80,140615,5,8
120,80,140765,5,0
120,80,140915,5,12
120,80,141065,5,0
120,80,141215,1,0
120,80,141365,5,8
120,80,141515,5,0
120,80,141815,5,8
120,80,141890,1,8
120,80,141965,5,0
120,80,142040,5,8
120,80,142115,5,0
120,80,142265,1,0
120,80,142415,5,8
120,80,142565,1,8
120,80,142715,5,0
120,80,142790,1,0
120,80,142865,5,8
120,80,142940,5,0
120,80,143015,5,8
120,80,143165,5,0
120,80,143315,5,8
120,80,143390,5,0
120,80,143465,1,0
120,80,143540,1,0
120,80,143615,5,8
120,80,143690,5,0
120,80,143765,1,0
120,80,143840,1,0
120,80,143915,5,8
120,80,143990,5,0
120,80,144065,5,8
120,80,144140,5,0
120,80,144215,5,8
120,80,144290,5,0
120,80,144365,5,8
120,80,144515,5,4
120,80,144665,5,8
120,80,144815,5,0
120,80,144890,1,0
120,80,144965,5,8
120,80,145115,5,0
120,80,145265,5,8
120,80,145340,1,8
120,80,145415,5,0
120,80,145565,1,0
120,80,145715,1,0
120,80,145790,5,8
120,80,145865,5,0
120,80,146015,1,0
120,80,146165,5,8
120,80,146240,1,8
120,80,146315,5,0
120,80,146465,1,0
120,80,146540,1,0
120,80,146615,5,8
120,80,146690,1,8
120,80,146765,5,0
120,80,146840,1,0
120,80,146915,5,8
120,80,147065,5,0
120,80,147215,5,8
120,80,147290,5,0
120,80,147365,5,8
120,80,147515,1,8
120,80,147665,5,0
120,80,147740,1,0
120,80,147815,5,8
120,80,147965,5,0
120,80,148115,1,0
120,80,148190,1,0
120,80,148265,5,8
120,80,148340,1,8
120,80,148415,5,0
120,80,148490,1,0
120,80,148565,5,8
120,80,148715,6,0,B|208:80|208:88,3,70
189,82,149315,1,4
189,82,149465,5,8
189,82,149540,1,8
189,82,149615,5,0
189,82,149765,5,8
189,82,149915,5,0
189,82,149990,1,0
189,82,150065,5,8
189,82,150140,5,0
189,82,150215,5,8
189,82,150365,5,0
189,82,150440,1,0
189,82,150515,5,8
189,82,150665,5,0
189,82,150815,1,0
189,82,150965,5,8
189,82,151040,1,8
189,82,151115,5,0
189,82,151265,1,0
189,82,151415,1,0
189,82,151490,5,8
189,82,151565,1,8
189,82,151640,1,8
189,82,151715,5,0
189,82,151865,1,0
189,82,152015,5,8
189,82,152090,5,0
189,82,152165,5,8
189,82,152315,5,0
189,82,152390,1,0
189,82,152465,5,8
189,82,152540,5,0
189,82,152615,5,8
189,82,152765,5,0
189,82,152915,5,8
189,82,152990,5,0
189,82,153065,1,0
189,82,153140,1,0
189,82,153215,5,8
189,82,153290,5,0
189,82,153365,1,0
189,82,153440,1,0
189,82,153515,5,8
189,82,153590,5,0
189,82,153665,5,8
189,82,153740,5,0
189,82,153815,5,8
189,82,153965,1,8
189,82,154115,5,0
189,82,154190,1,0
189,82,154265,1,0
189,82,154340,1,0
189,82,154415,5,8
189,82,154490,5,0
189,82,154565,5,8
189,82,154715,5,0
189,82,154865,5,8
189,82,154940,5,0
189,82,155015,5,8
189,82,155090,1,8
189,82,155165,5,0
189,82,155240,5,8
189,82,155315,5,0
189,82,155465,1,0
189,82,155615,5,8
189,82,155690,5,0
189,82,155765,5,8
189,82,155840,5,0
189,82,155915,5,8
189,82,156065,5,0
189,82,156215,5,8
189,82,156290,1,8
189,82,156365,1,8
189,82,156440,5,0
189,82,156515,5,8
189,82,156665,5,0
189,82,156815,5,8
189,82,156890,5,0
189,82,156965,5,8
189,82,157115,5,8
189,82,157265,5,8
189,82,157340,1,8
189,82,157415,5,0
189,82,157565,1,0
189,82,157715,1,0
189,82,157790,1,0
189,82,157865,5,8
189,82,157940,1,8
189,82,158015,5,0
189,82,158090,1,0
189,82,158165,5,8
189,82,158240,1,8
189,82,158315,5,0
189,82,158390,1,0
189,82,158465,1,0
189,82,158540,1,0
189,82,158615,5,8
189,82,158690,1,8
189,82,158765,5,0
189,82,158840,5,8
189,82,158915,5,0
189,82,159065,5,8
189,82,159140,1,8
189,82,159215,5,0
189,82,159365,5,8
189,82,159515,5,0
189,82,159590,1,0
189,82,159665,5,8
189,82,159740,5,0
189,82,159815,5,8
189,82,159890,1,8
189,82,159965,5,0
189,82,160040,1,0
189,82,160115,1,0
189,82,160265,1,0
189,82,160415,1,0
189,82,160565,5,8
189,82,160640,1,8
189,82,160715,5,0
189,82,160865,1,0
189,82,161015,5,8
189,82,161090,1,8
189,82,161165,1,8
189,82,161240,1,8
189,82,161315,5,0
189,82,161390,5,8
189,82,161465,5,0
189,82,161615,1,0
189,82,161690,1,0
189,82,161765,5,8
189,82,161915,1,8
189,82,162065,5,0
189,82,162140,5,8
189,82,162215,5,0
189,82,162365,1,0
189,82,162515,5,8
189,82,162590,5,0
189,82,162665,1,0
189,82,162740,1,0
189,82,162815,5,8
189,82,162890,5,0
189,82,162965,1,0
189,82,163040,1,0
189,82,163115,5,8
189,82,163190,1,8
189,82,163265,5,0
189,82,163340,1,0
189,82,163415,5,8
189,82,163490,5,0
189,82,163565,5,8
189,82,163715,5,4
189,82,163865,5,8
189,82,163940,1,8
189,82,164015,5,0
189,82,164090,5,8
189,82,164165,5,0
189,82,164315,1,0
189,82,164465,1,0
189,82,164615,5,8
189,82,164690,1,8
189,82,164765,5,0
189,82,164840,1,0
189,82,164915,5,8
189,82,164990,5,0
189,82,165065,5,8
189,82,165215,5,0
189,82,165290,1,0
189,82,165365,5,8
189,82,165515,5,0
189,82,165665,1,0
189,82,165740,1,0
189,82,165815,5,8
189,82,165965,1,8
189,82,166115,5,0
189,82,166265,5,8
189,82,166340,1,8
189,82,166415,5,0
189,82,166565,5,8
189,82,166715,1,8
189,82,166790,1,8
189,82,166865,5,0
189,82,166940,5,8
189,82,167015,5,0
189,82,167090,5,8
189,82,167165,5,0
189,82,167315,1,0
189,82,167390,1,0
189,82,167465,5,8
189,82,167540,1,8
189,82,167615,5,0
189,82,167690,1,0
189,82,167765,5,8
189,82,167840,1,8
189,82,167915,5,0
189,82,167990,1,0
189,82,168065,1,0
189,82,168140,1,0
189,82,168215,5,8
189,82,168290,1,8
189,82,168365,1,8
189,82,168440,1,8
189,82,168515,5,0
189,82,168665,5,8
189,82,168740,1,8
189,82,168815,5,0
189,82,168965,5,8
189,82,169115,5,0
189,82,169190,5,8
189,82,169265,5,0
189,82,169415,5,8
189,82,169565,5,0
189,82,169640,1,0
189,82,169715,5,8
189,82,169790,5,0
189,82,169865,1,0
189,82,170015,5,8
189,82,170165,1,8
189,82,170315,5,0
189,82,170390,1,0
189,82,170465,5,8
189,82,170540,5,0
189,82,170615,5,8
189,82,170690,1,8
189,82,170765,1,8
189,82,170915,1,12
189,82,171065,5,0
189,82,171140,1,0
189,82,171215,5,8
189,82,171365,1,8
189,82,171515,1,12
189,82,171665,1,8
189,82,171740,1,8
189,82,171815,5,0
189,82,171965,1,0
189,82,172115,5,8
189,82,172190,1,8
189,82,172265,5,0
189,82,172340,1,0
189,82,172415,5,8
189,82,172490,1,8
189,82,172565,5,0
189,82,172640,1,0
189,82,172715,5,8
189,82,172790,5,0
189,82,172865,5,8
189,82,172940,5,0
189,82,173015,5,8
189,82,173090,1,8
189,82,173165,1,8
189,82,173240,1,8
189,82,173315,5,0
189,82,173465,5,8
189,82,173615,5,0
189,82,173765,5,8
189,82,174065,5,0
189,82,174215,1,0
189,82,174365,1,0
189,82,174515,5,12
189,82,174965,1,12
189,82,175265,1,12
189,82,175415,1,12
189,82,175715,5,0
189,82,175865,1,0
189,82,176015,5,8
189,82,176165,5,0
189,82,176315,1,0
189,82,176465,5,8
189,82,176615,5,0
189,82,176765,5,8
189,82,176915,1,12
189,82,177365,1,12
189,82,177665,1,12
189,82,177815,1,12
189,82,178115,5,0
189,82,178265,1,0
189,82,178415,5,8
189,82,178565,5,0
189,82,178865,1,0
189,82,179015,5,8
189,82,179165,5,0
189,82,179315,5,12
189,82,179765,1,12
189,82,180065,5,4
189,82,180215,5,12
189,82,180515,1,8
189,82,180665,5,0
189,82,180815,1,0
189,82,180965,5,8
189,82,181265,5,0
189,82,181415,5,8
189,82,181565,5,0
189,82,181715,5,12
189,82,182165,1,12
189,82,182465,5,4
189,82,182615,5,12
189,82,182915,5,4
189,82,183065,5,8
189,82,183140,1,8
189,82,183215,5,0
189,82,183290,1,0
189,82,183365,5,8
189,82,183665,5,0
189,82,183815,5,8
189,82,183965,5,0
189,82,184115,1,4
189,82,184265,1,0
189,82,184340,1,0
189,82,184415,5,8
189,82,184565,5,4
189,82,184865,1,4
189,82,185015,5,12
189,82,185315,5,0
189,82,185465,5,8
189,82,185540,1,8
189,82,185615,5,0
189,82,185765,5,8
189,82,185840,1,8
189,82,185915,1,8
189,82,186065,5,0
189,82,186215,5,8
189,82,186290,5,0
189,82,186365,5,8
189,82,186515,1,12
189,82,186965,5,4
189,82,187265,1,4
189,82,187415,5,12
189,82,187715,1,12
189,82,187865,5,0
189,82,188015,1,0
189,82,188090,1,0
189,82,188165,5,8
189,82,188315,1,8
189,82,188465,5,0
189,82,188615,5,8
189,82,188690,1,8
189,82,188765,5,0
189,82,188915,5,12
189,82,189065,5,0
189,82,189140,1,0
189,82,189215,5,8
189,82,189365,5,0
189,82,189440,1,0
189,82,189515,5,8
189,82,189590,1,8
189,82,189665,5,0
189,82,189815,5,12
189,82,190115,1,12
189,82,190265,5,0
189,82,190340,1,0
189,82,190415,5,8
189,82,190565,1,8
189,82,190715,5,4
189,82,190865,1,0
189,82,190940,1,0
189,82,191015,5,8
189,82,191165,5,0
189,82,191315,5,12
189,82,191615,5,0
189,82,191765,5,12
189,82,192065,5,0
189,82,192215,5,12
256,192,192965,12,0,200915
