osu file format v9

[General]
AudioFilename: UN Owen was her by COOL&CREATE.mp3
AudioLeadIn: 3000
PreviewTime: 48365
Countdown: 0
SampleSet: Normal
StackLeniency: 0.7
Mode: 0
LetterboxInBreaks: 1

[Editor]
Bookmarks: 10630,21400,40075,57390,76890,96665,140165,168890
DistanceSpacing: 1
BeatDivisor: 4
GridSize: 8

[Metadata]
Title:U.N. Owen was her
Artist:COOL&CREATE
Creator:Nekoo[]
Version:Normal
Source:Touhou
Tags:embodiment of scarlet devil OnosakiHito

[Difficulty]
HPDrainRate:4
CircleSize:3
OverallDifficulty:5
ApproachRate:5
SliderMultiplier:1.2
SliderTickRate:1

[Events]
//Background and Video events
0,0,"BGUN.jpg"
//Break Periods
//Storyboard Layer 0 (Background)
//Storyboard Layer 1 (Fail)
//Storyboard Layer 2 (Pass)
//Storyboard Layer 3 (Foreground)
//Storyboard Sound Samples
//Background Colour Transformations
3,100,163,162,255

[TimingPoints]
515,300,4,1,0,100,1,0
665,-200,4,1,0,100,0,0
10190,-100,4,1,0,100,0,0
48515,-100,4,1,0,100,0,1
58115,-100,4,1,0,100,0,0
106115,-100,4,1,0,100,0,1
115715,-100,4,1,0,100,0,0
144515,-100,4,1,0,100,0,1
173315,-100,4,1,0,100,0,0

[Colours]
Combo1 : 57,215,108
Combo2 : 133,14,150
Combo3 : 55,95,232
Combo4 : 240,198,202

[HitObjects]
88,192,515,1,0
168,104,1115,1,0
272,168,1715,1,0
392,144,2315,1,0
384,200,2615,5,0
371,258,2915,2,0,B|355:354|355:354|251:242|251:242|219:338|219:338|171:290,1,420
128,248,5315,6,0,B|72:184|72:184|72:88|72:88|128:136|128:136|184:88|184:88|232:136|232:136|256:120,1,420
304,88,7715,5,0
424,112,8315,1,0
472,224,8915,2,0,B|448:280|448:280|336:280|336:280|304:344,1,240
184,360,10415,5,0
72,320,10715,1,0
32,208,11015,1,0
32,208,11165,2,0,B|96:200|136:144|120:64,1,180
240,48,11915,2,0,B|360:24,1,120
432,120,12515,6,0,B|512:224,2,120
328,184,13415,1,0
328,184,13565,2,0,B|288:240|384:288|320:352,1,180
216,296,14315,1,0
152,64,14915,5,0
48,120,15215,1,0
48,240,15515,1,0
152,184,15815,1,0
152,184,15965,2,0,B|312:104,1,180
312,223,16715,2,0,B|432:287,1,120
417,279,17315,5,0
312,344,17615,2,0,B|192:280,1,120
104,344,18215,1,0
104,344,18365,2,0,B|40:232,1,120
56,184,18815,2,0,B|88:160|104:112|96:64,1,120
337,76,19715,6,0,B|401:188,1,120
504,240,20315,2,0,B|488:280|448:304|392:296,1,120
360,264,20765,2,0,B|320:240|272:232|232:248,1,120
192,272,21215,2,0,B|168:304|120:336|72:336,1,120
92,334,21815,1,0
64,216,22115,6,0,B|32:88,1,120
144,152,22715,2,0,B|176:24,1,120
173,35,23165,2,0,B|208:72|256:88|296:88,1,120
338,87,23615,2,0,B|400:71|448:31,1,120
472,272,24515,5,0
376,336,24815,1,0
256,360,25115,1,0
136,336,25415,1,0
136,336,25565,1,0
40,264,25865,1,0
40,264,26015,1,0
40,144,26315,1,0
136,72,26615,1,0
256,40,26915,6,0,B|280:64|320:80|368:88,1,120
344,208,27515,2,0,B|368:184|408:168|456:160,1,120
496,200,27965,2,0,B|496:248|488:280|464:312,1,120
408,328,28415,2,0,B|360:304|320:304|280:320,1,120
56,352,29315,5,0
56,112,29915,1,0
160,56,30215,1,0
160,56,30365,2,0,B|264:112,1,120
224,152,30815,2,0,B|256:120|296:96|344:96,1,120
448,120,31415,1,0
464,240,31715,6,0,B|464:296|440:328|408:344,1,120
296,304,32315,2,0,B|256:280|216:272|176:280,1,120
192,336,32765,2,0,B|160:208,1,120
144,160,33215,1,0
232,80,33515,1,0
352,96,33815,1,0
440,176,34115,6,0,B|408:304,1,120
304,344,34715,2,0,B|296:304|272:272|232:248,1,120
184,224,35165,1,0
88,152,35465,1,0
144,128,35615,2,0,B|184:112|216:88|240:56,1,120
360,40,36215,1,0
448,120,36515,5,0
352,192,36815,1,0
448,264,37115,1,0
352,328,37415,1,0
352,328,37565,2,0,B|248:264,1,120
249,265,38015,1,0
48,56,38915,6,0,B|168:56,1,120
264,128,39515,2,0,B|288:168|320:192|360:208,1,120
400,168,39965,2,0,B|296:256,1,120
256,280,40415,2,0,B|208:248|168:240|128:248,1,120
32,296,41015,1,0
32,176,41315,5,0
64,64,41615,1,0
176,32,41915,1,0
272,104,42215,1,0
376,160,42515,2,0,B|488:208,1,120
376,264,43115,1,0
144,328,43715,6,0,B|112:352|64:352|32:328,1,120
88,224,44315,2,0,B|88:104,1,120
136,64,44765,2,0,B|168:40|216:40|248:64,1,120
288,104,45215,2,0,B|376:184,1,120
464,264,45815,1,0
352,304,46115,6,0,B|240:344,1,120
192,232,46715,2,0,B|80:192,1,120
184,128,47315,2,0,B|296:88,3,120
392,160,48515,6,0,B|280:200,1,120
