osu file format v9

[General]
AudioFilename: UN Owen was her by COOL&CREATE.mp3
AudioLeadIn: 3000
PreviewTime: 48365
Countdown: 0
SampleSet: Normal
StackLeniency: 0.7
Mode: 0
LetterboxInBreaks: 1

[Editor]
Bookmarks: 10630,21400,40075,57390,76890,96665,140165,168890
DistanceSpacing: 1
BeatDivisor: 4
GridSize: 8

[Metadata]
Title:U.N. Owen was her
Artist:COOL&CREATE
Creator:Nekoo[]
Version:Easy
Source:Touhou
Tags:embodiment of scarlet devil OnosakiHito

[Difficulty]
HPDrainRate:2
CircleSize:3
OverallDifficulty:3
ApproachRate:3
SliderMultiplier:0.799999999999999
SliderTickRate:1

[Events]
//Background and Video events
0,0,"BGUN.jpg"
//Break Periods
2,77215,90275
2,115915,123875
//Storyboard Layer 0 (Background)
//Storyboard Layer 1 (Fail)
//Storyboard Layer 2 (Pass)
//Storyboard Layer 3 (Foreground)
//Storyboard Sound Samples
//Background Colour Transformations
3,100,163,162,255

[TimingPoints]
515,300,4,1,0,100,1,0
48515,-100,4,1,0,100,0,1
58115,-100,4,1,0,100,0,0
106115,-100,4,1,0,100,0,1
115715,-100,4,1,0,100,0,0
144515,-100,4,1,0,100,0,1
173315,-100,4,1,0,100,0,0

[Colours]
Combo1 : 57,215,108
Combo2 : 133,14,150
Combo3 : 55,95,232
Combo4 : 240,198,202

[HitObjects]
64,192,515,2,0,B|64:408|448:408|448:192,1,560
447,114,2915,6,0,B|399:42|399:42|256:168|256:168|112:40|112:40|63:114,1,560
62,195,5315,6,0,B|134:339|134:339|256:320|256:320|376:336|376:336|446:195,1,559.999999999999
472,120,7715,5,0
336,40,8315,1,0
176,64,8915,1,0
352,328,10115,6,0,B|272:328,1,79.9999999999999
256,248,10715,2,0,B|184:200,1,79.9999999999999
152,272,11315,2,0,B|144:376|8:376|0:272,1,240
0,192,12515,5,0
96,64,13115,1,0
256,88,13715,1,0
416,64,14315,2,0,B|464:96|464:96|464:200,1,160
464,278,15215,5,0
392,320,15515,2,0,B|312:360,1,79.9999999999999
240,355,16115,2,0,B|144:283|144:283|48:355,1,240
0,288,17315,5,0
120,184,17915,1,0
184,40,18515,1,0
336,88,19115,2,0,B|416:112,1,79.9999999999999
392,192,19715,6,0,B|448:272,1,79.9999999999999
360,288,20315,2,0,B|328:376,1,79.9999999999999
252,363,20915,2,0,B|76:363|76:363|28:323,1,240
26,241,22115,6,0,B|26:129|26:129|64:96,1,160
184,200,23315,2,0,B|296:200|296:200|329:162,1,160
424,32,24515,5,0
400,112,24815,1,0
440,184,25115,2,0,B|480:256,1,79.9999999999999
512,328,25715,2,0,B|480:376|480:376|296:376,1,240
256,304,26915,6,0,B|328:224|184:136|256:40,2,280
224,376,29315,6,0,B|104:376|104:376|64:336,1,160
8,200,30515,2,0,B|72:248|72:248|136:200,1,160
264,112,31715,6,0,B|328:64|328:64|392:112,1,160
456,256,32915,2,0,B|392:304|392:304|328:256,1,160
184,328,34115,6,0,B|88:384|-24:288|56:184,2,280
256,296,36515,6,0,B|328:264,1,79.9999999999999
304,184,37115,2,0,B|344:112,1,79.9999999999999
408,160,37715,2,0,B|480:128,1,79.9999999999999,0|0
256,48,38915,5,0
104,96,39515,1,0
224,200,40115,2,0,B|288:240|288:240|376:224|376:224|440:264,1,240
504,320,41315,5,0
352,360,41915,1,0
192,352,42515,2,0,B|128:360|80:328|64:272,1,160
80,120,43715,6,0,B|144:128|192:96|208:40,2,160
232,168,45515,1,0
360,72,46115,5,0
488,168,46715,1,0
384,296,47315,2,0,B|320:368,3,79.9999999999999
248,344,48515,5,0
88,312,49115,1,0
32,160,49715,2,0,B|80:96|80:96|240:96,1,240
320,96,50915,6,0,B|432:96|432:96|480:64,2,160
280,168,52415,2,0,B|240:248,1,79.9999999999999
104,168,53315,5,0
40,312,53915,1,0
192,368,54515,1,0
344,312,55115,2,0,B|424:288,1,79.9999999999999
448,216,55715,6,0,B|480:128,1,79.9999999999999
496,64,56315,1,0
336,72,56915,2,0,B|256:80,3,79.9999999999999
176,88,58115,6,0,B|16:104,1,160
8,184,59015,1,0
40,256,59315,2,0,B|64:304|64:304|176:304,1,160
320,360,60515,6,0,B|344:312|344:312|456:312,1,160
472,232,61415,1,0
400,192,61715,2,0,B|240:128,1,160
96,80,62915,6,0,B|16:128,1,79.9999999999999
80,184,63515,2,0,B|64:272,1,79.9999999999999
144,264,64115,2,0,B|184:312|184:312|280:312,1,160
441,312,65315,5,0
328,192,65915,1,0
440,72,66515,2,0,B|440:232,1,160
296,296,67715,6,0,B|240:280|240:280|216:232|216:232|160:208,1,160
103,170,68615,1,0
170,127,68915,2,0,B|214:108|214:108|238:60|238:60|294:44,1,160
456,32,70115,6,0,B|456:112,1,79.9999999999999
376,96,70715,2,0,B|304:160,1,79.9999999999999
248,192,71315,2,0,B|280:240|352:240|384:192,1,160
464,336,72515,5,0
304,304,73115,1,0
144,336,73715,2,0,B|80:352|24:320|24:248,1,160
24,103,74915,6,0,B|80:159,1,79.9999999999999
144,112,75515,2,0,B|232:120,1,79.9999999999999
256,192,76115,6,0,B|288:240|232:280|264:312,2,120
256,112,91715,5,0
256,112,92915,1,0
256,112,94115,5,0
256,112,94715,1,0
256,272,95315,6,0,B|256:352,3,79.9999999999999
336,352,96515,6,0,B|416:264|416:264|336:168,1,240
272,216,97715,2,0,B|192:128|192:128|272:32,1,240
336,80,98915,5,0
456,184,99515,1,0
432,344,100115,2,0,B|392:312|320:288|264:304,1,160
120,312,101315,5,0
16,192,101915,1,0
120,72,102515,1,0
224,192,103115,1,0
336,72,103715,6,0,B|376:112|376:112|488:112,1,160
479,272,104915,2,0,B|416:200,3,79.9999999999999
368,272,106115,6,0,B|328:312|328:312|224:312,2,160
216,224,107915,1,0
72,296,108515,6,0,B|112:256|112:256|112:152,1,160
216,32,109715,2,0,B|160:88,2,79.9999999999999
360,104,110915,6,0,B|424:112|472:80|472:16,2,160
496,192,112715,1,0
408,320,113315,5,0
248,344,113915,1,0
96,296,114515,1,0
32,240,114815,1,0
96,192,115115,1,0
168,152,115415,2,0,B|240:112,1,79.9999999999999
256,192,125315,12,0,130115
256,120,131315,5,0
256,120,132515,5,0
256,120,133115,1,0
384,216,133715,6,0,B|448:264,3,79.9999999999999
410,334,134915,6,0,B|378:382|378:382|274:382,2,160
256,280,136715,1,0
104,240,137315,5,0
64,88,137915,2,0,B|88:144|168:144|192:88,1,160
272,72,138815,2,0,B|360:64,1,79.9999999999999
448,192,139715,6,0,B|384:144|384:144|320:192,2,160
384,336,141515,1,0
232,280,142115,6,0,B|168:328|168:328|104:280,2,160
168,224,143615,1,0
104,176,143915,2,0,B|24:120,1,79.9999999999999
88,64,144515,6,0,B|120:24|120:24|232:24,1,160
312,160,145715,2,0,B|344:208|352:208|352:208|448:208,1,160
336,320,146915,6,0,B|384:272|432:368|488:312,2,160
256,296,148415,2,0,B|168:272,1,79.9999999999999
32,216,149315,6,0,B|80:192|80:192|80:80,2,160
184,160,151115,1,0
336,96,151715,5,0
456,200,152315,1,0
376,344,152915,2,0,B|416:272,3,79.9999999999999
376,200,154115,5,0
256,304,154715,1,0
136,200,155315,1,0
200,56,155915,2,0,B|256:112|256:112|312:56,1,160
384,96,156815,5,0
424,168,157115,2,0,B|464:240,1,79.9999999999999
384,256,157715,2,0,B|352:328,2,79.9999999999999
224,256,158915,6,0,B|112:256|112:256|80:296,2,160
256,96,160715,1,0
304,248,161315,6,0,B|304:328,1,79.9999999999999
384,304,161915,2,0,B|448:352,1,79.9999999999999
488,280,162515,5,0
488,200,162815,2,0,B|488:120,2,79.9999999999999
408,176,163715,6,0,B|248:128,1,160
104,72,164915,1,0
48,224,165515,1,0
184,304,166115,6,0,B|248:336|248:336|344:336,2,160
160,224,167615,2,0,B|136:136,1,79.9999999999999
288,80,168515,6,0,B|320:32|392:32|424:80,2,160
358,223,170315,1,0
256,344,170915,5,0
152,224,171515,1,0
152,64,172115,5,0
232,88,172415,2,0,B|320:112,1,79.9999999999999
384,136,173015,1,0
408,216,173315,6,0,B|456:368,2,160
328,240,174815,2,0,B|168:288,1,160
96,312,175715,5,0
40,160,176315,1,0
160,48,176915,2,0,B|200:80|200:80|312:80,1,160
432,184,178115,6,0,B|368:128,2,79.9999999999999
416,264,179015,1,0
344,304,179315,2,0,B|184:360,1,160
96,232,180515,6,0,B|136:176|48:136|96:80,1,160
168,120,181415,1,0
240,80,181715,2,0,B|280:112|352:112|392:80,1,160
496,200,182915,5,0
392,320,183515,1,0
232,304,184115,2,0,B|64:288,1,160
24,136,185315,6,0,B|0:56,2,79.9999999999999
104,112,186215,1,0
88,192,186515,2,0,B|64:360,1,160
224,328,187715,6,0,B|392:288,1,160
480,168,188915,2,0,B|312:128,1,160
168,88,190115,5,0
48,192,190715,1,0
184,280,191315,6,0,B|288:336,1,120
392,280,192215,2,0,B|472:216|328:160|400:80,1,220
