osu file format v8

[General]
AudioFilename: Toono.mp3
AudioLeadIn: 1985
PreviewTime: 90423
Countdown: 0
SampleSet: Normal
StackLeniency: 0.7
Mode: 0
LetterboxInBreaks: 1

[Editor]
DistanceSpacing: 0.800000011920929
BeatDivisor: 4
GridSize: 8

[Metadata]
Title:Toono Ghost Front
Artist:COOL&CREATE
Creator:Snai
Version:Normal
Source:Touhou
Tags:MeLLoN Chen The Fantastic Legend of Tohon yakumo Perfect Cherry Blossom

[Difficulty]
HPDrainRate:4
CircleSize:3
OverallDifficulty:4
ApproachRate:4
SliderMultiplier:1.4
SliderTickRate:1

[Events]
//Background and Video events
0,0,"cheeen.jpg"
//Break Periods
2,59283,68430
//Storyboard Layer 0 (Background)
//Storyboard Layer 1 (Fail)
//Storyboard Layer 2 (Pass)
//Storyboard Layer 3 (Foreground)
Sprite,Foreground,Centre,"chen.jpg",320,240 M,0,0,,1428,80
//Storyboard Sound Samples
//Background Colour Transformations
3,100,163,162,255

[TimingPoints]
417,333.333333333333,4,1,1,100,1,0

[Colours]
Combo1 : 255,255,255
Combo2 : 0,200,0
Combo3 : 0,64,0

[HitObjects]
400,48,417,6,0,B|288:24|240:56,1,140
160,88,1083,1,0
232,168,1416,1,0
160,256,1750,2,0,B|64:216|64:128,2,140
376,328,3083,6,0,B|328:248|376:168,1,140
472,192,3750,1,0
472,80,4083,1,0
360,80,4416,2,0,B|272:80,4,70
136,56,5750,6,0,B|48:56,2,70
224,128,6416,2,0,B|296:128,2,70
136,192,7083,1,0
224,264,7416,1,0
136,336,7750,1,0
360,328,8416,6,0,B|408:240|360:48,1,280
136,48,9750,2,0,B|96:200|152:352,1,280
368,304,11083,6,0,B|408:224|360:152,2,140
144,304,12417,2,0,B|112:208|152:144,2,140
256,312,13417,2,0,B|352:312,2,70
256,200,14083,2,0,B|176:200,2,70
256,192,15083,12,0,17750
416,56,19083,5,0
256,208,19750,1,0
88,56,20416,1,0
88,168,20750,1,0
88,280,21083,1,0
312,288,21750,6,0,B|416:288|480:328,2,140
312,64,23083,6,0,B|216:64|152:80,2,140
256,192,24416,12,0,27083
432,64,28416,6,0,B|344:64,4,70
336,264,29750,1,0
256,184,30083,1,0
176,264,30416,2,0,B|104:264,2,70
288,264,31083,2,0,B|360:264,4,70
392,64,32416,6,0,B|320:64,2,70
328,152,33083,2,0,B|256:152,2,70
328,264,33750,1,0
216,264,34083,1,0
104,264,34416,1,0
104,152,34750,2,0,B|200:152,2,70
64,240,37750,5,0
192,56,38416,1,0
320,240,39083,1,0
400,160,39416,1,0
424,272,39750,1,0
320,240,40083,1,0
304,128,40417,2,0,B|200:112|136:144,2,140
416,128,41417,2,0,B|488:128,2,70
424,64,43083,5,0
200,64,43750,1,0
320,248,44417,2,0,B|216:264|152:240,2,140
256,192,45750,12,0,48417
256,40,49750,5,0
200,136,50083,1,0
312,136,50417,1,0
256,232,50750,1,0
176,312,51083,6,0,B|40:256|56:56,1,280
168,80,52083,2,0,B|248:80,2,70
288,64,53750,6,0,B|376:64,2,70
200,136,54417,2,0,B|120:136,2,70
288,208,55083,1,0
376,136,55417,1,0
288,64,55750,1,0
200,136,56083,1,0
256,192,56417,12,0,59083
128,72,69750,6,0,B|248:64|296:80,2,140
200,160,70750,1,0
128,240,71083,2,0,B|208:256|272:240,2,140
256,56,72417,5,0
256,168,72750,1,0
200,264,73083,1,0
312,264,73417,2,0,B|312:336,2,70
152,248,75083,6,0,B|120:176|152:88,1,140
240,48,75750,2,0,B|320:32|408:56,1,140
376,160,76417,1,0
376,272,76750,1,0
264,272,77083,2,0,B|176:272,2,70
256,192,77750,12,0,80416
144,48,81083,6,0,B|64:48,2,70
256,48,81750,2,0,B|400:48,2,140
56,152,83083,5,0
120,240,83416,1,0
184,152,83750,1,0
248,240,84083,2,0,B|328:240,2,70
368,56,85750,6,0,B|448:56,2,70
280,128,86416,2,0,B|200:128,2,70
368,200,87083,1,0
280,272,87416,1,0
368,344,87750,2,0,B|448:344,2,70
256,192,88416,12,0,90416
448,144,91083,6,0,B|448:72,2,70
368,224,91750,2,0,B|368:304,2,70
288,144,92416,1,0
208,224,92750,1,0
128,144,93083,2,0,B|48:144,2,70
208,64,93750,5,0
288,144,94083,1,0
368,64,94416,2,0,B|456:64,2,70
288,144,95083,5,0
208,224,95416,1,0
120,296,95750,2,0,B|48:296,2,70
232,296,96416,6,0,B|320:296,2,70
232,184,97083,1,0
232,72,97416,1,0
344,72,97750,6,0,B|448:72,2,70
344,184,98416,1,0
344,296,98750,1,0
256,192,99083,12,0,101750
64,48,102416,6,0,B|152:48,2,70
64,160,103083,2,0,B|208:200|352:160,1,280
176,312,104416,5,0
256,232,104750,1,0
336,312,105083,2,0,B|336:224,2,70
256,232,105750,5,0
176,160,106083,1,0
256,80,106416,2,0,B|176:80,2,70
336,152,107083,5,0
256,232,107416,1,0
176,152,107750,2,0,B|176:232,2,70
88,88,108416,5,0
88,200,108750,1,0
88,312,109083,2,0,B|184:312,2,70
88,200,109750,5,0
176,128,110083,1,0
256,200,110416,1,0
344,128,110750,1,0
432,200,111083,2,0,B|432:272,2,70
344,272,111750,2,0,B|344:352,2,70
256,192,112416,12,4,115083
