osu file format v8

[General]
AudioFilename: Toono.mp3
AudioLeadIn: 1511
PreviewTime: 90423
Countdown: 0
SampleSet: Normal
StackLeniency: 0.7
Mode: 0
LetterboxInBreaks: 1

[Editor]
DistanceSpacing: 1.10000002384186
BeatDivisor: 4
GridSize: 8

[Metadata]
Title:Toono Ghost Front
Artist:COOL&CREATE
Creator:Snai
Version:MeLLoNtic
Source:Touhou
Tags:MeLLoN Chen The Fantastic Legend of Tohon yakumo Perfect Cherry Blossom

[Difficulty]
HPDrainRate:6
CircleSize:4
OverallDifficulty:8
ApproachRate:8
SliderMultiplier:1.8
SliderTickRate:2

[Events]
//Background and Video events
0,0,"chen2.jpg"
//Break Periods
//Storyboard Layer 0 (Background)
//Storyboard Layer 1 (Fail)
//Storyboard Layer 2 (Pass)
//Storyboard Layer 3 (Foreground)
Sprite,Foreground,Centre,"chen.jpg",320,240 M,0,0,,1428,80
//Storyboard Sound Samples
//Background Colour Transformations
3,100,0,0,0

[TimingPoints]
417,333.333333333333,4,1,1,60,1,0
16434,-100,4,1,1,80,0,1
21684,-100,4,1,1,80,0,0
33684,-100,4,1,1,85,0,0
34018,-100,4,1,1,90,0,0
34351,-100,4,1,1,95,0,0
34684,-100,4,1,1,100,0,0
35018,-100,4,1,1,0,0,0
37018,-100,4,1,1,70,0,0
57518,-100,4,1,1,0,0,0
58768,-100,4,1,1,70,0,0
78851,-100,4,1,1,0,0,0
80101,-100,4,1,1,70,0,0
89684,-100,4,1,1,0,0,0
90768,-100,4,1,1,90,0,0
91101,-100,4,1,1,90,0,1
101684,-100,4,1,1,90,0,0
101768,-100,4,1,1,100,0,1
112351,-100,4,1,1,0,0,1
115018,-100,4,1,1,0,0,0
115101,-100,4,1,1,0,0,1
115184,-100,4,1,1,0,0,0

[Colours]
Combo1 : 255,85,85
Combo2 : 60,157,255
Combo3 : 0,140,0

[HitObjects]
72,128,417,1,4
152,72,583,1,0
208,152,750,2,0,B|256:144|288:104,1,90
376,136,1083,1,0
352,40,1250,1,0
284,108,1416,2,0,B|304:152|288:200,1,90
360,264,1750,6,0,B|408:272,4,45
304,344,2250,2,0,B|208:368|128:320,1,180
130,321,2750,1,0
72,136,3083,6,0,B|120:120|144:80,1,90,4|0
256,152,3416,2,0,B|216:176|200:224,1,90
216,88,3750,2,0,B|264:80|296:48,1,90
408,120,4083,1,0
408,120,4166,1,0
408,120,4250,1,0
344,192,4416,6,0,B|384:224|432:216,2,90
447,313,4916,2,0,B|344:328|272:256,1,180
280,264,5416,1,0
304,72,5750,6,0,B|208:88|128:40,1,180,4|0
144,136,6250,1,0
56,96,6416,2,0,B|32:136|40:184,2,90
120,280,7083,5,0
184,336,7250,1,0
272,352,7416,1,0
360,328,7583,1,0
432,272,7750,2,0,B|472:240|480:192,2,90
432,272,8250,1,0
392,184,8416,6,0,B|408:128|456:112,2,90,4|0|0
312,240,8916,1,0
280,152,9083,1,0
272,112,9166,1,0
248,80,9250,1,0
208,64,9333,1,0
168,72,9416,1,0
136,160,9583,1,0
72,232,9750,6,0,B|168:224|248:272,1,180
328,320,10250,2,0,B|240:368|152:336,1,180
244,270,10750,2,0,B|272:232|320:216,1,90
408,192,11083,6,0,B|464:184|488:144,1,90,2|0
320,40,11583,1,0
160,152,11917,1,0
64,112,12083,2,0,B|48:168|72:200,1,90,2|0
152,248,12417,5,2
160,152,12583,1,0
320,40,12917,2,0,B|376:112|352:216,1,180
272,160,13417,2,0,B|248:208|272:256,1,90,2|0
272,160,13750,6,0,B|352:176|408:144,2,135,2|2|2
160,152,14417,2,0,B|96:112|24:128,2,135,2|2|2
200,240,15083,2,0,B|160:264|112:248,1,90,2|0
208,344,15417,2,0,B|256:328|296:352,1,90,2|0
368,288,15750,1,2
368,288,15833,1,0
368,288,15917,2,0,B|400:328,4,45,0|0|2|0|0
312,208,16417,6,0,B|400:176|432:80,1,180,6|8
431,81,16917,1,0
248,144,17083,2,0,B|208:120|192:72,1,90
193,75,17333,1,0
193,75,17417,1,8
104,40,17583,5,0
104,40,17750,2,0,B|112:88|72:120,1,90,0|0
136,192,18083,2,0,B|128:248|168:288,2,90,8|0|0
232,216,18583,2,0,B|264:256|256:304,2,90,0|8|0
296,144,19083,5,2
256,56,19250,1,0
304,40,19333,1,0
344,64,19416,1,8
296,144,19583,1,0
384,184,19750,2,0,B|400:232|448:248,1,90
352,272,20083,2,0,B|360:320|328:360,1,90,8|0
248,304,20416,5,2
248,304,20583,1,0
160,352,20750,1,8
72,312,20916,1,0
136,240,21083,2,0,B|96:208|48:216,2,90,2|0|8
136,240,21583,1,0
224,200,21750,6,0,B|264:168|312:168,1,90,2|0
306,168,22000,1,0
306,168,22083,2,0,B|352:184|400:160,1,90,8|0
368,72,22416,1,0
272,88,22583,1,0
184,48,22750,1,8
96,96,22916,1,0
56,184,23083,5,2
56,184,23166,1,0
56,184,23250,1,0
144,224,23416,2,0,B|192:240|200:296,2,90,8|0|0
232,184,23916,2,0,B|264:224|312:240,1,90,0|8
303,236,24250,1,0
384,288,24416,6,0,B|312:344|216:352,1,180,2|8
128,320,24916,1,0
128,320,25000,1,0
128,320,25083,2,0,B|128:272|96:232,1,90
192,264,25416,2,0,B|216:224|264:208,1,90,8|0
312,128,25750,6,0,B|216:120|160:32,2,180,2|10|2
392,72,26583,1,0
408,168,26750,1,10
336,232,26916,1,0
240,200,27083,6,0,B|200:160|144:168,2,90,2|0|8
168,264,27583,1,0
80,312,27750,2,0,B|144:376|256:344,1,180,0|8
376,192,28416,6,0,B|360:144|376:96,1,90,2|0
373,103,28666,1,0
373,103,28750,1,10
288,64,28916,1,0
288,64,29000,1,0
288,64,29083,2,0,B|248:40,4,45,0|0|0|0|8
128,176,29750,6,0,B|64:248|72:344,1,180,2|8
152,288,30250,1,0
224,352,30416,2,0,B|280:360|312:328,2,90,0|0|8
288,168,31083,6,0,B|248:144|224:104,1,90,2|0
352,72,31416,2,0,B|400:88|424:128,1,90,8|0
408,256,31750,2,0,B|368:288|368:336,1,90
240,296,32083,2,0,B|240:240|192:216,1,90,8|0
224,128,32416,5,2
152,64,32583,1,0
104,64,32666,1,0
72,104,32750,1,8
112,192,32916,1,0
48,264,33083,2,0,B|24:304,2,45,2|0|0
120,328,33416,1,8
208,288,33583,1,0
280,224,33750,6,0,B|256:184|280:136,1,90,2|0
376,136,34083,2,0,B|400:176|376:224,1,90,2|0
240,224,34416,6,0,B|216:184|240:136,1,90,2|0
416,136,34750,2,0,B|440:176|416:224,1,90,2|0
256,192,35083,12,0,36750
256,192,37083,5,0
256,192,37250,1,0
256,192,37416,1,8
256,192,37583,1,0
328,128,37750,6,0,B|272:48|176:32,1,180,0|8
180,32,38250,1,0
152,128,38416,2,0,B|176:176|160:216,2,90,0|0|8
80,64,38916,1,0
72,160,39083,5,0
32,248,39250,1,0
88,328,39416,1,8
184,304,39583,1,0
272,344,39750,2,0,B|320:360|368:344,2,90,0|0|8
208,160,40417,6,0,B|296:120|392:144,1,180,0|8
472,184,40917,1,0
456,88,41083,2,0,B|432:48|384:32,1,90
383,142,41417,2,0,B|360:184|384:232,1,90,8|0
336,312,41750,1,0
336,312,41833,1,0
336,312,41917,1,0
248,272,42083,2,0,B|264:224|248:176,1,90,8|0
192,104,42417,6,0,B|152:128|152:184,2,90,0|0|8
192,104,42917,1,0
264,40,43083,2,0,B|304:64|352:56,1,90
416,128,43417,1,8
416,128,43500,1,0
416,128,43583,1,0
336,184,43750,2,0,B|280:184|256:224,1,90
168,256,44083,2,0,B|120:248,2,45,8|0|0
224,336,44417,5,0
224,336,44583,1,0
320,352,44750,1,8
320,352,44917,1,0
416,328,45083,1,0
416,328,45250,1,0
472,248,45417,1,8
472,248,45583,1,0
376,240,45750,6,0,B|296:184|200:192,1,180,0|8
206,191,46250,1,0
120,144,46417,2,0,B|80:176|80:224,2,90,0|0|8
176,64,46917,2,0,B|264:24|360:48,1,180
448,72,47417,2,0,B|488:112|480:160,1,90,8|0
392,192,47750,1,0
424,224,47833,1,0
344,280,48000,1,0
360,328,48083,1,8
176,264,48417,5,0
176,264,48583,1,0
176,264,48750,2,0,B|152:304|96:312,1,90,8|0
88,216,49083,1,0
88,216,49167,1,0
88,216,49250,1,0
128,128,49417,2,0,B|152:88|144:40,1,90,8|0
232,80,49750,6,0,B|328:80,1,90
424,160,50083,2,0,B|296:160,1,90,8|0
256,240,50417,2,0,B|352:240,1,90
448,320,50750,2,0,B|352:320,1,90,8|0
272,336,51083,6,0,B|224:344|184:304,2,90,0|0|8
256,240,51583,1,0
296,152,51750,2,0,B|344:176|352:224,2,90,0|0|8
256,240,52250,2,0,B|176:192|80:208,1,180
32,128,52750,2,0,B|80:128|120:104,1,90,8|0
192,40,53083,5,0
240,48,53167,1,0
288,56,53250,1,0
328,144,53417,1,8
280,136,53500,1,0
232,128,53583,1,0
168,200,53750,6,0,B|160:248|112:272,1,90
176,344,54083,2,0,B|128:368|80:352,2,90,8|0|0
248,280,54583,2,0,B|264:232|312:216,2,90,0|8|0
320,344,55083,6,0,B|368:344|400:304,1,90
472,240,55417,1,8
472,240,55500,1,0
472,240,55583,1,0
408,168,55750,1,0
408,168,55833,1,0
408,168,55917,1,0
448,80,56083,1,8
448,80,56167,1,0
448,80,56250,1,0
360,40,56417,6,0,B|312:32|272:56,1,90
232,144,56750,2,0,B|280:160|320:136,1,90,8|0
336,232,57083,2,0,B|328:280|360:320,2,90,0|0|8
256,192,57583,12,0,58750
160,104,58917,5,0
160,104,59083,2,0,B|112:112|80:144,1,90,2|0
48,232,59417,2,0,B|104:240|136:216,1,90
176,304,59750,2,0,B|208:264|256:264,1,90,2|0
328,328,60083,2,0,B|360:288|352:240,1,90,2|0
400,160,60417,2,0,B|416:112|464:96,2,90,2|0|0
344,80,60917,2,0,B|272:32|168:40,1,180,2|0
171,39,61417,1,0
72,208,61750,5,2
72,208,61917,1,0
32,296,62083,2,0,B|80:312|128:288,1,90
168,208,62417,1,2
192,168,62500,1,0
232,144,62583,1,0
256,48,62750,2,0,B|304:56|328:104,1,90,2|0
416,128,63083,2,0,B|424:80|464:48,2,90,2|0|0
336,184,63583,2,0,B|400:256|400:352,1,180,2|0
399,347,64083,1,0
208,320,64417,6,0,B|168:352|120:352,1,90,2|0
48,296,64750,2,0,B|80:256|128:256,1,90
72,176,65083,1,2
160,136,65250,2,0,B|208:144|248:112,1,90,0|2
184,40,65583,1,0
184,40,65667,1,0
184,40,65750,2,0,B|280:24|368:64,1,180,2|0
392,152,66250,2,0,B|440:128|456:80,2,90,2|0|0
304,112,66750,5,2
248,192,66917,1,0
288,280,67083,1,2
104,344,67417,1,0
48,264,67583,1,2
112,80,67917,1,2
112,80,68083,2,2,B|160:104|200:88,1,90
376,168,68583,5,2
376,168,68917,1,2
464,208,69083,2,0,B|440:248|392:264,1,90,2|0
344,344,69417,2,0,B|304:312|304:264,1,90,0|0
360,80,69750,6,0,B|312:80|280:40,1,90
184,64,70083,1,8
184,64,70167,1,0
184,64,70250,1,0
120,136,70417,2,0,B|80:104|88:56,2,90,0|0|8
208,176,70917,1,0
120,216,71083,6,0,B|112:264|64:288,1,90
184,256,71417,2,0,B|192:304|160:344,1,90,8|0
256,272,71750,2,0,B|280:320|264:368,1,90
344,304,72083,1,8
344,304,72250,1,0
432,344,72417,6,0,B|408:304|416:256,1,90
440,128,72750,2,0,B|424:176|376:192,1,90,8|0
296,144,73083,1,0
296,144,73167,1,0
296,144,73250,1,0
368,80,73417,2,0,B|336:48|280:48,1,90,8|0
208,104,73750,2,0,B|160:112|120:80,2,90,0|0|8
320,264,74417,6,0,B|352:304|352:352,1,90
248,320,74750,2,0,B|216:288|224:232,2,90,8|0|0
56,296,75417,1,8
40,200,75583,1,0
96,120,75750,1,0
96,120,75833,1,0
96,120,75917,1,0
160,192,76083,2,0,B|200:160|192:104,1,90,8|0
256,40,76417,5,0
256,40,76583,1,0
296,128,76750,2,0,B|344:112|352:56,1,90,8|0
432,112,77083,1,0
464,144,77167,1,0
456,192,77250,1,0
368,232,77417,1,8
392,272,77500,1,0
392,320,77583,1,0
304,280,77750,6,0,B|208:280|136:344,1,180,0|8
139,341,78250,1,0
72,264,78417,2,0,B|32:296|32:344,2,90,0|0|8
256,192,78916,12,0,80083
424,112,80416,6,0,B|416:64|376:32,1,90
320,112,80750,1,8
320,112,80833,1,0
320,112,80916,1,0
248,176,81083,2,0,B|288:208|336:208,2,90,0|0|8
192,96,81583,1,0
120,160,81750,5,0
120,160,81916,1,0
120,160,82083,2,0,B|72:176|56:224,1,90,8|0
144,264,82416,1,0
184,352,82583,1,0
264,296,82750,1,8
352,336,82916,1,0
432,280,83083,6,0,B|448:232|488:208,1,90
432,128,83416,2,0,B|408:168|352:176,1,90,8|0
344,80,83750,1,0
344,80,83833,1,0
344,80,83916,1,0
264,136,84083,1,8
264,136,84250,1,0
80,72,84583,2,0,B|112:112|160:104,1,90,0|8
312,224,85083,6,0,B|272:256|224:248,2,90,0|0|8
400,184,85583,1,0
392,280,85750,2,0,B|320:344|224:352,1,180,0|8
230,351,86250,1,0
152,296,86416,2,0,B|104:280|64:304,1,90
80,208,86750,2,0,B|136:192|184:216,1,90,8|0
256,168,87083,5,0
256,168,87166,1,0
256,168,87250,1,0
176,112,87416,1,8
176,112,87500,1,0
176,112,87583,1,0
240,40,87750,2,0,B|320:88|416:64,1,180,0|8
480,248,88416,2,0,B|384:240|304:296,1,180,0|8
224,248,88916,1,0
136,208,89083,2,0,B|120:280|160:344,2,135
256,192,89666,12,0,90750
312,48,91083,5,2
352,136,91250,2,0,B|400:112|408:64,2,90,0|8|0
256,120,91750,2,0,B|168:72|80:96,1,180,2|8
82,95,92250,1,0
136,176,92416,6,0,B|88:200|80:248,1,90,2|0
80,243,92666,1,0
80,243,92750,1,8
128,328,92916,1,0
208,272,93083,2,0,B|248:304|296:312,1,90,2|0
288,310,93333,1,0
288,310,93416,1,8
368,256,93583,1,0
288,200,93750,5,2
352,128,93916,1,0
352,80,94000,1,0
320,48,94083,1,8
248,112,94250,1,0
288,200,94416,2,0,B|336:224|376:208,1,90,2|0
464,248,94750,2,0,B|448:296|400:312,1,90,8|0
312,352,95083,5,2
240,288,95250,1,0
152,320,95416,1,8
64,360,95583,1,0
24,272,95750,2,0,B|16:224|48:184,1,90,2|0
136,160,96083,2,0,B|120:112|64:96,1,90,8|0
160,56,96416,5,2
248,96,96583,1,0
248,96,96666,1,0
248,96,96750,1,8
208,184,96916,2,0,B|208:232|168:264,1,90,0|2
170,262,97166,1,0
170,262,97250,2,0,B|136:296|144:352,1,90,0|8
240,328,97583,1,0
328,288,97750,6,0,B|376:272|400:232,1,90,2|0
398,234,98000,1,0
398,234,98083,1,8
312,192,98250,1,0
312,192,98333,1,0
312,192,98416,2,0,B|328:144|376:128,1,90,2|0
464,160,98750,2,0,B|480:104|440:64,1,90,8|0
360,40,99083,6,0,B|272:80|176:48,1,180,2|8
40,184,99583,1,0
40,184,99750,2,0,B|32:232|72:264,1,90,2|0
160,304,100083,2,0,B|184:256|152:208,2,90,8|0|2
264,40,100750,5,10
480,224,101083,1,2
224,352,101416,1,2
224,352,101500,1,0
224,352,101583,1,0
224,352,101666,1,0
224,352,101750,1,2
312,312,101916,6,0,B|288:264|232:256,1,90,0|8
152,288,102250,1,0
72,344,102416,2,0,B|48:304|56:256,1,90,2|0
55,257,102666,1,0
55,257,102750,1,8
120,184,102916,1,0
64,104,103083,6,0,B|112:80|160:96,1,90,2|0
216,168,103416,2,0,B|256:128|256:80,2,90,8|0|2
216,168,103833,1,0
216,168,103916,1,0
304,208,104083,2,0,B|264:240|264:288,1,90,8|0
336,352,104416,5,2
424,312,104583,1,0
448,272,104666,1,0
440,224,104750,1,8
384,144,104916,1,0
312,80,105083,2,0,B|344:40|400:48,2,90,2|0|8
288,176,105583,1,0
248,264,105750,6,0,B|200:280|192:336,1,90,2|0
193,329,106000,1,0
193,329,106083,1,8
112,280,106250,1,0
48,352,106416,1,2
32,304,106500,1,0
24,256,106583,1,0
32,208,106666,1,0
56,168,106750,1,8
88,80,106916,2,0,B|144:96|152:160,1,90,0|2
216,72,107250,5,0
216,72,107333,1,0
216,72,107416,1,8
296,128,107583,1,0
208,168,107750,2,0,B|232:216|288:224,1,90,2|0
240,312,108083,2,0,B|288:328|336:304,1,90,8|0
416,344,108416,5,2
472,264,108583,1,0
472,264,108666,1,0
472,264,108750,1,8
400,200,108916,1,0
472,88,109083,2,0,B|424:72|376:96,1,90,2|0
328,168,109416,1,8
328,168,109583,1,0
264,96,109750,6,0,B|288:48|336:40,2,90,2|0|8
176,136,110250,1,0
96,200,110416,2,0,B|48:216|32:264,2,90,2|0|8
176,136,110916,1,0
248,200,111083,6,0,B|264:248|232:288,1,90,2|0
304,352,111416,1,10
384,296,111583,1,0
344,208,111750,2,0,B|344:160|376:120,1,90,2|0
304,56,112083,1,10
256,192,112416,12,0,115083
