osu file format v8

[General]
AudioFilename: Toono.mp3
AudioLeadIn: 1511
PreviewTime: 90423
Countdown: 0
SampleSet: Normal
StackLeniency: 0.7
Mode: 0
LetterboxInBreaks: 1

[Editor]
Bookmarks: 90423
DistanceSpacing: 0.800000011920929
BeatDivisor: 4
GridSize: 8

[Metadata]
Title:Toono Ghost Front
Artist:COOL&CREATE
Creator:Snai
Version:Lunatic
Source:Touhou
Tags:MeLLoN Chen The Fantastic Legend of Tohon yakumo Perfect Cherry Blossom

[Difficulty]
HPDrainRate:8
CircleSize:4
OverallDifficulty:8
ApproachRate:8
SliderMultiplier:1.8
SliderTickRate:2

[Events]
//Background and Video events
0,0,"cheeen.jpg"
//Break Periods
2,35282,37000
2,59283,69000
//Storyboard Layer 0 (Background)
//Storyboard Layer 1 (Fail)
//Storyboard Layer 2 (Pass)
//Storyboard Layer 3 (Foreground)
Sprite,Foreground,Centre,"chen.jpg",320,240 M,0,0,,1428,80
//Storyboard Sound Samples
//Background Colour Transformations
3,100,163,162,255

[TimingPoints]
417,333.333333333333,4,1,1,100,1,0

[Colours]
Combo1 : 255,255,255
Combo2 : 0,200,0
Combo3 : 0,64,0

[HitObjects]
56,40,417,2,0,B|136:24|176:56,1,90
128,112,750,2,0,B|200:128|224:96,1,90
264,56,1083,1,0
344,56,1250,1,0
264,56,1416,1,0
304,120,1583,1,0
344,176,1750,2,0,B|408:208|408:256,2,90
272,176,2250,2,0,B|216:176,4,45
456,232,3083,6,0,B|400:224|360:240,1,90
408,312,3416,2,0,B|360:328|320:304,1,90
304,224,3750,1,0
256,280,3916,1,0
304,224,4083,1,0
232,216,4250,1,0
160,216,4416,2,0,B|104:152|56:152,2,90
160,296,4916,2,0,B|160:352,5,45
112,160,5750,5,0
184,160,5916,1,0
112,160,6083,1,0
72,224,6250,2,0,B|48:256|64:288,2,45
144,224,6583,1,0
184,160,6750,1,0
256,40,7083,6,0,B|328:24|376:56,1,90
400,88,7416,2,0,B|440:128|448:176,1,90
464,232,7750,2,0,B|456:312|424:320,1,90
360,320,8083,2,0,B|360:272,2,45
288,320,8416,2,0,B|288:272,2,45
216,320,8750,2,0,B|216:272,2,45
208,216,9083,5,0
96,184,9250,1,0
200,104,9416,1,0
64,80,9583,1,0
192,0,9750,2,0,B|272:16|288:64,1,90
296,184,10250,2,0,B|336:120|320:88,1,90
88,264,11083,6,0,B|136:240|160:192,1,90
72,88,11583,2,0,B|144:64|184:96,1,90
288,176,12083,1,8
440,64,12417,6,0,B|376:96|368:152,1,90
472,264,12917,2,0,B|416:272|376:248,1,90
208,232,13417,1,8
48,232,13750,6,0,B|136:184,1,90
127,98,14083,2,0,B|128:200,1,90
205,234,14417,2,0,B|120:184,1,90
127,188,14750,2,0,B|128:280,1,90
192,312,15083,1,0
192,312,15167,1,0
192,312,15250,1,0
256,280,15417,1,0
256,280,15500,1,0
256,280,15583,1,0
320,256,15750,1,0
320,256,15833,1,0
320,256,15917,1,0
320,256,16000,1,0
320,256,16083,1,0
144,128,16417,6,0,B|216:88|248:112,1,90
288,64,16750,2,0,B|360:48|408:72,1,90
448,64,17083,1,0
512,88,17250,2,0,B|512:144,2,45
304,288,17750,5,0
200,320,17917,1,0
232,192,18083,1,0
104,200,18250,1,0
176,96,18417,1,0
48,96,18583,2,0,B|96:96,2,45
56,240,19083,5,0
80,272,19166,1,0
112,264,19250,1,0
160,208,19416,1,0
192,200,19500,1,0
224,224,19583,1,0
232,296,19750,2,0,B|304:328|344:272,2,90
112,264,20416,5,0
160,152,20583,1,0
272,208,20750,1,0
256,80,20916,1,0
352,128,21083,2,0,B|416:128,3,45
416,304,21750,6,0,B|368:304,1,45
264,304,22083,2,0,B|216:304,1,45
112,304,22416,2,0,B|56:272|56:224,2,90
128,160,23083,5,0
128,160,23166,1,0
272,160,23416,1,0
272,160,23500,1,0
416,160,23750,2,0,B|480:184|464:256,2,90
368,296,24416,6,0,B|224:320|208:216,1,180
144,224,24916,1,0
104,168,25083,1,0
104,96,25250,1,0
144,32,25416,2,0,B|216:32,2,45
192,88,25750,5,0
200,160,25916,1,0
224,224,26083,1,0
296,224,26250,5,0
280,160,26416,1,0
272,88,26583,1,0
256,16,26750,2,0,B|320:16,2,45
184,24,27083,6,0,B|96:56|80:104,1,135
72,128,27416,2,0,B|32:192|64:248,1,90
96,272,27750,2,0,B|112:336|200:328,2,90
184,160,28416,6,0,B|208:120|240:128,2,45
200,232,28750,2,0,B|224:248|256:240,2,45
248,184,29083,1,0
248,184,29166,1,0
248,184,29250,1,0
248,184,29333,1,0
248,184,29416,1,0
328,64,29750,6,0,B|400:88|408:136,1,90
448,168,30083,2,0,B|480:232|440:280,1,90
384,272,30416,2,0,B|376:320|296:336,2,90
312,152,31083,6,0,B|288:128|256:136,2,45
312,224,31416,2,0,B|288:248|240:232,2,45
256,176,31750,1,0
256,176,31833,1,0
256,176,31916,1,0
256,176,32000,1,0
256,176,32083,1,0
144,80,32416,5,0
112,64,32500,1,0
80,80,32583,1,0
104,144,32750,1,0
104,216,32916,1,0
64,272,33083,5,0
96,296,33166,1,0
128,280,33250,1,0
176,336,33416,1,0
248,336,33583,1,0
352,272,33750,5,0
256,208,33916,1,0
368,168,34083,1,0
272,104,34250,1,0
376,56,34416,1,0
472,120,34583,1,0
480,240,34750,1,0
352,272,34916,2,0,B|352:328,2,45
72,56,37750,6,0,B|112:24|160:24,1,90
224,32,38083,1,0
128,136,38416,1,0
200,136,38583,1,0
128,136,38750,1,0
256,80,39083,6,0,B|328:80|360:144,1,90
392,160,39416,2,0,B|440:208|432:280,1,90
416,312,39750,2,0,B|352:352|304:304,1,90
256,320,40083,2,0,B|184:320,2,45
256,248,40417,1,0
120,304,40750,5,0
48,208,40917,1,0
176,168,41083,1,0
64,80,41250,1,0
192,56,41417,1,0
272,120,41583,2,0,B|328:88|320:32,2,90
456,88,42417,5,0
376,144,42583,1,0
456,88,42750,1,0
456,192,42917,1,0
464,264,43083,6,0,B|392:304|344:256,1,90
344,208,43417,1,0
352,352,43583,1,0
296,280,43750,2,0,B|216:304|176:264,1,90
200,208,44083,1,0
208,368,44250,1,0
136,288,44417,5,0
40,184,44750,1,0
40,40,45083,1,0
184,40,45417,1,0
256,192,45750,12,0,47083
320,72,48417,6,0,B|392:112|384:144,2,90
304,144,48917,1,0
320,216,49083,2,0,B|384:184|384:144,2,90
304,144,49583,1,0
224,104,49750,2,0,B|176:96|128:136,1,90
88,176,50083,2,0,B|40:224|64:288,1,90
88,320,50417,2,0,B|120:352|184:352,1,90
232,320,50750,1,0
232,320,50833,1,0
232,320,50917,1,0
232,320,51083,1,0
376,312,51417,5,0
488,248,51583,1,0
344,192,51750,1,0
456,128,51917,1,0
312,72,52083,1,0
424,16,52250,1,0
184,288,53083,5,0
96,216,53250,1,0
192,160,53417,1,0
96,216,53583,1,0
96,80,53750,5,0
160,40,53917,1,0
160,40,54000,1,0
160,40,54083,1,0
224,80,54250,5,0
224,80,54417,1,0
288,40,54583,1,0
288,40,54667,1,0
288,40,54750,1,0
344,80,54917,1,0
416,176,55083,5,0
280,224,55417,1,0
336,344,55750,1,0
472,296,56083,1,0
256,192,56417,12,0,59083
144,120,69750,5,0
208,160,69917,1,0
208,160,70000,1,0
208,160,70083,1,0
280,120,70250,5,0
280,120,70417,1,0
352,160,70583,1,0
352,160,70667,1,0
352,160,70750,1,0
416,120,70917,1,0
480,160,71083,6,0,B|472:224|416:248,1,90
384,288,71417,2,0,B|320:336|272:312,1,90
232,320,71750,2,0,B|160:312|128:256,1,90
104,232,72083,1,0
104,232,72167,1,0
104,232,72250,1,0
104,232,72417,1,0
128,96,72750,5,0
248,40,72917,1,0
264,168,73083,1,0
368,72,73250,1,0
376,216,73417,1,0
472,136,73583,2,0,B|472:200,3,45
232,288,74417,5,0
128,184,74583,1,0
80,312,74750,1,0
232,288,74917,1,0
264,168,75083,1,0
200,72,75250,2,0,B|152:72,2,45
376,72,75750,6,0,B|360:120|376:168,1,90
440,160,76083,2,0,B|504:160,2,45
440,224,76417,2,0,B|464:280|432:320,1,90
368,312,76750,2,0,B|312:312,2,45
368,248,77083,2,0,B|264:248,2,90
368,104,77750,6,0,B|424:80|408:32,2,90
368,104,78250,1,0
256,64,78417,1,0
208,176,78583,1,0
128,104,78750,1,0
72,208,78916,1,0
224,56,80416,6,0,B|184:88,2,45
296,56,80750,1,0
352,96,80916,1,0
296,144,81083,2,0,B|344:184,2,45
224,144,81416,1,0
80,112,81750,5,0
160,232,82083,1,0
304,232,82416,1,0
384,112,82750,1,0
240,112,83083,1,0
128,112,83416,5,0
168,184,83583,1,0
240,184,83750,1,0
312,184,83916,1,0
344,112,84083,1,0
240,112,84250,1,0
64,272,85083,5,0
168,328,85250,1,0
208,208,85416,1,0
280,288,85583,1,0
336,200,85750,2,0,B|416:240|392:304,2,90
336,128,86250,1,0
336,56,86416,2,0,B|408:8|376:-48,2,90
192,64,87083,5,0
80,160,87416,1,0
200,240,87750,1,0
312,152,88083,1,0
408,264,88416,6,0,B|456:264,2,45
336,264,88750,1,0
336,336,88916,1,0
264,336,89083,1,0
192,336,89250,2,0,B|136:296|144:224,2,90
264,336,89750,2,0,B|312:336,3,45
456,232,90416,5,0
344,136,90750,1,0
224,48,91083,2,0,B|168:24|96:64,1,90
136,120,91416,1,0
136,120,91500,1,0
136,120,91583,1,0
64,120,91750,2,0,B|40:200|88:240,1,90
136,208,92083,1,0
136,208,92166,1,0
136,208,92250,1,0
208,224,92416,5,0
264,176,92583,1,0
320,224,92750,1,0
264,272,92916,1,0
208,312,93083,1,0
272,352,93250,1,0
328,312,93416,1,0
264,272,93583,1,0
264,200,93750,5,0
264,136,93916,1,0
264,136,94000,1,0
264,136,94083,1,0
232,72,94250,1,0
304,72,94416,1,0
304,72,94500,1,0
304,72,94583,1,0
304,72,94666,1,0
304,72,94750,1,0
192,144,95083,5,0
328,176,95250,1,0
192,232,95416,1,0
328,264,95583,1,0
200,328,95750,2,0,B|120:304|104:256,1,90
112,216,96083,2,0,B|40:216,2,45
112,144,96416,5,0
112,72,96583,1,0
112,72,96666,1,0
112,72,96750,1,0
184,72,96916,2,0,B|240:56|296:80,1,90
440,216,97583,5,0
392,264,97750,1,0
352,208,97916,1,0
352,208,98000,1,0
352,208,98083,2,0,B|280:248|296:296,2,90
352,136,98583,2,0,B|416:80|384:40,2,90
288,168,99083,2,0,B|232:168,2,45
288,96,99416,2,0,B|392:96,2,90
216,96,99916,2,0,B|120:96,2,90
200,168,100416,5,0
200,312,100750,1,0
328,240,101083,1,0
328,240,101166,1,0
328,240,101250,1,0
328,240,101333,1,0
328,240,101416,1,0
408,120,101750,6,0,B|464:120,2,45
360,72,102083,2,0,B|424:72,2,45
288,72,102416,1,0
216,72,102583,1,0
216,72,102666,1,0
216,72,102750,1,0
104,160,103083,5,0
88,280,103250,1,0
200,232,103416,1,0
192,328,103583,1,0
296,288,103750,1,0
400,288,103916,2,0,B|464:288,2,45
400,144,104416,5,0
360,88,104583,1,0
360,88,104666,1,0
360,88,104750,1,0
320,144,104916,1,0
280,88,105083,1,0
280,88,105166,1,0
280,88,105250,1,0
280,88,105333,1,0
280,88,105416,1,0
144,88,105750,5,0
64,144,105916,1,0
168,200,106083,1,0
72,248,106250,1,0
184,304,106416,2,0,B|264:336|240:384,2,90
328,304,107083,5,0
384,264,107250,1,0
384,264,107333,1,0
384,264,107416,1,0
328,216,107583,2,0,B|264:184|280:128,2,90
466,182,108250,5,0
428,120,108416,1,0
377,68,108583,1,0
377,68,108666,1,0
377,68,108750,1,0
304,72,108916,2,0,B|240:35|248:-3,2,90
304,144,109416,2,0,B|304:200,2,45
240,112,109750,6,0,B|168:80|144:120,1,90
88,136,110083,2,0,B|32:184|48:248,1,90
56,280,110416,2,0,B|88:344|168:328,1,90
200,328,110750,2,0,B|280:304|280:240,1,90
272,208,111083,5,0
416,208,111416,1,0
416,64,111750,1,0
272,64,112083,1,0
256,192,112416,12,4,115083
