osu file format v8

[General]
AudioFilename: Toono.mp3
AudioLeadIn: 1985
PreviewTime: 90423
Countdown: 0
SampleSet: Normal
StackLeniency: 0.7
Mode: 0
LetterboxInBreaks: 1

[Editor]
DistanceSpacing: 0.800000011920929
BeatDivisor: 4
GridSize: 8

[Metadata]
Title:Toono Ghost Front
Artist:COOL&CREATE
Creator:Snai
Version:Easy
Source:Touhou
Tags:MeLLoN Chen The Fantastic Legend of Tohon yakumo Perfect Cherry Blossom

[Difficulty]
HPDrainRate:1
CircleSize:3
OverallDifficulty:2
ApproachRate:2
SliderMultiplier:0.999999999999999
SliderTickRate:1

[Events]
//Background and Video events
0,0,"cheeen.jpg"
//Break Periods
2,59283,68190
2,88616,89523
//Storyboard Layer 0 (Background)
//Storyboard Layer 1 (Fail)
//Storyboard Layer 2 (Pass)
//Storyboard Layer 3 (Foreground)
Sprite,Foreground,Centre,"chen.jpg",320,240 M,0,0,,1428,80
//Storyboard Sound Samples
//Background Colour Transformations
3,100,163,162,255

[TimingPoints]
417,333.333333333333,4,1,1,100,1,0

[Colours]
Combo1 : 255,255,255
Combo2 : 0,200,0
Combo3 : 0,64,0

[HitObjects]
128,64,417,5,0
232,160,1083,1,0
336,64,1750,2,0,B|424:144|344:248,1,200
472,344,3083,5,0
344,248,3750,1,0
216,344,4416,2,0,B|144:240|224:160,1,200
88,80,5750,5,0
248,80,6416,1,0
408,80,7083,1,0
368,152,7416,1,0
408,224,7750,1,0
416,376,8416,6,0,B|256:288|120:368,1,300
88,296,9750,2,0,B|88:240,4,50
128,144,11083,5,0
248,144,11583,1,0
448,144,12417,5,0
448,264,12917,1,0
264,184,13750,5,0
224,256,14083,1,0
304,256,14417,1,0
256,192,15083,12,0,17750
200,160,18417,5,0
328,56,19083,2,0,B|432:104|464:216,1,200
360,320,20416,2,0,B|264:248|280:144,2,200
200,312,22416,5,0
40,312,23083,1,0
120,176,23750,1,0
256,192,24416,12,0,27083
344,216,28416,5,0
440,344,29083,1,0
368,312,29416,1,0
296,344,29750,1,0
152,280,30416,5,0
72,144,31083,1,0
232,144,31750,1,0
208,64,32083,1,0
288,80,32416,1,0
440,128,33083,6,0,B|496:232|440:336,1,200
304,240,34416,1,0
256,192,35083,12,0,37083
256,40,37750,6,0,B|128:64|72:128,1,200
72,280,39083,1,0
232,280,39750,1,0
256,192,40417,12,0,43083
216,40,44417,5,0
216,200,45083,1,0
104,88,45750,6,0,B|56:200|112:296,2,200
416,152,48417,6,0,B|312:112|208:152,1,200
96,224,49750,1,0
224,312,50417,2,0,B|288:328|328:304,2,99.9999999999999
224,104,53083,6,0,B|280:104,4,50
120,232,54417,1,0
280,232,55083,2,0,B|344:232|352:288,3,99.9999999999999
256,192,56417,12,4,59083
176,88,69750,5,0
280,208,70417,1,0
384,88,71083,2,0,B|448:184|384:288,1,200
232,312,72417,5,0
136,184,73083,1,0
48,312,73750,1,0
360,248,75083,5,0
256,128,75750,1,0
152,248,76417,2,0,B|48:248,3,99.9999999999999
256,192,77917,12,0,80416
392,104,81750,6,0,B|280:88|184:104,2,200
392,264,83750,1,0
232,264,84416,1,0
464,48,85750,6,0,B|344:32|240:48,1,200
144,144,87083,2,0,B|144:32,4,99.9999999999999
72,320,91083,5,0
192,216,91750,1,0
312,320,92416,2,0,B|376:320,4,50
192,216,93750,5,0
304,96,94416,1,0
416,216,95083,2,0,B|480:216,4,50
304,328,96416,5,0
192,216,97083,1,0
72,328,97750,2,0,B|0:328,4,50
256,192,99083,12,0,101750
360,48,103083,5,0
448,184,103750,1,0
288,184,104416,2,0,B|288:288,2,99.9999999999999
208,48,105750,5,0
120,184,106416,1,0
280,184,107083,2,0,B|280:288,2,99.9999999999999
440,184,108416,2,0,B|440:80,2,99.9999999999999
328,296,109750,5,0
168,296,110416,1,0
248,160,111083,2,0,B|248:96,6,50
256,192,112416,12,4,115083
