osu file format v14

[General]
AudioFilename: -------------.mp3
AudioLeadIn: 1500
PreviewTime: 96126
Countdown: 0
SampleSet: None
StackLeniency: 0.7
Mode: 0
LetterboxInBreaks: 0
WidescreenStoryboard: 1

[Editor]
Bookmarks: 126,19326,28926,38526,48126,57726,67326,76926,86526,96126,105726,115326,124926,134526,196926
DistanceSpacing: 1.2
BeatDivisor: 4
GridSize: 4
TimelineZoom: 1.2

[Metadata]
Title:Saishoukichiku Imouto Flandre S
TitleUnicode:最終鬼畜妹フランドール・S
Artist:COOL&CREATE
ArtistUnicode:COOL&CREATE
Creator:UnLock-
Version:Sonnyc's Easy
Source:東方Project
Tags:Sonnyc Left Doyak bbj0920 Hello- Karia TH06 東方紅魔郷_~_the_Embodiment_of_Scarlet_Devil U.N.Owen_was_Her?_Remix Flandre_Scarlet
BeatmapID:881567
BeatmapSetID:264977

[Difficulty]
HPDrainRate:1
CircleSize:3
OverallDifficulty:1
ApproachRate:2
SliderMultiplier:0.6
SliderTickRate:1

[Events]
//Background and Video events
0,0,"BG.jpg",0,0
//Break Periods
2,76926,84966
2,115326,123366
//Storyboard Layer 0 (Background)
//Storyboard Layer 1 (Fail)
//Storyboard Layer 2 (Pass)
//Storyboard Layer 3 (Foreground)
//Storyboard Sound Samples

[TimingPoints]
126,300,4,2,0,70,1,0
38526,-100,4,2,0,70,0,1
57726,-100,4,2,0,70,0,0
96126,-100,4,2,0,70,0,1
115326,-100,4,2,0,70,0,0
129726,-100,4,2,0,40,0,0
132126,-100,4,2,0,50,0,0
134526,-100,4,2,0,60,0,0
144126,-100,4,2,0,70,0,1
152526,-100,4,2,0,70,0,0
153726,-100,4,2,0,70,0,1
171726,-100,4,2,0,70,0,0
192651,-100,4,2,0,5,0,0

[Colours]
Combo1 : 255,255,0
Combo2 : 255,111,111
Combo3 : 47,151,255
Combo4 : 128,255,128

[HitObjects]
64,192,126,38,0,P|184:128|448:192,1,420,0|0,1:0|0:0,0:0:0:0:
448,280,2526,2,0,P|328:344|64:280,1,420,0|0,1:0|0:0,0:0:0:0:
136,224,4926,2,0,P|376:224|456:88,1,420,0|0,1:0|0:0,0:0:0:0:
364,84,7326,2,0,P|256:172|168:128,2,240,0|0|4,1:0|1:0|1:0,0:0:0:0:
240,8,10326,5,2,0:0:0:0:
108,68,10926,2,0,B|118:131|118:131|81:238|81:238|92:302,1,240,0|2,0:0|0:0,0:0:0:0:
228,252,12726,2,0,P|304:308|424:252,1,240,2|2,0:0|0:0,0:0:0:0:
382,113,14526,6,0,B|326:134|326:134|270:113,1,120,4|2,1:0|0:0,0:0:0:0:
270,256,15726,2,0,B|326:235|326:235|382:256,2,120,4|2|4,1:0|0:0|1:0,0:0:0:0:
128,272,17526,2,0,P|196:192|128:96,1,240,4|0,1:0|1:0,0:0:0:0:
256,32,19326,6,0,B|295:32|295:32|332:47|332:47|372:47,2,120,4|8|0,1:2|1:0|1:0,0:0:0:0:
127,95,21126,2,0,P|96:144|112:208,1,120,8|0,1:0|1:0,0:0:0:0:
164,272,22026,1,2,0:1:0:0:
292,340,22626,1,2,0:1:0:0:
360,212,23226,1,2,0:1:0:0:
232,144,23826,1,2,0:1:0:0:
252,56,24126,6,0,B|213:56|213:56|176:71|176:71|136:71,2,120,0|8|0,1:0|1:0|1:0,0:0:0:0:
380,120,25926,2,0,P|411:169|395:233,1,120,8|0,1:0|1:0,0:0:0:0:
343,297,26826,1,2,0:1:0:0:
256,184,27426,1,2,0:1:0:0:
169,297,28026,1,2,0:1:0:0:
169,297,28326,1,0,1:0:0:0:
96,172,28926,6,0,B|128:160|164:164|164:164|172:136|186:118,1,120,4|8,1:2|1:0,0:0:0:0:
325,118,30126,2,0,B|340:136|348:164|348:164|384:160|416:172,2,120,0|8|0,1:0|1:0|1:0,0:0:0:0:
256,64,31626,1,2,0:1:0:0:
188,192,32226,1,2,0:1:0:0:
256,320,32826,1,2,0:1:0:0:
324,192,33426,1,2,0:1:0:0:
396,248,33726,6,0,P|412:172|396:136,3,120,4|8|0|8,1:2|1:0|1:0|1:0,0:0:0:0:
260,84,36126,1,0,1:0:0:0:
260,84,36426,1,2,0:1:0:0:
164,192,37026,1,2,0:1:0:0:
260,300,37626,1,2,0:1:0:0:
260,300,37926,1,0,1:0:0:0:
404,276,38526,6,0,P|472:216|404:108,1,240,4|0,1:0|0:0,0:0:0:0:
288,192,40326,1,2,0:0:0:0:
156,136,40926,2,0,P|140:212|156:248,2,120,0|2|0,0:0|0:0|0:0,0:0:0:0:
212,68,42426,1,0,0:0:0:0:
300,68,42726,1,2,0:0:0:0:
416,156,43326,6,0,P|393:194|405:270,1,120,4|2,1:0|0:0,0:0:0:0:
312,380,44526,2,0,P|276:364|200:380,1,120,4|2,1:0|0:0,0:0:0:0:
108,266,45726,2,0,P|121:209|96:156,2,120,4|4|4,1:0|1:0|1:0,0:0:0:0:
300,68,48126,5,0,1:0:0:0:
212,68,48426,1,2,0:0:0:0:
184,152,48726,2,0,P|232:196|328:152,2,180,0|2|0,1:0|0:0|1:0,0:0:0:0:
124,284,51126,2,0,P|168:284|180:352,1,120,0|2,1:0|0:0,0:0:0:0:
329,348,52326,2,0,P|333:292|388:284,1,120,2|4,0:0|1:2,0:0:0:0:
428,144,53526,6,0,B|332:124|256:176|256:176|180:124|84:144,1,360,2|4,0:0|1:2,0:0:0:0:
184,40,55926,1,0,1:0:0:0:
328,40,56526,1,4,1:2:0:0:
256,264,57726,6,0,B|286:261|286:261|316:267|316:267|346:264,2,90,4|0|0,1:2|1:0|1:0,0:0:0:0:
216,348,58926,2,2,B|276:342|276:342|320:350|320:350|394:340,1,180,2|2,1:0|1:0,0:1:0:0:
436,260,60126,6,0,P|468:288|484:336,2,90,0|0|0,1:0|1:0|1:0,0:0:0:0:
388,184,61326,2,2,P|376:116|424:16,1,180,2|2,1:0|1:0,0:1:0:0:
476,92,62526,5,0,1:0:0:0:
336,296,63726,2,2,P|258:338|170:329,1,180,2|2,1:0|1:0,0:1:0:0:
92,288,64926,5,0,1:0:0:0:
212,84,66126,2,2,P|289:126|377:117,1,180,2|2,1:0|1:0,0:1:0:0:
452,68,67326,5,4,1:2:0:0:
492,204,67926,2,0,L|484:264,2,60,0|0|2,1:0|1:0|1:0,0:0:0:0:
388,228,68976,2,2,L|376:318,1,90,2|2,1:0|1:0,0:1:0:0:
300,368,69726,5,0,1:0:0:0:
156,348,70326,2,0,L|96:340,2,60,0|0|2,1:0|1:0|1:0,0:0:0:0:
132,244,71376,2,2,L|222:256,1,90,2|2,1:0|1:0,0:1:0:0:
248,344,72126,6,0,P|304:296|236:164,1,240,0|2,1:0|1:0,0:0:0:0:
140,140,73776,2,2,L|50:128,1,90,2|2,1:0|1:0,0:1:0:0:
84,44,74526,6,0,L|264:68,1,180,0|0,1:0|1:0,0:0:0:0:
340,112,75726,2,0,P|352:72|332:16,2,90,6|2|2,1:0|1:0|1:0,0:0:0:0:
448,108,86526,38,0,P|328:44|64:108,1,420,4|0,1:0|0:0,0:0:0:0:
136,160,88926,2,0,P|376:160|456:296,1,420,0|0,1:0|0:0,0:0:0:0:
364,300,91326,2,0,P|256:212|168:256,2,240,4|4|4,1:0|1:0|1:0,0:0:0:0:
108,276,96126,22,0,P|40:216|108:108,1,240,4|0,1:0|0:0,0:0:0:0:
224,192,97926,1,2,0:0:0:0:
356,136,98526,2,0,P|372:212|356:248,2,120,0|2|0,0:0|0:0|0:0,0:0:0:0:
300,68,100026,1,0,0:0:0:0:
212,68,100326,1,2,0:0:0:0:
96,156,100926,6,0,P|119:194|107:270,1,120,4|2,1:0|0:0,0:0:0:0:
200,380,102126,2,0,P|236:364|312:380,1,120,0|2,0:0|0:0,0:0:0:0:
404,266,103326,2,0,P|391:209|416:156,2,120,0|0|4,0:0|0:0|1:0,0:0:0:0:
212,68,105726,5,0,1:0:0:0:
300,68,106026,1,2,0:0:0:0:
328,152,106326,2,0,P|280:196|184:152,2,180,0|2|0,1:0|0:0|1:0,0:0:0:0:
388,284,108726,2,0,P|344:284|332:352,1,120,2|2,0:0|0:0,0:0:0:0:
183,348,109926,2,0,P|179:292|124:284,1,120,2|4,0:0|1:2,0:0:0:0:
200,160,111126,6,0,B|232:168|256:184|256:184|280:168|312:160,2,120,2|4|2,0:0|1:2|0:0,0:0:0:0:
116,44,112926,1,4,1:2:0:0:
256,84,113526,1,4,1:2:0:0:
396,44,114126,1,4,1:2:0:0:
24,336,124926,6,0,B|152:296|128:384|256:344,3,240,4|0|0|0,0:0|0:0|0:0|0:0,0:0:0:0:
388,280,129126,1,0,0:0:0:0:
304,164,129726,6,0,P|420:140|512:212,1,240,4|4,1:2|1:2,0:0:0:0:
388,280,131526,1,0,0:0:0:0:
244,296,132126,2,0,P|185:282|130:309,2,120,0|4|4,1:2|1:2|1:2,0:0:0:0:
324,344,133626,1,0,1:0:0:0:
324,344,133926,1,0,1:0:0:0:
396,220,134526,6,0,L|388:160,1,60,0|2,1:0|3:2,0:0:0:0:
328,28,135426,1,2,3:2:0:0:
184,28,136026,1,2,3:2:0:0:
124,160,136626,2,0,L|116:220,2,60,2|4|2,0:0|1:2|0:0,0:0:0:0:
256,220,137826,2,0,L|256:344,2,120,2|2|2,0:0|0:0|0:0,0:0:0:0:
200,148,139326,6,0,P|276:132|312:148,1,120,4|0,1:2|0:0,0:0:0:0:
312,4,140526,2,0,P|236:20|200:4,1,120,4|0,1:2|0:0,0:0:0:0:
116,120,141726,2,0,P|300:272|396:120,1,480,4|4,1:2|1:0,0:0:0:0:
380,32,144426,5,2,0:0:0:0:
256,104,145026,1,2,0:0:0:0:
256,104,145326,2,0,B|240:156|272:176|256:224,2,120,0|0|4,0:0|0:0|1:2,0:0:0:0:
132,32,147126,1,2,0:0:0:0:
32,136,147726,2,0,P|48:172|32:248,1,120,0|2,1:0|0:0,0:0:0:0:
132,352,148926,5,4,1:2:0:0:
132,352,149226,1,2,0:0:0:0:
256,276,149826,1,2,0:0:0:0:
324,336,150126,2,0,B|376:320|396:352|444:336,1,120,4|2,1:2|0:0,0:0:0:0:
484,200,151326,2,0,P|432:228|280:144,2,240,4|4|4,1:2|1:2|1:2,0:0:0:0:
512,116,154026,5,2,0:0:0:0:
384,48,154626,1,2,0:0:0:0:
284,155,155226,1,2,0:0:0:0:
155,86,155826,1,2,0:0:0:0:
155,86,156126,2,0,P|148:208|372:272,1,360,0|0,1:0|1:0,0:0:0:0:
472,228,158526,5,4,1:2:0:0:
472,228,158826,1,2,0:0:0:0:
416,96,159426,1,2,0:0:0:0:
284,155,160026,1,2,0:0:0:0:
341,289,160626,1,2,0:0:0:0:
341,289,160926,2,0,P|176:253|144:200,1,240,0|0,1:0|1:0,0:0:0:0:
100,32,163326,5,4,1:2:0:0:
240,68,163926,2,0,P|304:68|360:44,2,120,0|0|0,1:0|1:0|1:0,0:0:0:0:
316,192,165726,1,0,1:0:0:0:
240,316,166326,2,0,P|304:316|360:340,2,120,0|0|0,1:0|1:0|1:0,0:0:0:0:
112,248,168126,6,0,P|96:212|112:136,1,120,4|0,1:2|1:0,0:0:0:0:
256,136,169326,2,0,P|272:172|256:248,1,120,4|0,1:2|1:0,0:0:0:0:
376,332,170526,1,4,1:2:0:0:
416,192,171126,1,4,1:2:0:0:
376,52,171726,1,4,1:2:0:0:
196,104,172926,6,0,P|172:39|96:128,1,240,4|0,1:2|1:0,0:0:0:0:
168,252,175326,2,0,P|103:275|192:352,1,240,0|0,1:0|1:0,0:0:0:0:
316,280,177726,2,0,P|339:344|416:256,1,240,0|0,1:0|1:0,0:0:0:0:
344,132,180126,2,0,P|408:108|320:32,1,240,0|0,1:0|1:0,0:0:0:0:
208,144,182526,6,0,P|212:216|304:240,1,180,4|0,1:0|0:0,0:0:0:0:
336,324,183726,2,0,P|208:324|176:60,1,420,0|0,1:0|0:0,0:0:0:0:
224,28,186126,2,0,P|307:40|320:123,1,180,0|0,1:0|0:0,0:0:0:0:
280,204,187326,6,0,P|328:212|376:196,2,90,4|0|0,1:2|1:0|1:0,0:0:0:0:
200,244,188526,2,2,P|192:292|208:340,2,90,4|0|0,1:2|1:0|0:0,0:1:0:0:
160,164,189726,2,0,P|112:156|64:172,2,90,4|0|0,1:2|1:0|1:0,0:0:0:0:
240,124,190926,2,0,P|248:76|232:28,2,90,4|2|4,1:0|1:0|1:0,0:0:0:0:
256,192,192651,12,0,196926,0:0:0:0:
