osu file format v14

[General]
AudioFilename: -------------.mp3
AudioLeadIn: 1500
PreviewTime: 96126
Countdown: 0
SampleSet: Normal
StackLeniency: 0.3
Mode: 0
LetterboxInBreaks: 0
WidescreenStoryboard: 0

[Editor]
DistanceSpacing: 2.5
BeatDivisor: 4
GridSize: 4
TimelineZoom: 2.4

[Metadata]
Title:Saishoukichiku Imouto Flandre S
TitleUnicode:最終鬼畜妹フランドール・S
Artist:COOL&CREATE
ArtistUnicode:COOL&CREATE
Creator:UnLock-
Version:Hello-'s Extra
Source:東方Project
Tags:Sonnyc Left Doyak bbj0920 Hello- Karia TH06 東方紅魔郷_~_the_Embodiment_of_Scarlet_Devil U.N.Owen_was_Her?_Remix Flandre_Scarlet
BeatmapID:892791
BeatmapSetID:264977

[Difficulty]
HPDrainRate:7
CircleSize:4.2
OverallDifficulty:8.1
ApproachRate:9.2
SliderMultiplier:1.6
SliderTickRate:1

[Events]
//Background and Video events
0,0,"BG.jpg",0,0
//Break Periods
2,77126,84756
//Storyboard Layer 0 (Background)
//Storyboard Layer 1 (Fail)
//Storyboard Layer 2 (Pass)
//Storyboard Layer 3 (Foreground)
//Storyboard Sound Samples

[TimingPoints]
126,300,4,1,0,20,1,0
2526,-100,4,1,0,30,0,0
4926,-100,4,1,0,40,0,0
7326,-100,4,1,0,70,0,0
12126,-100,4,1,0,60,0,0
14526,-100,4,1,0,70,0,0
19026,-100,4,1,0,40,0,0
19326,-100,4,1,0,70,0,0
38226,-100,4,1,0,60,0,0
38376,-100,4,1,0,50,0,0
38526,-100,4,1,0,70,0,0
48126,-100,4,1,0,70,0,1
57726,-100,4,1,0,70,0,0
96126,-100,4,1,0,70,0,1
115326,-100,4,1,0,70,0,0
125001,-100,4,1,0,20,0,0
126126,-100,4,1,0,30,0,0
127326,-100,4,1,0,45,0,0
128526,-100,4,1,0,60,0,0
129426,-100,4,1,0,5,0,0
129576,-100,4,1,0,60,0,0
140526,-100,4,1,0,10,0,0
140827,-100,4,1,0,20,0,0
141126,-100,4,1,0,30,0,0
141426,-100,4,1,0,40,0,0
141726,-100,4,1,0,50,0,0
142026,-100,4,1,0,60,0,0
142326,-100,4,1,0,70,0,0
144126,-100,4,1,0,70,0,1
152526,-100,4,1,0,70,0,0
153726,-83.3333333333333,4,1,0,70,0,1
172926,-83.3333333333333,4,1,0,70,0,0
191976,-83.3333333333333,4,1,0,50,0,0
192651,-100,4,1,0,70,0,0
193326,-100,4,1,0,60,0,0
193926,-100,4,1,0,50,0,0
194526,-100,4,1,0,40,0,0
195126,-100,4,1,0,30,0,0
195726,-100,4,1,0,20,0,0
196326,-100,4,1,0,10,0,0
196926,-100,4,1,0,5,0,0

[Colours]
Combo1 : 255,255,0
Combo2 : 255,111,111
Combo3 : 47,151,255
Combo4 : 128,255,128

[HitObjects]
256,196,126,5,4,0:0:0:0:
256,192,201,12,0,2226,0:0:0:0:
256,192,2526,5,4,0:0:0:0:
256,192,2601,12,0,4626,0:0:0:0:
256,192,4926,5,4,0:0:0:0:
256,192,5001,12,0,7026,0:0:0:0:
256,192,7326,5,4,0:0:0:0:
256,192,7401,12,0,8226,0:0:0:0:
40,48,8526,6,0,L|44:88,3,40
48,108,8826,1,0,0:0:0:0:
47,127,8901,1,0,0:0:0:0:
46,147,8976,1,0,0:0:0:0:
45,167,9051,1,0,0:0:0:0:
60,180,9126,5,8,3:0:0:0:
80,216,9201,1,0,0:0:0:0:
84,256,9276,1,8,3:0:0:0:
72,296,9351,1,0,0:0:0:0:
46,326,9426,1,8,3:0:0:0:
82,310,9501,1,0,0:0:0:0:
122,310,9576,1,8,3:0:0:0:
159,325,9651,1,0,0:0:0:0:
191,348,9726,6,0,P|255:367|363:315,1,160,4|8,0:0|0:0,0:0:0:0:
402,285,10176,1,0,0:0:0:0:
438,212,10326,2,0,L|428:132,1,80
297,39,10626,1,8,0:0:0:0:
337,152,10776,1,0,0:0:0:0:
337,152,10926,6,0,L|327:232,1,80
246,141,11226,2,0,L|166:153,1,80,8|0,0:0|0:0,0:0:0:0:
355,82,11526,2,0,L|434:72,1,80
309,146,11826,2,0,P|283:114|278:67,1,80,8|0,0:0|0:0,0:0:0:0:
432,165,12126,6,0,P|434:204|419:241,1,80,0|2,0:0|0:0,0:0:0:0:
296,316,12426,2,0,L|376:320,1,80,0|2,0:0|0:0,0:0:0:0:
200,223,12726,2,0,P|239:219|278:226,1,80,0|2,0:0|0:0,0:0:0:0:
168,344,13026,2,0,P|128:348|89:341,1,80,0|2,0:0|0:0,0:0:0:0:
37,196,13326,6,0,L|41:276,1,80,0|2,0:0|0:0,0:0:0:0:
121,92,13626,2,0,L|124:171,1,80,0|2,0:0|0:0,0:0:0:0:
275,306,13926,2,0,L|278:227,1,80,0|2,0:0|0:0,0:0:0:0:
399,147,14226,2,0,P|360:142|321:150,1,80,0|2,0:0|0:0,0:0:0:0:
459,232,14526,6,0,P|497:164|480:88,1,160,4|8,0:0|0:0,0:0:0:0:
310,43,14976,1,0,0:0:0:0:
310,43,15126,2,0,P|305:82|312:121,1,80
459,233,15426,2,0,P|466:193|461:154,1,80,8|0,0:0|0:0,0:0:0:0:
404,98,15726,6,0,B|360:90|360:90|292:92|292:92|245:84,1,160,4|8,0:0|0:0,0:0:0:0:
172,48,16176,1,0,0:0:0:0:
264,168,16326,2,0,L|343:164,1,80
172,48,16626,2,0,L|92:51,1,80,8|0,0:0|0:0,0:0:0:0:
20,88,16851,1,0,0:0:0:0:
20,88,16926,6,0,L|26:167,1,80,4|2,0:0|0:0,0:0:0:0:
112,304,17226,2,0,L|118:224,1,80,0|2,0:0|0:0,0:0:0:0:
124,144,17451,1,0,0:0:0:0:
124,144,17526,1,0,0:0:0:0:
32,252,17676,1,2,0:0:0:0:
196,188,17826,1,0,0:0:0:0:
156,360,17976,1,2,0:0:0:0:
156,360,18276,6,0,P|195:364|234:354,1,80,2|0,0:0|0:0,0:0:0:0:
360,252,18576,2,0,P|320:247|281:257,1,80,2|0,0:0|0:0,0:0:0:0:
412,352,18876,1,2,0:0:0:0:
486,210,19026,2,2,L|488:229,6,20,2|2|2|2|2|2|2,2:0|2:0|2:0|2:0|2:0|2:0|2:0,2:0:0:0:
440,120,19326,6,0,L|452:40,1,80,4|0,0:0|0:0,0:0:0:0:
350,175,19626,2,0,P|345:214|359:251,1,80,8|0,0:0|0:0,0:0:0:0:
440,120,19926,2,0,P|375:78|297:86,1,160,0|8,0:0|0:0,0:0:0:0:
168,184,20376,1,0,0:0:0:0:
168,184,20451,1,0,0:0:0:0:
168,184,20526,6,0,P|208:189|247:179,1,80
76,136,20826,1,8,0:0:0:0:
96,256,20976,1,0,0:0:0:0:
188,64,21126,1,0,0:0:0:0:
168,184,21276,1,8,0:0:0:0:
100,40,21426,1,8,0:0:0:0:
294,85,21576,1,0,0:0:0:0:
294,85,21651,1,0,0:0:0:0:
294,85,21726,6,0,L|373:81,1,80,0|2,0:0|0:0,0:0:0:0:
246,179,22026,2,0,L|166:175,1,80,0|2,0:0|0:0,0:0:0:0:
373,80,22326,2,0,P|378:119|370:159,1,80,0|2,0:0|0:0,0:0:0:0:
249,257,22626,2,0,P|240:218|245:179,1,80,0|2,0:0|0:0,0:0:0:0:
400,316,22926,6,0,L|320:320,1,80,0|2,0:0|0:0,0:0:0:0:
169,261,23226,2,0,L|249:257,1,80,0|2,0:0|0:0,0:0:0:0:
368,148,23526,2,0,L|288:152,1,80,0|2,0:0|0:0,0:0:0:0:
142,83,23826,2,0,L|222:79,1,80,0|2,0:0|0:0,0:0:0:0:
376,32,24126,6,0,P|389:109|352:184,1,160,4|8,0:0|0:0,0:0:0:0:
216,120,24576,1,0,0:0:0:0:
219,100,24651,1,0,0:0:0:0:
222,80,24726,1,0,0:0:0:0:
341,206,24876,2,0,P|345:245|337:284,1,80,0|8,0:0|0:0,0:0:0:0:
292,128,25176,6,0,P|368:119|426:171,1,160
261,238,25626,2,0,P|222:241|183:234,1,80,8|0,0:0|0:0,0:0:0:0:
134,168,25851,2,0,L|140:128,1,40
261,238,26076,2,0,L|249:317,1,80,8|8,0:0|0:0,0:0:0:0:
129,209,26376,1,0,0:0:0:0:
132,189,26451,1,0,0:0:0:0:
135,169,26526,5,0,0:0:0:0:
110,327,26676,1,2,0:0:0:0:
34,186,26826,1,0,0:0:0:0:
10,303,26976,1,2,0:0:0:0:
185,290,27126,2,0,L|197:211,1,80,0|2,0:0|0:0,0:0:0:0:
127,49,27426,2,0,L|139:128,1,80,0|2,0:0|0:0,0:0:0:0:
256,44,27726,6,0,P|295:41|334:50,1,80,0|2,0:0|0:0,0:0:0:0:
275,216,28026,2,0,P|235:219|196:210,1,80,0|2,0:0|0:0,0:0:0:0:
133,167,28326,2,0,L|138:128,2,40,0|0|2,0:0|0:0|0:0,0:0:0:0:
120,248,28626,1,8,0:0:0:0:
212,72,28776,2,0,L|217:111,1,40,2|0,0:0|0:0,0:0:0:0:
232,192,28926,6,0,P|288:216|384:168,1,160,4|8,0:0|0:0,0:0:0:0:
488,68,29376,2,0,P|449:65|410:74,1,80
377,260,29676,1,0,0:0:0:0:
377,260,29826,2,0,L|374:171,1,80,8|0,0:0|0:0,0:0:0:0:
468,308,30126,6,0,L|465:219,1,80
296,300,30426,2,0,P|293:339|302:378,1,80,8|0,0:0|0:0,0:0:0:0:
377,260,30726,1,0,0:0:0:0:
200,312,30876,1,8,0:0:0:0:
380,344,31026,1,8,0:0:0:0:
232,232,31176,1,0,0:0:0:0:
232,232,31251,1,0,0:0:0:0:
232,232,31326,6,0,L|152:236,1,80,0|2,0:0|0:0,0:0:0:0:
288,152,31626,2,0,L|368:156,1,80,0|2,0:0|0:0,0:0:0:0:
184,56,31926,2,0,P|179:95|187:134,1,80,0|2,0:0|0:0,0:0:0:0:
278,267,32226,2,0,P|286:227|281:188,1,80,0|2,0:0|0:0,0:0:0:0:
128,228,32526,6,0,L|208:224,1,80,0|2,0:0|0:0,0:0:0:0:
336,100,32826,2,0,L|256:96,1,80,0|2,0:0|0:0,0:0:0:0:
187,134,33126,2,0,L|192:173,2,40,0|0|2,0:0|0:0|0:0,0:0:0:0:
96,56,33426,1,0,0:0:0:0:
96,56,33576,2,0,L|91:95,1,40,2|0,0:0|0:0,0:0:0:0:
76,176,33726,6,0,B|72:220|72:220|80:288|80:288|76:336,1,160,4|8,0:0|0:0,0:0:0:0:
168,204,34176,1,0,0:0:0:0:
168,204,34326,2,0,L|172:124,1,80
52,252,34626,1,8,0:0:0:0:
192,360,34776,1,0,0:0:0:0:
192,360,34926,6,0,L|196:280,1,80
320,180,35226,2,0,P|280:172|241:177,1,80,8|0,0:0|0:0,0:0:0:0:
377,260,35526,1,0,0:0:0:0:
377,260,35601,1,0,0:0:0:0:
377,260,35676,2,0,L|373:340,1,80,0|8,0:0|0:0,0:0:0:0:
488,228,35976,2,0,L|490:188,1,40
501,108,36126,6,0,L|417:116,1,80,0|2,0:0|0:0,0:0:0:0:
340,24,36426,1,0,0:0:0:0:
320,180,36576,1,2,0:0:0:0:
421,115,36726,5,0,0:0:0:0:
404,272,36876,1,2,0:0:0:0:
320,180,37026,1,0,0:0:0:0:
490,188,37176,1,2,0:0:0:0:
323,100,37326,2,0,L|319:180,1,80,0|2,0:0|0:0,0:0:0:0:
240,60,37626,2,0,L|236:140,1,80,0|2,0:0|0:0,0:0:0:0:
156,20,37926,6,0,L|152:100,1,80,0|2,0:0|0:0,0:0:0:0:
101,162,38151,1,0,0:0:0:0:
94,180,38226,2,0,P|95:199|97:219,1,40,2|0,3:0|0:0,0:0:0:0:
180,276,38376,2,0,P|179:295|173:314,1,40,8|0,3:0|3:0,0:0:0:0:
60,360,38526,6,0,P|38:285|61:209,1,160,4|8,0:0|0:0,0:0:0:0:
183,155,38976,2,0,L|104:144,1,80
237,231,39276,1,0,0:0:0:0:
178,126,39426,1,8,0:0:0:0:
284,295,39576,6,0,P|358:316|424:274,1,160
453,124,40026,2,0,L|464:203,1,80,8|0,0:0|0:0,0:0:0:0:
347,71,40326,1,0,0:0:0:0:
346,71,40626,2,0,P|338:150|343:230,1,160,8|0,0:0|0:0,0:0:0:0:
385,343,41076,5,0,0:0:0:0:
464,203,41226,2,0,L|453:124,1,80,8|0,0:0|0:0,0:0:0:0:
441,44,41526,1,0,0:0:0:0:
347,190,41676,2,0,L|343:229,1,40
331,309,41826,1,8,0:0:0:0:
464,203,41976,1,0,0:0:0:0:
342,110,42126,6,0,L|346:189,1,80
259,73,42426,2,0,L|263:152,1,80,8|0,0:0|0:0,0:0:0:0:
174,38,42726,2,0,L|179:197,1,160,0|8,0:0|0:0,0:0:0:0:
42,343,43176,2,0,L|46:304,1,40
52,224,43326,5,4,0:0:0:0:
52,223,43626,2,0,P|88:209|128:210,1,80,8|0,0:0|0:0,0:0:0:0:
42,343,43926,1,0,0:0:0:0:
52,223,44076,1,0,0:0:0:0:
140,304,44226,1,8,0:0:0:0:
164,148,44376,1,0,0:0:0:0:
164,148,44451,1,0,0:0:0:0:
164,148,44526,1,4,0:0:0:0:
164,148,44826,6,0,P|200:134|240:135,1,80,8|0,0:0|0:0,0:0:0:0:
88,115,45126,2,0,P|113:85|148:65,1,80
216,212,45426,2,2,B|232:252|232:252|216:332,1,120,0|0,0:0|0:0,0:0:0:0:
139,303,45726,6,0,P|131:265|140:226,1,80,4|0,0:0|0:0,0:0:0:0:
240,135,46026,1,8,0:0:0:0:
72,192,46176,1,0,0:0:0:0:
228,276,46326,6,0,P|240:239|267:209,1,80,4|0,0:0|0:0,0:0:0:0:
309,277,46551,1,0,0:0:0:0:
309,277,46626,1,8,0:0:0:0:
212,348,46776,1,0,0:0:0:0:
267,207,46926,6,0,P|304:195|343:202,1,80,4|0,0:0|0:0,0:0:0:0:
424,216,47151,1,0,0:0:0:0:
424,216,47226,2,0,L|425:161,1,40,12|0,0:0|0:0,0:0:0:0:
428,96,47376,1,0,0:0:0:0:
343,202,47526,5,0,0:0:0:0:
344,221,47601,1,0,0:0:0:0:
345,241,47676,1,8,0:0:0:0:
346,261,47751,1,0,0:0:0:0:
347,281,47826,5,8,0:0:0:0:
337,319,47901,1,0,0:0:0:0:
309,347,47976,1,0,0:0:0:0:
271,358,48051,1,0,0:0:0:0:
232,352,48126,6,0,P|184:328|104:340,1,120,4|0,0:0|0:0,0:0:0:0:
84,348,48426,2,0,L|87:268,1,80,8|0,0:0|0:0,0:0:0:0:
152,148,48726,2,0,P|160:186|155:226,1,80
48,88,49026,1,8,0:0:0:0:
48,88,49176,6,0,B|102:85|102:85|156:71|156:71|205:70,1,160,0|0,0:3|0:0,0:3:0:0:
316,164,49626,2,0,P|278:172|238:167,1,80,8|0,0:0|0:0,0:0:0:0:
340,39,49926,2,0,P|399:32|456:48,1,120
480,80,50226,2,2,L|476:240,1,160,8|4,0:0|0:0,0:0:0:0:
472,320,50676,5,0,0:0:0:0:
391,163,50826,2,0,L|389:242,1,80,8|0,0:0|0:0,0:0:0:0:
315,338,51126,1,0,0:0:0:0:
225,205,51276,1,0,0:0:0:0:
244,209,51351,1,0,0:0:0:0:
264,213,51426,1,8,0:0:0:0:
192,336,51576,1,0,0:0:0:0:
282,217,51726,6,0,P|286:178|282:138,1,80
144,56,52026,2,0,P|139:95|144:135,1,80,8|0,0:0|0:0,0:0:0:0:
216,96,52326,2,0,B|52:104,1,160,0|8,0:0|0:0,0:0:0:0:
206,201,52776,1,0,0:0:0:0:
225,205,52851,1,0,0:0:0:0:
244,209,52926,6,0,P|321:214|390:174,1,160,4|8,0:0|0:0,0:0:0:0:
420,100,53376,1,0,0:0:0:0:
464,243,53526,2,0,L|468:164,1,80
400,300,53826,1,8,0:0:0:0:
229,259,53976,6,0,P|297:219|376:224,1,160
287,340,54426,2,0,P|253:358|213:359,1,80,8|0,0:0|0:0,0:0:0:0:
84,296,54726,2,0,P|122:286|161:296,1,80
19,367,55026,2,2,P|0:292|29:219,1,160,8|0,0:0|0:0,0:0:0:0:
48,212,55401,5,0,0:0:0:0:
61,197,55476,1,8,0:0:0:0:
73,181,55551,1,0,0:0:0:0:
81,162,55626,1,8,0:0:0:0:
85,143,55701,1,0,0:0:0:0:
86,123,55776,1,8,0:0:0:0:
84,103,55851,1,0,0:0:0:0:
73,86,55926,6,0,P|112:92|152:90,1,80,0|8,0:0|0:0,0:0:0:0:
221,49,56151,1,0,0:0:0:0:
221,48,56226,2,0,P|260:45|299:52,1,80,8|0,0:0|0:0,0:0:0:0:
399,177,56526,6,0,L|395:97,1,80,8|0,0:0|0:0,0:0:0:0:
485,275,56826,2,0,L|488:195,1,80,8|0,0:0|0:0,0:0:0:0:
400,329,57126,1,8,0:0:0:0:
367,350,57201,1,0,0:0:0:0:
328,358,57276,1,8,0:0:0:0:
289,351,57351,1,0,0:0:0:0:
253,328,57426,2,0,P|215:319|176:327,1,80,8|0,0:0|0:0,0:0:0:0:
104,364,57651,1,0,0:0:0:0:
104,364,57726,6,0,P|65:371|26:362,1,80,2|0,0:0|0:0,0:0:0:0:
64,164,58026,2,0,L|68:244,1,80,0|2,0:0|0:0,0:0:0:0:
144,104,58326,2,0,L|148:184,1,80,0|2,0:0|0:0,0:0:0:0:
224,44,58626,2,0,L|228:124,1,80,2|0,0:0|0:0,0:0:0:0:
324,300,58926,6,2,L|331:140,1,160,0|2,0:0|0:0,0:0:0:0:
336,60,59376,1,0,0:0:0:0:
488,148,59526,2,0,P|450:157|411:152,1,80
336,60,59826,1,2,0:0:0:0:
485,168,59976,2,0,L|481:207,1,40
419,270,60126,6,0,L|428:360,1,80,2|0,0:0|0:0,0:0:0:0:
331,220,60426,2,0,L|322:310,1,80,0|2,0:0|0:0,0:0:0:0:
223,173,60726,2,0,L|232:263,1,80,0|2,0:0|0:0,0:0:0:0:
124,132,61026,2,0,L|116:211,1,80,2|0,0:0|0:0,0:0:0:0:
51,65,61326,6,2,P|120:33|196:64,1,160,0|2,0:0|0:0,0:0:0:0:
216,141,61776,1,0,0:0:0:0:
119,290,61926,2,0,P|113:253|117:205,1,80
216,141,62226,1,2,0:0:0:0:
45,70,62376,2,0,L|41:109,1,40
12,192,62526,6,0,L|16:272,1,80,2|0,0:0|0:0,0:0:0:0:
132,384,62826,2,0,L|128:304,1,80,0|2,0:0|0:0,0:0:0:0:
232,180,63126,2,0,L|236:260,1,80,0|2,0:0|0:0,0:0:0:0:
360,364,63426,2,0,L|356:284,1,80,2|0,0:0|0:0,0:0:0:0:
468,116,63726,6,2,L|475:276,1,160,0|2,0:0|0:0,0:0:0:0:
332,172,64176,1,0,0:0:0:0:
400,56,64326,2,0,P|364:37|325:37,1,80
468,116,64626,1,2,0:0:0:0:
294,56,64776,2,0,L|290:95,1,40
252,166,64926,6,0,L|256:246,1,80,2|0,0:0|0:0,0:0:0:0:
140,356,65226,2,0,L|144:276,1,80,0|2,0:0|0:0,0:0:0:0:
48,148,65526,2,0,L|52:228,1,80,0|2,0:0|0:0,0:0:0:0:
180,348,65826,2,0,L|184:268,1,80,2|0,0:0|0:0,0:0:0:0:
296,104,66126,6,2,L|303:264,1,160,0|2,0:0|0:0,0:0:0:0:
444,160,66576,1,0,0:0:0:0:
328,292,66726,2,0,P|367:291|402:272,1,80
295,103,67026,1,2,0:0:0:0:
260,87,67101,1,0,0:0:0:0:
220,84,67176,1,0,0:0:0:0:
182,95,67251,1,0,0:0:0:0:
150,119,67326,5,6,0:0:0:0:
80,216,67476,1,0,0:0:0:0:
192,332,67626,2,0,L|188:252,1,80,0|2,0:0|0:0,0:0:0:0:
132,144,67926,1,0,0:0:0:0:
70,246,68076,1,2,0:0:0:0:
192,352,68226,2,0,L|181:272,1,80,2|0,0:0|0:0,0:0:0:0:
316,124,68526,6,2,L|309:284,1,160,0|2,0:0|0:0,0:0:0:0:
432,344,68976,2,0,L|429:304,1,40
420,224,69126,1,0,0:0:0:0:
320,368,69276,1,0,0:0:0:0:
432,199,69426,2,0,P|435:160|428:121,1,80,2|0,0:0|0:0,0:0:0:0:
376,56,69651,1,0,0:0:0:0:
376,56,69726,5,2,0:0:0:0:
328,168,69876,1,0,0:0:0:0:
216,32,70026,2,0,L|295:42,1,80,0|2,0:0|0:0,0:0:0:0:
395,109,70326,1,0,0:0:0:0:
337,216,70476,1,2,0:0:0:0:
237,71,70626,2,0,L|315:88,1,80,2|0,0:0|0:0,0:0:0:0:
432,199,70926,6,2,L|274:228,1,160,0|2,0:0|0:0,0:0:0:0:
176,321,71376,2,0,L|216:324,1,40
295,333,71526,1,0,0:0:0:0:
138,248,71676,1,0,0:0:0:0:
296,172,71826,1,2,0:0:0:0:
296,212,71901,1,0,0:0:0:0:
296,252,71976,1,0,0:0:0:0:
296,292,72051,1,0,0:0:0:0:
295,333,72126,5,6,0:0:0:0:
200,300,72276,1,0,0:0:0:0:
44,332,72426,1,0,0:0:0:0:
139,362,72576,1,2,0:0:0:0:
143,169,72726,2,0,L|138:259,1,80,0|2,0:0|0:0,0:0:0:0:
33,128,73026,2,0,L|37:207,1,80,2|0,0:0|0:0,0:0:0:0:
110,64,73326,6,2,L|269:79,1,160,0|2,0:0|0:0,0:0:0:0:
349,85,73776,1,0,0:0:0:0:
294,235,73926,2,0,P|281:197|279:157,1,80
442,225,74226,2,0,P|439:264|426:302,1,80,2|0,0:0|0:0,0:0:0:0:
281,371,74526,5,2,0:0:0:0:
346,325,74676,1,0,0:0:0:0:
188,351,74826,1,0,0:0:0:0:
264,260,74976,1,2,0:0:0:0:
83,170,75126,5,0,0:0:0:0:
113,327,75276,1,2,0:0:0:0:
178,180,75426,1,2,0:0:0:0:
43,264,75576,1,0,0:0:0:0:
242,292,75726,6,0,L|361:285,1,120,4|0,0:0|0:0,0:0:0:0:
402,281,76026,1,8,0:0:0:0:
268,180,76176,2,0,L|148:173,1,120,4|0,0:0|0:0,0:0:0:0:
108,169,76476,1,8,0:0:0:0:
240,64,76626,1,8,0:0:0:0:
264,260,76776,1,0,0:0:0:0:
340,168,76926,5,4,0:0:0:0:
340,168,85326,5,4,0:0:0:0:
340,168,85626,1,4,0:0:0:0:
340,168,85926,5,0,0:0:0:0:
340,168,86076,1,2,0:0:0:0:
340,168,86226,1,0,0:0:0:0:
340,168,86376,1,2,0:0:0:0:
340,169,86526,6,0,P|360:245|340:324,1,160,4|8,0:0|0:0,0:0:0:0:
276,372,86976,1,0,0:0:0:0:
148,274,87126,2,0,P|187:275|225:288,1,80
108,372,87426,1,8,0:0:0:0:
40,328,87575,6,0,B|36:276|36:276|44:228|44:228|40:168,1,160
176,84,88026,2,0,P|185:122|191:162,1,80,8|0,0:0|0:0,0:0:0:0:
76,76,88326,1,0,0:0:0:0:
128,228,88476,1,8,0:0:0:0:
28,160,88626,1,8,0:0:0:0:
216,92,88776,1,0,0:0:0:0:
216,92,88926,6,0,L|295:101,1,80,0|2,0:0|0:0,0:0:0:0:
328,76,89151,2,0,L|324:36,1,40,0|2,0:0|0:0,0:0:0:0:
456,100,89376,1,0,0:0:0:0:
456,100,89526,6,0,L|447:179,1,80,0|2,0:0|0:0,0:0:0:0:
424,212,89751,2,0,L|427:251,1,40,0|2,0:0|0:0,0:0:0:0:
336,364,89976,1,0,0:0:0:0:
336,364,90126,6,0,L|257:355,1,80,0|2,0:0|0:0,0:0:0:0:
224,332,90351,2,0,L|220:292,1,40,0|2,0:0|0:0,0:0:0:0:
104,208,90576,1,0,0:0:0:0:
104,208,90726,6,0,L|95:287,1,80,0|2,0:0|0:0,0:0:0:0:
71,320,90951,2,0,P|52:323|32:322,1,40,0|2,0:0|0:0,0:0:0:0:
216,244,91176,1,0,0:0:0:0:
216,244,91251,1,0,0:0:0:0:
216,244,91326,6,0,P|292:228|359:269,1,160,4|8,0:0|0:0,0:0:0:0:
408,332,91776,1,0,0:0:0:0:
480,188,91926,2,0,P|488:227|487:266,1,80
388,160,92226,2,0,P|386:120|394:80,1,80,8|0,0:0|0:0,0:0:0:0:
479,187,92526,6,0,P|432:248|354:253,1,160,4|8,0:0|0:0,0:0:0:0:
216,173,92976,1,0,0:0:0:0:
216,172,93126,2,0,P|254:165|292:176,1,80,0|8,0:0|0:0,0:0:0:0:
156,260,93426,2,0,P|117:267|79:256,1,80,8|0,0:0|0:0,0:0:0:0:
20,64,93726,5,4,0:0:0:0:
20,64,93876,2,0,L|22:103,1,40,2|0,0:0|0:0,0:0:0:0:
28,184,94026,1,2,0:0:0:0:
28,184,94176,1,0,0:0:0:0:
116,336,94326,5,4,0:0:0:0:
116,336,94476,2,0,L|118:296,1,40,2|0,0:0|0:0,0:0:0:0:
124,196,94626,1,2,0:0:0:0:
124,196,94776,1,0,0:0:0:0:
228,72,94926,6,0,L|231:151,1,80,6|0,0:0|0:0,0:0:0:0:
336,324,95226,2,0,L|339:244,1,80,6|0,0:0|0:0,0:0:0:0:
432,48,95526,6,0,L|436:108,1,40,4|0,0:0|0:0,0:0:0:0:
471,158,95676,2,0,L|468:197,1,40,2|0,0:0|0:0,0:0:0:0:
424,288,95826,1,0,0:0:0:0:
424,288,95976,1,2,0:0:0:0:
232,172,96126,6,0,P|304:141|380:163,1,160,4|8,0:0|0:0,0:0:0:0:
252,264,96576,1,0,0:0:0:0:
152,160,96726,2,0,L|155:239,1,80
216,92,97026,1,8,0:0:0:0:
54,164,97176,6,0,P|44:242|74:315,1,160
234,246,97626,2,0,P|194:238|154:239,1,80,8|0,0:0|0:0,0:0:0:0:
280,336,97926,2,0,P|339:339|394:315,1,120,0|0,0:0|0:0,0:0:0:0:
424,288,98226,2,2,L|428:128,1,160,8|0,0:0|0:0,0:0:0:0:
432,48,98676,5,0,0:0:0:0:
340,200,98826,2,0,L|342:121,1,80,8|0,0:0|0:0,0:0:0:0:
256,40,99126,1,0,0:0:0:0:
152,160,99276,1,0,0:0:0:0:
171,161,99351,1,0,0:0:0:0:
191,162,99426,1,8,0:0:0:0:
140,296,99576,1,0,0:0:0:0:
211,163,99726,6,0,P|215:124|211:84,1,80
88,186,100026,2,0,P|83:225|87:265,1,80,8|0,0:0|0:0,0:0:0:0:
152,132,100326,1,0,0:0:0:0:
12,240,100476,1,8,0:0:0:0:
48,84,100626,1,8,0:0:0:0:
168,232,100776,1,0,0:0:0:0:
168,232,100851,1,0,0:0:0:0:
168,232,100926,6,0,P|222:252|274:226,1,120,4|0,0:0|0:0,0:0:0:0:
296,192,101226,2,0,L|299:272,1,80,8|0,0:0|0:0,0:0:0:0:
380,136,101526,2,0,L|383:216,1,80
480,68,101826,1,8,0:0:0:0:
480,68,101976,6,0,B|426:65|426:65|372:51|372:51|323:50,1,160,0|0,0:3|0:3,0:3:0:0:
196,120,102426,2,0,P|235:125|274:117,1,80,8|0,0:0|0:0,0:0:0:0:
140,32,102726,2,0,P|81:25|24:41,1,120
12,80,103026,2,2,L|16:240,1,160,8|0,0:0|0:0,0:0:0:0:
20,320,103476,5,0,0:0:0:0:
101,163,103626,2,0,L|103:242,1,80,8|0,0:0|0:0,0:0:0:0:
177,338,103926,1,0,0:0:0:0:
267,205,104076,1,0,0:0:0:0:
248,209,104151,1,0,0:0:0:0:
228,213,104226,1,8,0:0:0:0:
300,336,104376,1,0,0:0:0:0:
210,217,104526,6,0,P|206:178|210:138,1,80
348,56,104826,2,0,P|353:95|348:135,1,80,8|0,0:0|0:0,0:0:0:0:
300,200,105126,2,0,L|308:240,2,40
272,84,105426,1,8,0:0:0:0:
220,236,105576,1,0,0:0:0:0:
201,240,105651,1,0,0:0:0:0:
182,244,105726,6,0,P|105:249|36:209,1,160,4|8,0:0|0:0,0:0:0:0:
8,132,106176,1,0,0:0:0:0:
124,32,106326,2,0,L|122:111,1,80
220,236,106626,1,8,0:0:0:0:
220,236,106776,6,0,L|212:76,1,160
368,40,107226,2,0,P|331:25|291:27,1,80,8|0,0:0|0:0,0:0:0:0:
344,160,107526,2,0,P|402:157|448:119,1,120
468,84,107826,2,2,L|476:244,1,160,8|4,0:0|0:0,0:0:0:0:
480,324,108276,5,0,0:0:0:0:
388,176,108426,2,0,L|391:255,1,80,8|0,0:0|0:0,0:0:0:0:
312,348,108726,1,0,0:0:0:0:
216,220,108876,1,0,0:0:0:0:
235,224,108951,1,0,0:0:0:0:
255,228,109026,1,8,0:0:0:0:
148,324,109176,1,0,0:0:0:0:
280,232,109326,6,0,L|276:152,1,80
136,80,109626,2,0,L|139:159,1,80,8|0,0:0|0:0,0:0:0:0:
236,32,109926,1,0,0:0:0:0:
60,112,110076,1,8,0:0:0:0:
184,188,110226,1,8,0:0:0:0:
136,36,110376,1,0,0:0:0:0:
56,192,110526,6,0,P|41:269|68:344,1,160,4|8,0:0|0:0,0:0:0:0:
224,296,110976,1,0,0:0:0:0:
224,296,111126,2,0,L|144:299,1,80
288,372,111426,1,8,0:0:0:0:
288,372,111576,6,0,P|365:373|414:314,1,160
440,236,112026,2,0,L|436:156,1,80,8|0,0:0|0:0,0:0:0:0:
328,36,112326,2,0,L|320:155,1,120
291,184,112626,2,2,P|215:198|149:156,1,160,8|4,0:0|0:0,0:0:0:0:
116,84,113076,5,0,0:0:0:0:
68,236,113226,1,8,0:0:0:0:
36,120,113376,1,0,0:0:0:0:
16,312,113526,1,8,0:0:0:0:
33,321,113601,1,0,0:0:0:0:
52,326,113676,1,8,0:0:0:0:
72,327,113751,1,8,0:0:0:0:
92,323,113826,1,8,0:0:0:0:
110,315,113901,1,0,0:0:0:0:
126,303,113976,1,8,0:0:0:0:
139,288,114051,1,0,0:0:0:0:
148,269,114126,6,0,P|187:263|225:272,1,80,8|0,0:0|0:0,0:0:0:0:
368,348,114426,2,0,P|328:354|290:345,1,80,8|0,0:0|0:0,0:0:0:0:
440,236,114726,5,0,0:0:0:0:
441,255,114801,1,0,0:0:0:0:
442,275,114876,1,8,0:0:0:0:
443,295,114951,1,0,0:0:0:0:
444,315,115026,1,8,0:0:0:0:
310,264,115176,1,0,0:0:0:0:
432,136,115326,5,4,0:0:0:0:
438,215,115476,1,0,0:0:0:0:
367,179,115626,2,0,P|355:142|361:102,1,80,8|0,0:0|0:0,0:0:0:0:
437,215,115926,2,0,P|375:258|304:229,1,160,0|8,0:0|0:0,0:0:0:0:
196,144,116376,1,0,0:0:0:0:
196,144,116451,1,0,0:0:0:0:
196,144,116526,6,0,P|233:132|273:138,1,80
128,208,116826,1,8,0:0:0:0:
119,128,116976,1,0,0:0:0:0:
218,231,117126,1,0,0:0:0:0:
78,267,117276,1,8,0:0:0:0:
196,144,117426,1,8,0:0:0:0:
154,281,117576,1,0,0:0:0:0:
52,177,117726,6,0,P|38:141|42:101,1,80,0|2,0:0|0:0,0:0:0:0:
65,68,117951,1,0,0:0:0:0:
65,68,118026,2,0,L|151:72,1,80,2|0,0:0|0:0,0:0:0:0:
186,220,118326,6,0,P|181:180|195:143,1,80,0|2,0:0|0:0,0:0:0:0:
258,192,118551,1,0,0:0:0:0:
258,192,118626,1,2,0:0:0:0:
211,302,118776,1,0,0:0:0:0:
365,258,118926,6,0,L|284:279,1,80,2|0,0:0|0:0,0:0:0:0:
458,320,119226,2,0,L|377:341,1,80,2|0,0:0|0:0,0:0:0:0:
464,233,119526,6,0,L|466:178,1,40,2|0,0:0|0:0,0:0:0:0:
469,112,119676,1,2,0:0:0:0:
328,32,119826,1,0,0:0:0:0:
328,32,119976,2,0,L|336:80,1,40,2|0,0:0|0:0,0:0:0:0:
308,148,120126,6,0,P|271:163|232:159,1,80,4|0,0:0|0:0,0:0:0:0:
185,93,120426,2,0,P|222:78|261:82,1,80,8|0,0:0|0:0,0:0:0:0:
152,164,120726,2,0,P|108:100|139:30,1,160,0|8,0:0|0:0,0:0:0:0:
231,158,121176,6,0,B|220:288|220:288|192:244,1,160
308,148,121626,2,0,L|324:232,1,80,8|0,0:0|0:0,0:0:0:0:
340,304,121926,1,0,0:0:0:0:
204,263,122076,1,8,0:0:0:0:
308,148,122226,1,8,0:0:0:0:
404,244,122376,1,0,0:0:0:0:
276,364,122526,6,0,L|184:360,1,80,0|2,0:0|0:0,0:0:0:0:
164,336,122751,2,0,L|112:340,1,40,0|2,0:0|0:0,0:0:0:0:
44,352,122976,1,0,0:0:0:0:
204,263,123126,6,0,L|296:267,1,80,0|2,0:0|0:0,0:0:0:0:
316,291,123351,2,0,L|368:287,1,40,0|2,0:0|0:0,0:0:0:0:
436,275,123576,1,0,0:0:0:0:
308,148,123726,5,4,0:0:0:0:
308,148,124026,1,4,0:0:0:0:
164,336,124326,5,0,0:0:0:0:
72,256,124476,1,8,0:0:0:0:
152,164,124626,1,0,0:0:0:0:
244,244,124776,1,8,0:0:0:0:
72,348,124926,5,4,0:0:0:0:
256,192,125001,12,0,129426,0:0:0:0:
77,231,129576,5,0,0:0:0:0:
77,231,129651,1,0,0:0:0:0:
77,231,129726,6,0,B|85:113|85:113|111:145,1,160,4|8,0:0|0:0,0:0:0:0:
233,203,130176,1,0,0:0:0:0:
233,203,130326,2,0,P|185:215|145:207,1,80
261,123,130626,2,0,P|300:119|338:130,1,80,8|0,0:0|0:0,0:0:0:0:
405,175,130851,1,0,0:0:0:0:
405,175,130926,5,4,0:0:0:0:
337,291,131076,2,0,L|333:211,1,80,0|8,0:0|0:0,0:0:0:0:
237,283,131376,1,0,0:0:0:0:
237,283,131451,1,0,0:0:0:0:
237,283,131526,2,0,L|233:203,1,80,0|8,0:0|0:0,0:0:0:0:
280,354,131826,2,0,P|241:364|202:357,1,80,8|0,0:0|0:0,0:0:0:0:
76,231,132126,6,0,P|63:268|67:308,1,80,4|0,0:0|0:0,0:0:0:0:
140,164,132426,2,0,P|147:203|170:235,1,80,8|0,0:0|0:0,0:0:0:0:
200,104,132726,2,0,P|128:80|60:140,1,160,4|8,0:0|0:0,0:0:0:0:
232,180,133176,1,0,0:0:0:0:
232,180,133251,1,0,0:0:0:0:
232,180,133326,5,4,0:0:0:0:
232,180,133626,1,4,0:0:0:0:
76,231,133926,1,0,0:0:0:0:
76,231,134076,1,8,0:0:0:0:
76,231,134226,1,0,0:0:0:0:
76,231,134376,1,8,0:0:0:0:
16,128,134526,6,0,P|92:112|168:152,1,160,4|8,0:0|0:0,0:0:0:0:
196,220,134976,1,0,0:0:0:0:
260,100,135126,2,0,L|266:179,1,80
320,28,135426,1,8,0:0:0:0:
484,116,135576,6,0,P|410:139|339:106,1,160
244,9,136026,2,0,P|284:10|319:27,1,80,8|0,0:0|0:0,0:0:0:0:
266,179,136326,2,0,L|260:100,1,80,0|8,0:0|3:0,0:0:0:0:
202,307,136626,2,0,L|196:228,1,80,8|8,0:0|3:0,0:0:0:0:
100,80,136926,6,0,P|92:119|93:158,1,80,4|0,0:0|0:0,0:0:0:0:
195,227,137226,2,0,P|196:187|188:148,1,80,8|0,0:0|0:0,0:0:0:0:
88,276,137526,1,0,0:0:0:0:
208,344,137676,1,0,0:0:0:0:
208,344,137751,1,0,0:0:0:0:
208,344,137826,2,0,L|287:338,1,80,8|0,0:0|0:0,0:0:0:0:
448,268,138126,6,0,L|369:262,1,80
488,184,138426,2,0,L|409:178,1,80,8|0,0:0|0:0,0:0:0:0:
280,56,138726,2,0,B|276:104|276:104|284:164|284:164|280:216,1,160,0|8,0:0|0:0,0:0:0:0:
276,296,139176,1,8,0:0:0:0:
188,144,139326,6,0,L|176:303,1,160,4|8,0:0|0:0,0:0:0:0:
76,372,139776,1,0,0:0:0:0:
12,252,139926,2,0,P|46:233|86:230,1,80
276,296,140226,2,0,P|236:293|201:274,1,80,8|0,0:0|0:0,0:0:0:0:
164,204,140451,1,0,0:0:0:0:
164,204,140526,6,0,L|167:164,3,40,8|0|0|0,0:0|0:0|0:0|0:0,0:0:0:0:
224,108,140826,2,0,L|220:68,3,40,8|0|0|0,0:0|0:0|0:0|0:0,0:0:0:0:
295,135,141126,2,0,L|291:174,3,40,8|0|0|0,0:0|0:0|0:0|0:0,0:0:0:0:
363,105,141426,2,0,L|359:65,3,40,8|0|0|0,0:0|0:0|0:0|0:0,0:0:0:0:
431,135,141726,5,8,0:0:0:0:
431,155,141801,1,0,0:0:0:0:
430,175,141876,1,8,0:0:0:0:
430,195,141951,1,0,0:0:0:0:
429,215,142026,1,8,0:0:0:0:
429,235,142101,1,0,0:0:0:0:
428,255,142176,1,8,0:0:0:0:
428,275,142251,1,0,0:0:0:0:
427,295,142326,5,8,0:0:0:0:
410,331,142401,1,0,0:0:0:0:
380,356,142476,1,8,0:0:0:0:
341,366,142551,1,8,0:0:0:0:
306,348,142626,1,8,0:0:0:0:
270,330,142701,1,0,0:0:0:0:
231,330,142776,1,8,0:0:0:0:
195,347,142851,1,0,0:0:0:0:
169,378,142926,6,0,L|85:368,1,80,8|0,0:0|0:0,0:0:0:0:
24,320,143151,1,0,0:0:0:0:
24,320,143226,2,0,L|29:240,1,80,8|0,0:0|0:0,0:0:0:0:
76,174,143451,1,0,0:0:0:0:
76,174,143526,2,0,L|70:94,1,80,8|0,0:0|0:0,0:0:0:0:
108,23,143751,1,0,0:0:0:0:
108,23,143826,2,0,L|155:30,1,40,8|0,0:0|0:0,0:0:0:0:
208,80,143976,2,0,P|227:78|247:74,1,40,8|0,0:0|0:0,0:0:0:0:
320,40,144126,6,0,P|396:28|459:74,1,160,4|8,0:0|0:0,0:0:0:0:
492,148,144576,1,0,0:0:0:0:
387,247,144726,2,0,P|374:210|372:170,1,80
444,332,145026,1,8,0:0:0:0:
444,332,145176,6,0,B|390:329|390:329|336:315|336:315|287:314,1,160,0|0,0:3|0:3,0:3:0:0:
188,208,145626,2,0,P|226:200|266:205,1,80,8|0,0:0|0:0,0:0:0:0:
156,320,145926,1,0,0:0:0:0:
48,180,146076,1,8,0:0:0:0:
64,300,146226,1,8,0:0:0:0:
116,104,146376,1,0,0:0:0:0:
164,240,146526,6,0,P|203:243|241:232,1,80,4|0,0:0|0:0,0:0:0:0:
371,168,146826,2,0,P|332:163|294:174,1,80,8|0,0:0|0:0,0:0:0:0:
288,312,147126,1,0,0:0:0:0:
188,208,147276,1,0,0:0:0:0:
184,227,147351,1,0,0:0:0:0:
181,247,147426,1,8,0:0:0:0:
256,108,147576,1,0,0:0:0:0:
179,266,147726,6,0,L|182:349,1,80
80,221,148026,2,0,L|83:304,1,80,8|0,0:0|0:0,0:0:0:0:
2,181,148326,1,0,0:0:0:0:
143,77,148476,2,0,L|103:83,1,40,8|0,0:0|0:0,0:0:0:0:
24,97,148626,1,8,0:0:0:0:
80,221,148776,1,0,0:0:0:0:
80,221,148926,6,0,L|237:190,1,160,4|8,0:0|0:0,0:0:0:0:
316,172,149376,1,0,0:0:0:0:
367,36,149526,2,0,L|374:115,1,80
464,248,149826,2,0,P|476:210|475:170,1,80,8|0,0:0|0:0,0:0:0:0:
372,292,150126,6,0,P|296:272|220:294,1,160,4|8,0:0|0:0,0:0:0:0:
76,360,150576,1,0,0:0:0:0:
76,360,150726,2,0,P|115:365|153:354,1,80
223,207,151026,2,2,P|168:187|110:198,1,120,0|0,0:0|0:0,0:0:0:0:
76,220,151326,6,0,L|68:140,1,80,4|0,0:0|0:0,0:0:0:0:
180,24,151626,2,0,L|172:103,1,80,8|0,0:0|0:0,0:0:0:0:
156,224,151926,1,0,0:0:0:0:
324,176,152076,1,0,0:0:0:0:
304,172,152151,1,0,0:0:0:0:
284,170,152226,1,8,0:0:0:0:
344,272,152376,1,0,0:0:0:0:
255,167,152526,6,0,P|255:128|264:88,1,80,8|0,0:0|0:0,0:0:0:0:
380,200,152826,2,0,P|380:239|371:279,1,80,8|0,0:0|0:0,0:0:0:0:
228,348,153126,2,0,L|307:344,1,80,8|0,0:0|0:0,0:0:0:0:
156,260,153426,2,0,L|235:256,1,80,8|0,0:0|0:0,0:0:0:0:
68,348,153726,6,0,P|40:268|72:164,1,191.999994140625,4|8,0:0|0:0,0:0:0:0:
216,44,154176,1,0,0:0:0:0:
151,195,154326,2,0,P|143:148|151:101,1,95.9999970703126
256,236,154626,1,8,0:0:0:0:
416,132,154776,6,0,B|360:136|360:136|284:128|284:128|224:132,1,191.999994140625
368,232,155226,2,0,L|462:217,1,95.9999970703126,8|0,0:0|0:0,0:0:0:0:
358,24,155526,2,0,L|215:44,1,143.999995605469,0|0,0:0|0:0,0:0:0:0:
167,60,155826,2,2,P|147:150|204:224,1,191.999994140625,0|4,0:0|0:0,0:0:0:0:
296,252,156276,5,0,0:0:0:0:
228,132,156426,2,0,L|133:149,1,95.9999970703126,8|0,0:0|0:0,0:0:0:0:
296,252,156726,1,0,0:0:0:0:
420,84,156876,1,0,0:0:0:0:
418,107,156951,1,0,0:0:0:0:
416,131,157026,1,8,0:0:0:0:
312,30,157176,1,0,0:0:0:0:
413,157,157326,6,0,L|406:253,1,95.9999970703126
318,125,157626,2,0,L|311:29,1,95.9999970703126,8|0,0:0|0:0,0:0:0:0:
485,221,157926,1,0,0:0:0:0:
318,125,158076,6,0,L|270:118,1,47.9999985351563,8|0,0:0|0:0,0:0:0:0:
217,38,158226,2,0,L|169:44,1,47.9999985351563,8|0,0:0|0:0,0:0:0:0:
96,108,158376,1,0,0:0:0:0:
96,108,158526,6,0,P|68:188|100:292,1,191.999994140625,4|8,0:0|0:0,0:0:0:0:
216,372,158976,1,0,0:0:0:0:
316,244,159126,2,0,L|309:340,1,95.9999970703126
260,176,159426,1,8,0:0:0:0:
408,88,159576,6,0,B|352:80|352:80|276:96|276:96|218:89,1,191.999994140625
84,180,160026,2,0,P|131:183|176:166,1,95.9999970703126,8|0,0:0|0:0,0:0:0:0:
28,76,160326,1,0,0:0:0:0:
132,260,160476,1,8,0:0:0:0:
120,88,160626,1,8,0:0:0:0:
40,284,160776,1,0,0:0:0:0:
44,308,160851,1,0,0:0:0:0:
48,332,160926,6,4,P|92:348|140:346,1,95.9999970703126,0|0,0:0|0:0,0:0:0:0:
300,256,161226,2,0,P|256:240|208:242,1,95.9999970703126,8|0,0:0|0:0,0:0:0:0:
348,344,161526,2,0,P|395:346|440:330,1,95.9999970703126
484,244,161751,1,0,0:0:0:0:
484,244,161826,2,0,L|472:148,1,95.9999970703126,8|0,0:0|0:0,0:0:0:0:
460,52,162126,5,4,0:0:0:0:
296,104,162276,1,0,0:0:0:0:
392,116,162426,1,4,0:0:0:0:
220,28,162576,2,0,P|196:26|172:30,1,47.9999985351563
82,62,162726,5,0,0:0:0:0:
82,85,162801,1,0,0:0:0:0:
83,109,162876,1,8,0:0:0:0:
84,133,162951,1,0,0:0:0:0:
94,154,163026,5,8,0:0:0:0:
117,195,163101,1,0,0:0:0:0:
118,242,163176,1,0,0:0:0:0:
96,284,163251,1,0,0:0:0:0:
57,312,163326,6,0,B|117:308|117:308|193:316|193:316|249:312,1,191.999994140625,4|8,0:0|0:0,0:0:0:0:
317,245,163776,1,0,0:0:0:0:
197,94,163926,2,0,L|200:189,1,95.9999970703126
150,345,164226,1,8,0:0:0:0:
317,245,164376,2,0,L|320:340,1,95.9999970703126
200,189,164676,1,0,0:0:0:0:
286,50,164826,2,0,L|381:57,1,95.9999970703126,8|0,0:0|0:0,0:0:0:0:
218,138,165126,2,0,L|313:145,1,95.9999970703126
145,51,165426,2,2,P|107:124|116:186,1,143.999995605469,8|0,0:0|0:0,0:0:0:0:
154,209,165726,6,0,B|157:248|149:304,1,95.9999970703126
32,208,166026,2,0,B|20:151|22:112,1,95.9999970703126,8|0,0:0|0:0,0:0:0:0:
154,209,166326,1,0,0:0:0:0:
99,44,166476,1,0,0:0:0:0:
122,47,166551,1,0,0:0:0:0:
146,51,166626,1,8,0:0:0:0:
32,208,166776,1,0,0:0:0:0:
170,55,166926,6,0,L|270:51,1,95.9999970703126
120,148,167226,2,0,L|215:144,1,95.9999970703126,8|0,0:0|0:0,0:0:0:0:
32,208,167526,1,0,0:0:0:0:
140,300,167676,1,8,0:0:0:0:
136,276,167751,1,0,0:0:0:0:
133,252,167826,1,8,0:0:0:0:
36,360,167976,1,0,0:0:0:0:
132,227,168126,6,0,P|216:187|302:223,1,191.999994140625,4|8,0:0|0:0,0:0:0:0:
452,312,168576,1,0,0:0:0:0:
452,312,168726,2,0,P|405:320|358:308,1,95.9999970703126
416,124,169026,1,8,0:0:0:0:
416,124,169176,2,0,L|412:232,1,95.9999970703126,0|4,0:0|0:0,0:0:0:0:
296,44,169476,5,0,0:0:0:0:
296,44,169626,2,0,L|300:152,1,95.9999970703126,8|0,0:0|0:0,0:0:0:0:
216,292,169926,2,0,P|211:244|221:197,1,95.9999970703126
299,139,170151,1,0,0:0:0:0:
299,139,170226,2,2,L|490:155,1,191.999994140625,0|4,0:0|0:0,0:0:0:0:
358,308,170676,5,0,0:0:0:0:
372,68,170826,1,8,0:0:0:0:
292,264,170976,1,8,0:0:0:0:
477,215,171126,1,0,0:0:0:0:
299,139,171276,1,8,0:0:0:0:
299,139,171351,1,0,0:0:0:0:
299,139,171426,2,0,P|248:128|204:144,1,95.9999970703126,8|0,0:0|0:0,0:0:0:0:
124,294,171726,6,0,P|170:305|215:291,1,95.9999970703126,12|0,0:0|0:0,0:0:0:0:
92,116,172026,2,0,L|88:224,1,95.9999970703126,12|0,0:0|0:0,0:0:0:0:
184,68,172326,2,0,L|180:163,1,95.9999970703126,12|0,0:0|0:0,0:0:0:0:
256,224,172551,1,0,0:0:0:0:
256,224,172626,2,0,L|304:220,1,47.9999985351563,8|0,0:0|0:0,0:0:0:0:
388,172,172776,1,8,0:0:0:0:
410,175,172851,1,0,0:0:0:0:
434,179,172926,5,6,0:0:0:0:
312,328,173076,1,0,0:0:0:0:
312,328,173226,2,0,L|408:320,1,95.9999970703126,0|2,0:0|0:0,0:0:0:0:
216,300,173526,2,0,L|312:308,1,95.9999970703126,0|2,0:0|0:0,0:0:0:0:
120,332,173826,2,0,L|216:324,1,95.9999970703126,2|0,0:0|0:0,0:0:0:0:
40,244,174126,6,2,L|231:229,1,191.999994140625,0|2,0:0|0:0,0:0:0:0:
324,220,174576,1,0,0:0:0:0:
376,56,174726,2,0,P|390:101|389:149,1,95.9999970703126
324,220,174951,1,0,0:0:0:0:
324,220,175026,2,2,P|413:242|480:179,1,191.999994140625,2|6,0:0|0:0,0:0:0:0:
340,36,175476,5,0,0:0:0:0:
340,36,175626,2,0,L|436:44,1,95.9999970703126,0|2,0:0|0:0,0:0:0:0:
244,68,175926,2,0,L|340:60,1,95.9999970703126,0|2,0:0|0:0,0:0:0:0:
148,36,176226,2,0,L|244:44,1,95.9999970703126,2|0,0:0|0:0,0:0:0:0:
68,124,176526,6,2,L|259:139,1,191.999994140625,0|2,0:0|0:0,0:0:0:0:
356,148,176976,1,0,0:0:0:0:
408,312,177126,2,0,P|422:267|422:219,1,95.9999970703126
356,148,177351,1,0,0:0:0:0:
356,147,177426,2,2,P|445:125|511:188,1,191.999994140625,2|6,0:0|0:0,0:0:0:0:
408,312,177876,5,0,0:0:0:0:
232,232,178026,2,0,L|332:240,1,95.9999970703126,0|2,0:0|0:0,0:0:0:0:
252,364,178326,1,0,0:0:0:0:
327,239,178476,1,2,0:0:0:0:
163,295,178626,2,0,P|147:251|148:203,1,95.9999970703126,2|0,0:0|0:0,0:0:0:0:
234,51,178926,6,2,P|261:142|232:232,1,191.999994140625,0|2,0:0|0:0,0:0:0:0:
80,116,179376,1,0,0:0:0:0:
80,116,179451,1,0,0:0:0:0:
80,116,179526,2,0,L|176:120,1,95.9999970703126
328,240,179826,2,2,L|136:229,1,191.999994140625,0|6,0:0|0:0,0:0:0:0:
56,76,180276,5,0,0:0:0:0:
232,156,180426,2,0,L|132:148,1,95.9999970703126,0|2,0:0|0:0,0:0:0:0:
212,24,180726,1,0,0:0:0:0:
137,149,180876,1,2,0:0:0:0:
301,93,181026,2,0,P|317:137|316:185,1,95.9999970703126,2|0,0:0|0:0,0:0:0:0:
230,337,181326,6,2,P|203:246|232:156,1,191.999994140625,0|2,0:0|0:0,0:0:0:0:
384,272,181776,1,0,0:0:0:0:
384,272,181851,1,0,0:0:0:0:
384,272,181926,2,0,L|288:268,1,95.9999970703126
136,149,182226,2,2,L|288:156,1,143.999995605469,2|0,0:0|0:0,0:0:0:0:
376,164,182526,5,6,0:0:0:0:
376,164,182676,1,0,0:0:0:0:
488,32,182826,1,0,0:0:0:0:
480,128,182976,1,2,0:0:0:0:
384,260,183126,5,0,0:0:0:0:
376,164,183276,1,2,0:0:0:0:
464,312,183426,1,2,0:0:0:0:
300,212,183576,1,0,0:0:0:0:
300,212,183651,1,0,0:0:0:0:
300,212,183726,6,0,L|303:308,1,95.9999970703126,2|0,0:0|0:0,0:0:0:0:
200,144,184026,2,0,L|203:240,1,95.9999970703126,0|2,0:0|0:0,0:0:0:0:
208,336,184251,1,0,0:0:0:0:
208,336,184326,1,0,0:0:0:0:
100,240,184476,1,0,0:0:0:0:
244,70,184626,2,2,P|174:63|124:112,1,143.999995605469
124,112,184926,5,6,0:0:0:0:
124,112,185076,1,0,0:0:0:0:
8,240,185226,1,0,0:0:0:0:
16,144,185376,1,2,0:0:0:0:
108,336,185526,5,0,0:0:0:0:
100,240,185676,1,2,0:0:0:0:
0,344,185826,1,2,0:0:0:0:
93,154,185976,1,0,0:0:0:0:
93,154,186051,1,0,0:0:0:0:
93,154,186126,6,2,B|149:146|149:146|225:162|225:162|282:156,1,191.999994140625
380,144,186576,1,0,0:0:0:0:
464,280,186726,2,0,L|468:184,1,95.9999970703126
376,48,187026,2,0,L|380:144,1,95.9999970703126,2|0,0:0|0:0,0:0:0:0:
384,240,187251,1,0,0:0:0:0:
384,240,187326,5,6,0:0:0:0:
256,324,187476,1,0,0:0:0:0:
280,156,187626,1,0,0:0:0:0:
340,320,187776,1,2,0:0:0:0:
228,228,187926,5,0,0:0:0:0:
188,364,188076,1,2,0:0:0:0:
132,160,188226,1,2,0:0:0:0:
148,256,188376,1,0,0:0:0:0:
148,256,188451,1,0,0:0:0:0:
148,256,188526,6,0,L|52:248,1,95.9999970703126,2|0,0:0|0:0,0:0:0:0:
227,167,188826,2,0,L|131:159,1,95.9999970703126,0|2,0:0|0:0,0:0:0:0:
36,148,189051,1,0,0:0:0:0:
36,148,189126,1,0,0:0:0:0:
116,28,189276,1,0,0:0:0:0:
224,124,189426,2,2,P|284:160|354:151,1,143.999995605469,2|0,0:0|0:0,0:0:0:0:
354,150,189726,5,6,0:0:0:0:
354,150,189876,1,0,0:0:0:0:
484,36,190026,1,0,0:0:0:0:
452,204,190176,1,2,0:0:0:0:
432,112,190326,5,4,0:0:0:0:
476,288,190476,1,0,0:0:0:0:
312,340,190626,1,2,0:0:0:0:
452,368,190776,1,2,0:0:0:0:
336,240,190926,6,2,P|249:208|175:264,1,191.999994140625,0|0,0:0|0:0,0:0:0:0:
353,149,191376,2,2,P|262:125|170:151,1,191.999994140625,0|0,0:0|0:0,0:0:0:0:
353,148,191826,2,8,P|361:101|357:54,1,95.9999970703126
176,264,192651,5,4,0:0:0:0:
256,192,192726,12,0,196926,0:0:0:0:
