osu file format v14

[General]
AudioFilename: -------------.mp3
AudioLeadIn: 1500
PreviewTime: 96126
Countdown: 0
SampleSet: Normal
StackLeniency: 0.3
Mode: 0
LetterboxInBreaks: 0
WidescreenStoryboard: 1

[Editor]
Bookmarks: 99920
DistanceSpacing: 1
BeatDivisor: 4
GridSize: 4
TimelineZoom: 1.2

[Metadata]
Title:Saishoukichiku Imouto Flandre S
TitleUnicode:最終鬼畜妹フランドール・S
Artist:COOL&CREATE
ArtistUnicode:COOL&CREATE
Creator:UnLock-
Version:Doyak's Normal
Source:東方Project
Tags:Sonnyc Left Doyak bbj0920 Hello- Karia TH06 東方紅魔郷_~_the_Embodiment_of_Scarlet_Devil U.N.Owen_was_Her?_Remix Flandre_Scarlet
BeatmapID:875578
BeatmapSetID:264977

[Difficulty]
HPDrainRate:4
CircleSize:3.5
OverallDifficulty:4
ApproachRate:5
SliderMultiplier:1
SliderTickRate:1

[Events]
//Background and Video events
0,0,"BG.jpg",0,0
//Break Periods
2,77126,85326
2,115526,123726
//Storyboard Layer 0 (Background)
//Storyboard Layer 1 (Fail)
//Storyboard Layer 2 (Pass)
//Storyboard Layer 3 (Foreground)
//Storyboard Sound Samples

[TimingPoints]
126,300,4,1,0,40,1,0
4926,-100,4,1,0,50,0,0
8526,-100,4,1,0,60,0,0
38526,-100,4,1,0,60,0,1
48126,-100,4,1,0,75,0,1
57726,-100,4,1,0,60,0,0
96126,-100,4,1,0,75,0,1
115326,-100,4,1,0,75,0,0
124926,-100,4,1,0,40,0,0
129726,-100,4,1,0,50,0,0
132126,-100,4,1,0,60,0,0
144126,-100,4,1,0,75,0,1
152526,-100,4,1,0,70,0,0
153726,-100,4,1,0,85,0,1
171726,-100,4,1,0,70,0,0
172926,-100,4,1,0,60,0,0
193326,-100,4,1,0,50,0,0
194526,-100,4,1,0,35,0,0
195726,-100,4,1,0,20,0,0
196926,-100,4,1,0,5,0,0

[Colours]
Combo1 : 255,255,0
Combo2 : 255,111,111
Combo3 : 47,151,255
Combo4 : 128,255,128

[HitObjects]
256,192,126,5,0,0:0:0:0:
256,192,276,12,0,2526,0:0:0:0:
256,141,4626,6,0,L|256:251,1,100
256,192,5076,12,0,7326,0:0:0:0:
334,130,8526,6,0,P|424:129|384:188,1,200
294,365,9726,6,0,L|194:351,1,100,4|0,0:0|0:0,0:0:0:0:
97,374,10326,2,0,P|98:327|126:278,1,100
152,240,10776,2,0,P|176:196|177:147,1,100
166,98,11226,1,0,0:0:0:0:
80,45,11526,1,0,0:0:0:0:
19,124,11826,1,0,0:0:0:0:
59,215,12126,6,0,L|40:269,2,50
150,174,12726,2,0,L|131:120,2,50
182,268,13326,2,0,L|163:322,2,50
273,227,13926,2,0,L|254:173,2,50
311,319,14526,6,0,P|354:294|403:293,1,100,4|0,0:0|0:0,0:0:0:0:
493,338,15126,1,0,0:0:0:0:
487,238,15426,1,0,0:0:0:0:
415,168,15726,2,0,P|390:124|389:75,1,100,4|0,0:0|0:0,0:0:0:0:
456,1,16326,1,0,0:0:0:0:
486,97,16626,1,0,0:0:0:0:
415,168,16926,6,0,L|302:188,1,100,4|0,0:0|0:0,0:0:0:0:
277,277,17526,2,0,P|231:288|176:273,1,100,4|0,0:0|0:0,0:0:0:0:
155,232,17976,2,0,P|106:219|58:231,1,100,4|4,0:0|0:0,0:0:0:0:
22,265,18426,1,4,0:0:0:0:
106,319,18726,1,4,0:0:0:0:
155,232,19026,1,0,0:0:0:0:
177,134,19326,6,0,P|175:84|151:41,1,100,4|8,0:0|0:0,0:0:0:0:
55,69,19926,2,0,P|56:118|80:161,1,100,0|8,0:0|0:0,0:0:0:0:
128,175,20376,2,0,P|177:176|220:200,1,100
252,239,20826,1,8,0:0:0:0:
348,265,21126,2,0,L|367:166,1,100,0|8,0:0|0:0,0:0:0:0:
402,72,21726,6,0,L|424:17,2,50,0|0|8,0:0|0:0|0:0,0:0:0:0:
308,36,22326,2,0,L|253:14,2,50,0|0|8,0:0|0:0|0:0,0:0:0:0:
272,130,22926,2,0,L|253:176,2,50,0|0|8,0:0|0:0|0:0,0:0:0:0:
366,166,23526,2,0,L|421:188,2,50,0|0|8,0:0|0:0|0:0,0:0:0:0:
317,253,24126,6,0,P|272:274|223:272,1,100,0|8,0:0|0:0,0:0:0:0:
176,361,24726,2,0,L|69:346,1,100,0|8,0:0|0:0,0:0:0:0:
43,309,25176,2,0,P|21:264|23:215,1,100
42,168,25626,1,8,0:0:0:0:
108,93,25926,1,0,0:0:0:0:
139,187,26226,1,8,0:0:0:0:
211,256,26526,6,0,L|266:256,2,50,0|0|8,0:0|0:0|0:0,0:0:0:0:
235,159,27126,2,0,L|290:159,2,50,0|0|8,0:0|0:0|0:0,0:0:0:0:
139,187,27726,2,0,L|89:187,2,50,0|0|8,0:0|0:0|0:0,0:0:0:0:
163,90,28326,2,0,L|113:90,2,50,0|0|8,0:0|0:0|0:0,0:0:0:0:
243,30,28926,6,0,P|292:28|336:50,1,100,0|8,0:0|0:0,0:0:0:0:
271,125,29526,2,0,P|315:146|364:145,1,100,0|8,0:0|0:0,0:0:0:0:
461,171,30126,2,0,L|478:276,1,100,0|8,0:0|0:0,0:0:0:0:
406,340,30726,2,0,L|390:241,1,100,0|8,0:0|0:0,0:0:0:0:
327,163,31326,6,0,L|327:108,2,50,0|0|8,0:0|0:0|0:0,0:0:0:0:
261,238,31926,2,0,L|261:288,2,50,0|0|8,0:0|0:0|0:0,0:0:0:0:
193,163,32526,2,0,L|193:108,2,50,0|0|8,0:0|0:0|0:0,0:0:0:0:
127,238,33126,2,0,L|127:288,2,50,0|0|8,0:0|0:0|0:0,0:0:0:0:
193,163,33726,6,0,P|241:174|278:206,1,100,0|8,0:0|0:0,0:0:0:0:
321,296,34326,2,0,L|426:269,1,100,0|8,0:0|0:0,0:0:0:0:
465,255,34776,2,0,P|479:207|469:159,1,100
448,113,35226,1,8,0:0:0:0:
363,60,35526,2,0,P|348:107|358:155,1,100,0|8,0:0|0:0,0:0:0:0:
398,247,36126,6,0,L|398:302,2,50,0|0|8,0:0|0:0|0:0,0:0:0:0:
315,302,36726,2,0,L|315:357,2,50,0|0|8,0:0|0:0|0:0,0:0:0:0:
232,247,37326,2,0,L|232:302,2,50,0|0|8,0:0|0:0|0:0,0:0:0:0:
138,212,37926,2,0,L|66:212,1,50
220,142,38526,6,0,P|267:130|315:143,1,100,4|0,0:0|0:0,0:0:0:0:
407,184,39126,2,0,L|421:299,1,100
457,315,39576,2,0,P|407:311|363:332,1,100
324,364,40026,1,0,0:0:0:0:
236,315,40326,1,0,0:0:0:0:
140,345,40626,1,0,0:0:0:0:
61,282,40926,6,0,P|52:258|49:226,2,50
140,345,41526,2,0,P|160:300|156:250,1,100
123,156,42126,1,0,0:0:0:0:
174,70,42426,1,0,0:0:0:0:
272,85,42726,2,0,P|321:89|366:68,1,100
442,3,43326,5,4,0:0:0:0:
507,78,43626,1,0,0:0:0:0:
432,144,43926,1,0,0:0:0:0:
379,229,44226,2,0,L|320:225,2,50,0|0|4,0:0|0:0|0:0,0:0:0:0:
450,299,44826,2,0,L|499:302,2,50
379,370,45426,1,0,0:0:0:0:
307,300,45726,6,0,P|258:304|217:333,1,100,4|0,0:0|0:0,0:0:0:0:
118,318,46326,2,0,L|68:321,2,50,4|0|0,0:0|0:0|0:0,0:0:0:0:
181,240,46926,1,4,0:0:0:0:
135,151,47226,1,4,0:0:0:0:
224,105,47526,1,4,0:0:0:0:
270,194,47826,1,4,0:0:0:0:
181,240,48126,6,0,P|213:277|260:293,1,100,4|8,0:0|0:0,0:0:0:0:
334,360,48726,2,0,L|434:345,1,100,0|8,0:0|0:0,0:0:0:0:
467,308,49176,1,0,0:0:0:0:
444,210,49476,2,0,L|454:151,2,50,0|8|0,0:0|0:0|0:0,0:0:0:0:
399,233,49926,2,0,L|288:215,1,100,0|8,0:0|0:0,0:0:0:0:
237,295,50526,6,0,P|190:278|141:288,1,100,0|8,0:0|0:0,0:0:0:0:
98,313,50976,1,0,0:0:0:0:
67,352,51126,2,0,L|13:345,2,50,0|0|8,0:0|0:0|0:0,0:0:0:0:
141,288,51726,2,0,L|153:180,1,100,0|8,0:0|0:0,0:0:0:0:
67,135,52326,2,0,L|55:234,1,100,0|8,0:0|0:0,0:0:0:0:
141,288,52926,6,0,P|190:292|235:269,1,100,4|8,0:0|0:0,0:0:0:0:
293,191,53526,2,0,P|337:169|386:173,1,100,0|8,0:0|0:0,0:0:0:0:
432,193,53976,1,0,0:0:0:0:
461,288,54276,2,0,P|482:271|510:260,2,50,0|8|0,0:0|0:0|0:0,0:0:0:0:
442,334,54726,2,0,L|334:346,1,100,0|8,0:0|0:0,0:0:0:0:
249,307,55326,6,0,P|202:290|154:299,1,100,0|8,0:0|0:0,0:0:0:0:
110,323,55776,1,0,0:0:0:0:
74,357,55926,2,0,L|61:258,1,100,0|8,0:0|0:0,0:0:0:0:
112,171,56526,1,4,0:0:0:0:
184,102,56826,1,4,0:0:0:0:
256,171,57126,1,4,0:0:0:0:
328,102,57426,1,4,0:0:0:0:
400,171,57726,6,0,L|418:274,1,100,4|0,0:0|0:0,0:0:0:0:
452,304,58176,2,0,P|402:303|359:328,1,100
321,360,58626,2,0,L|266:353,1,50
233,320,58926,2,0,B|200:297|164:320|164:320|126:343|91:321,2,150
309,256,60126,6,0,L|325:154,1,100
281,182,60576,2,0,L|265:80,1,100
223,55,61026,2,0,P|200:50|169:53,1,50
126,68,61326,2,0,L|151:224,2,150
223,55,62526,6,0,P|247:97|246:147,1,100
293,164,62976,2,0,P|335:139|385:140,1,100
433,157,63426,2,0,L|443:213,1,50
451,255,63726,1,0,0:0:0:0:
344,361,64176,1,0,0:0:0:0:
305,216,64626,1,0,0:0:0:0:
224,275,64926,6,0,P|177:291|129:281,1,100
82,262,65376,2,0,L|69:159,1,100
114,141,65826,2,0,L|121:91,1,50
130,42,66126,1,0,0:0:0:0:
239,144,66576,1,0,0:0:0:0:
320,17,67026,1,0,0:0:0:0:
411,57,67326,6,0,P|438:98|441:147,1,100,4|0,0:0|0:0,0:0:0:0:
413,189,67776,2,0,P|385:230|382:279,1,100
399,326,68226,2,0,L|456:339,2,50
278,237,68976,1,0,0:0:0:0:
188,357,69426,1,0,0:0:0:0:
92,327,69726,6,0,L|74:228,1,100
24,229,70176,2,0,L|43:121,1,100
61,84,70626,2,0,L|61:28,2,50
164,192,71376,1,0,0:0:0:0:
206,48,71826,1,0,0:0:0:0:
293,95,72126,6,0,P|342:98|386:76,1,100
428,104,72576,2,0,L|468:206,1,100
454,246,73026,2,0,L|478:307,2,50
315,304,73776,2,0,B|271:328|271:328|228:304|228:304|183:328,1,150
114,255,74526,6,0,P|91:210|95:161,1,100
115,115,74976,2,0,P|159:92|208:96,1,100
252,121,75426,2,0,P|275:133|304:138,1,50
348,131,75726,1,4,0:0:0:0:
256,248,76176,1,4,0:0:0:0:
164,131,76626,1,4,0:0:0:0:
256,93,76926,5,4,0:0:0:0:
427,140,86526,6,0,L|417:248,1,100,4|0,0:0|0:0,0:0:0:0:
342,305,87126,2,0,L|337:366,2,50
324,206,87726,2,0,L|333:106,1,100
239,72,88326,2,0,L|229:171,1,100
224,272,88926,6,0,P|182:296|132:295,1,100
57,227,89526,2,0,L|5:239,2,50
89,132,90126,2,0,P|131:108|181:109,1,100
254,177,90726,2,0,P|304:178|347:154,1,100
405,72,91326,6,0,L|483:148,1,100,4|0,0:0|0:0,0:0:0:0:
476,242,91926,2,0,L|405:312,1,100
332,242,92526,1,4,0:0:0:0:
332,142,92826,1,0,0:0:0:0:
232,142,93126,1,0,0:0:0:0:
232,242,93426,1,0,0:0:0:0:
157,308,93726,6,0,L|53:296,1,100,4|0,0:0|0:0,0:0:0:0:
0,215,94326,2,0,L|12:111,1,100,4|0,0:0|0:0,0:0:0:0:
86,49,94926,1,4,0:0:0:0:
185,60,95226,1,4,0:0:0:0:
243,142,95526,1,4,0:0:0:0:
231,241,95826,1,4,0:0:0:0:
157,308,96126,6,0,P|197:336|246:339,1,100,4|8,0:0|0:0,0:0:0:0:
326,276,96726,2,0,P|372:260|420:270,1,100,0|8,0:0|0:0,0:0:0:0:
464,296,97176,2,0,L|453:196,1,100
447,146,97626,2,0,L|499:141,2,50,8|0|0,0:0|0:0|0:0,0:0:0:0:
347,157,98226,1,8,0:0:0:0:
272,90,98526,6,0,L|267:38,2,50,0|0|8,0:0|0:0|0:0,0:0:0:0:
252,188,99126,2,0,P|205:204|157:194,1,100,0|8,0:0|0:0,0:0:0:0:
114,168,99576,1,0,0:0:0:0:
70,144,99726,2,0,L|18:149,2,50,0|0|8,0:0|0:0|0:0,0:0:0:0:
100,48,100326,2,0,P|146:31|194:41,1,100,0|8,0:0|0:0,0:0:0:0:
289,72,100926,6,0,L|307:178,1,100,4|8,0:0|0:0,0:0:0:0:
370,246,101526,2,0,P|326:268|276:265,1,100,0|8,0:0|0:0,0:0:0:0:
233,240,101976,2,0,P|183:237|139:259,1,100
104,295,102426,2,0,L|104:360,2,50,8|0|0,0:0|0:0|0:0,0:0:0:0:
52,209,103026,1,8,0:0:0:0:
90,116,103326,6,0,L|192:130,1,100,0|8,0:0|0:0,0:0:0:0:
238,138,103776,1,0,0:0:0:0:
287,146,103926,2,0,L|295:84,2,50,0|0|8,0:0|0:0|0:0,0:0:0:0:
278,245,104526,2,0,P|279:294|306:336,1,100,4|0,0:0|0:0,0:0:0:0:
355,344,104976,2,0,P|391:310|405:263,1,100,4|0,0:0|0:0,0:0:0:0:
415,213,105426,2,0,L|427:152,1,50,4|0,0:0|0:0,0:0:0:0:
457,126,105726,6,0,P|407:124|365:97,1,100,4|8,0:0|0:0,0:0:0:0:
295,27,106326,2,0,L|195:27,1,100,0|8,0:0|0:0,0:0:0:0:
195,77,106776,2,0,L|83:77,1,100
45,77,107226,2,0,L|45:17,2,50,8|0|0,0:0|0:0|0:0,0:0:0:0:
48,176,107826,1,8,0:0:0:0:
93,265,108126,6,0,P|68:275|41:276,2,50,0|0|8,0:0|0:0|0:0,0:0:0:0:
187,231,108726,2,0,P|236:232|278:259,1,100,0|8,0:0|0:0,0:0:0:0:
306,300,109176,1,0,0:0:0:0:
347,328,109326,2,0,L|407:328,1,50
439,300,109626,2,0,L|439:360,2,50,8|0|0,0:0|0:0|0:0,0:0:0:0:
483,210,110226,1,8,0:0:0:0:
439,120,110526,6,0,L|338:109,1,100,4|8,0:0|0:0,0:0:0:0:
298,17,111126,1,0,0:0:0:0:
238,97,111426,2,0,L|178:90,2,50,8|0|4,0:0|0:0|0:0,0:0:0:0:
339,109,112026,2,0,L|399:116,2,50,8|0|0,0:0|0:0|0:0,0:0:0:0:
278,189,112626,1,8,0:0:0:0:
220,270,112926,6,0,P|178:296|129:297,1,100,4|8,0:0|0:0,0:0:0:0:
86,271,113376,1,0,0:0:0:0:
82,221,113526,2,0,P|104:177|146:151,1,100,4|8,0:0|0:0,0:0:0:0:
233,100,114126,1,4,0:0:0:0:
278,189,114426,1,4,0:0:0:0:
367,145,114726,1,4,0:0:0:0:
414,232,115026,1,4,0:0:0:0:
325,278,115326,5,4,0:0:0:0:
256,192,124926,12,4,129726,0:0:0:0:
256,192,130926,5,4,0:0:0:0:
79,285,132126,6,0,P|46:192|79:99,1,200,4|4,0:0|0:0,0:0:0:0:
256,192,133326,1,4,0:0:0:0:
315,273,133626,1,4,0:0:0:0:
410,242,133926,1,4,0:0:0:0:
410,142,134226,1,4,0:0:0:0:
315,111,134526,6,0,P|270:91|220:97,1,100,4|8,0:0|0:0,0:0:0:0:
256,192,135126,2,0,P|207:198|161:178,1,100,0|8,0:0|0:0,0:0:0:0:
121,148,135576,2,0,L|116:253,1,100
116,298,136026,2,0,L|62:294,2,50,8|0|0,0:0|0:0|0:0,0:0:0:0:
202,348,136626,1,8,0:0:0:0:
268,273,136926,6,0,P|316:266|362:286,1,100,4|8,0:0|0:0,0:0:0:0:
402,316,137376,1,0,0:0:0:0:
443,343,137526,2,0,L|447:243,1,100,0|8,0:0|0:0,0:0:0:0:
455,143,138126,2,0,L|504:158,2,50,0|0|8,0:0|0:0|0:0,0:0:0:0:
364,187,138726,2,0,P|352:139|367:91,1,100,0|8,0:0|0:0,0:0:0:0:
455,143,139326,5,4,0:0:0:0:
448,242,139626,1,8,0:0:0:0:
359,287,139926,1,0,0:0:0:0:
270,332,140226,2,0,L|270:382,2,50,8|0|4,0:0|0:0|0:0,0:0:0:0:
180,287,140826,1,8,0:0:0:0:
91,242,141126,1,0,0:0:0:0:
174,187,141426,1,8,0:0:0:0:
180,287,141726,6,0,P|148:324|100:341,1,100,4|8,0:0|0:0,0:0:0:0:
91,242,142326,2,0,P|74:195|83:146,1,100,4|8,0:0|0:0,0:0:0:0:
135,61,142926,1,4,0:0:0:0:
234,61,143226,1,12,0:0:0:0:
278,150,143526,1,4,0:0:0:0:
377,150,143826,1,12,0:0:0:0:
428,64,144126,6,0,L|327:64,1,100,4|8,0:0|0:0,0:0:0:0:
277,150,144726,2,0,P|269:198|286:245,1,100,0|8,0:0|0:0,0:0:0:0:
334,230,145176,2,0,P|342:278|325:325,1,100
299,368,145626,2,0,L|236:368,2,50,8|0|0,0:0|0:0|0:0,0:0:0:0:
398,368,146226,1,8,0:0:0:0:
468,296,146526,6,0,L|454:188,1,100,4|8,0:0|0:0,0:0:0:0:
449,147,146976,1,0,0:0:0:0:
442,97,147126,2,0,L|500:89,2,50,0|0|8,0:0|0:0|0:0,0:0:0:0:
352,142,147726,2,0,P|328:150|295:149,1,50
261,123,148026,2,0,P|236:123|212:131,1,50,8|0,0:0|0:0,0:0:0:0:
176,166,148326,2,0,L|154:68,1,100,0|8,0:0|0:0,0:0:0:0:
53,68,148926,6,0,L|31:165,1,100,4|8,0:0|0:0,0:0:0:0:
103,234,149526,1,0,0:0:0:0:
198,264,149826,2,0,L|198:314,1,50,8|0,0:0|0:0,0:0:0:0:
198,364,150126,2,0,L|148:364,2,50,4|0|8,0:0|0:0|0:0,0:0:0:0:
247,364,150576,1,0,0:0:0:0:
296,364,150726,2,0,L|296:254,1,100,0|8,0:0|0:0,0:0:0:0:
264,168,151326,6,0,P|312:164|357:185,1,100,4|8,0:0|0:0,0:0:0:0:
396,217,151776,1,0,0:0:0:0:
434,248,151926,2,0,L|434:316,2,50,4|0|8,0:0|0:0|0:0,0:0:0:0:
488,164,152526,1,4,0:0:0:0:
434,80,152826,1,4,0:0:0:0:
348,27,153126,1,4,0:0:0:0:
263,80,153426,1,4,0:0:0:0:
209,164,153726,6,0,L|201:266,1,100,4|8,0:0|0:0,0:0:0:0:
127,331,154326,1,0,0:0:0:0:
62,254,154626,1,8,0:0:0:0:
66,204,154776,2,0,L|73:104,1,100
77,54,155226,2,0,L|20:51,2,50,8|0|0,0:0|0:0|0:0,0:0:0:0:
171,20,155826,1,8,0:0:0:0:
247,84,156126,6,0,P|269:95|300:97,1,50
342,83,156426,2,0,P|366:85|389:96,1,50,8|0,0:0|0:0,0:0:0:0:
431,124,156726,2,0,L|437:232,1,100,0|8,0:0|0:0,0:0:0:0:
442,273,157176,1,0,0:0:0:0:
446,322,157326,2,0,L|502:320,2,50,0|0|8,0:0|0:0|0:0,0:0:0:0:
401,345,157776,1,0,0:0:0:0:
355,365,157926,2,0,P|307:369|262:348,1,100,0|8,0:0|0:0,0:0:0:0:
220,256,158526,6,0,L|119:269,1,100,4|8,0:0|0:0,0:0:0:0:
54,343,159126,1,0,0:0:0:0:
21,248,159426,1,8,0:0:0:0:
9,199,159576,2,0,P|9:150|34:107,1,100
68,69,160026,2,0,L|48:23,2,50,8|0|0,0:0|0:0|0:0,0:0:0:0:
152,123,160626,1,8,0:0:0:0:
240,169,160926,6,0,L|297:149,1,50
292,102,161226,2,0,L|348:97,1,50,8|0,0:0|0:0,0:0:0:0:
380,65,161526,2,0,L|404:176,1,100,0|8,0:0|0:0,0:0:0:0:
413,211,161976,1,0,0:0:0:0:
425,259,162126,1,4,0:0:0:0:
375,345,162426,1,4,0:0:0:0:
306,272,162726,1,4,0:0:0:0:
211,303,163026,1,4,0:0:0:0:
111,303,163326,6,0,P|81:264|74:215,1,100,4|8,0:0|0:0,0:0:0:0:
134,133,163926,1,0,0:0:0:0:
173,226,164226,1,8,0:0:0:0:
213,255,164376,2,0,L|319:255,1,100
363,255,164826,2,0,L|363:318,2,50,8|0|0,0:0|0:0|0:0,0:0:0:0:
410,167,165426,1,8,0:0:0:0:
460,80,165726,6,0,L|523:80,2,50,0|0|8,0:0|0:0|0:0,0:0:0:0:
413,61,166176,1,0,0:0:0:0:
366,41,166326,2,0,P|317:34|271:52,1,100,0|8,0:0|0:0,0:0:0:0:
236,89,166776,1,0,0:0:0:0:
203,127,166926,2,0,P|177:136|149:137,1,50
119,101,167226,2,0,P|94:102|70:111,1,50,8|0,0:0|0:0,0:0:0:0:
36,147,167526,2,0,L|36:247,1,100,0|8,0:0|0:0,0:0:0:0:
98,324,168126,5,4,0:0:0:0:
162,247,168426,1,8,0:0:0:0:
253,286,168726,1,0,0:0:0:0:
352,286,169026,2,0,L|411:286,1,50,8|0,0:0|0:0,0:0:0:0:
452,286,169326,2,0,L|452:336,2,50,4|0|8,0:0|0:0|0:0,0:0:0:0:
472,240,169776,1,0,0:0:0:0:
489,192,169926,2,0,P|496:143|478:97,1,100,0|8,0:0|0:0,0:0:0:0:
417,17,170526,6,0,L|357:17,1,50,4|0,0:0|0:0,0:0:0:0:
339,58,170826,2,0,L|279:58,1,50,8|0,0:0|0:0,0:0:0:0:
260,99,171126,2,0,P|212:112|164:100,1,100,4|8,0:0|0:0,0:0:0:0:
118,78,171576,1,0,0:0:0:0:
76,49,171726,1,4,0:0:0:0:
15,128,172026,1,4,0:0:0:0:
76,206,172326,1,4,0:0:0:0:
15,285,172626,1,4,0:0:0:0:
103,332,172926,6,0,L|215:332,1,100,4|0,0:0|0:0,0:0:0:0:
226,287,173376,2,0,L|338:287,1,100
347,332,173826,2,0,L|405:332,1,50
444,317,174126,2,0,P|491:238|478:181,2,150
391,231,175326,6,0,P|378:183|390:135,1,100
356,97,175776,2,0,P|308:110|260:98,1,100
212,83,176226,2,0,L|209:146,1,50
180,174,176526,2,0,B|79:174|79:174|53:126,2,150
278,158,177726,6,0,L|273:257,1,100
295,302,178176,2,0,L|196:297,1,100
174,342,178626,2,0,L|125:340,1,50
76,323,178926,1,0,0:0:0:0:
26,181,179376,1,0,0:0:0:0:
125,68,179826,1,0,0:0:0:0:
222,89,180126,6,0,P|271:93|316:73,1,100
357,44,180576,2,0,L|384:153,1,100
393,189,181026,2,0,L|454:189,1,50
492,189,181326,1,0,0:0:0:0:
457,334,181776,1,0,0:0:0:0:
309,305,182226,1,0,0:0:0:0:
244,228,182526,6,0,P|215:268|210:317,1,100,4|0,0:0|0:0,0:0:0:0:
181,358,182976,2,0,L|71:358,1,100
39,330,183426,1,0,0:0:0:0:
20,283,183576,1,0,0:0:0:0:
15,233,183726,2,0,B|11:194|28:173|57:150|57:150|45:98,1,150
171,17,184626,1,0,0:0:0:0:
193,114,184926,6,0,L|219:229,1,100
231,258,185376,2,0,P|276:278|325:273,1,100
354,232,185826,1,0,0:0:0:0:
396,205,185976,1,0,0:0:0:0:
445,205,186126,2,0,B|468:238|445:274|445:274|422:312|444:347,2,150
407,111,187326,6,0,L|360:22,1,100,4|0,0:0|0:0,0:0:0:0:
310,22,187776,2,0,L|263:110,1,100
242,155,188226,1,0,0:0:0:0:
221,200,188376,1,0,0:0:0:0:
200,245,188526,2,0,L|128:107,1,150,4|0,0:0|0:0,0:0:0:0:
44,235,189426,1,0,0:0:0:0:
86,325,189726,6,0,P|131:345|180:340,1,100,4|0,0:0|0:0,0:0:0:0:
227,322,190176,1,0,0:0:0:0:
271,299,190326,2,0,P|298:294|331:296,1,50,4|0,0:0|0:0,0:0:0:0:
352,333,190626,2,0,P|376:333|401:328,1,50
442,299,190926,2,0,P|458:229|437:148,1,150,4|4,0:0|0:0,0:0:0:0:
330,51,191826,2,0,L|270:55,1,50,4|0,0:0|0:0,0:0:0:0:
256,192,192651,12,0,196926,0:0:0:0:
