osu file format v14

[General]
AudioFilename: -------------.mp3
AudioLeadIn: 1500
PreviewTime: 96126
Countdown: 0
SampleSet: Normal
StackLeniency: 0.3
Mode: 0
LetterboxInBreaks: 0
WidescreenStoryboard: 0

[Editor]
Bookmarks: 99920
DistanceSpacing: 1.3
BeatDivisor: 4
GridSize: 4
TimelineZoom: 2.4

[Metadata]
Title:Saishoukichiku Imouto Flandre S
TitleUnicode:最終鬼畜妹フランドール・S
Artist:COOL&CREATE
ArtistUnicode:COOL&CREATE
Creator:UnLock-
Version:bbHard
Source:東方Project
Tags:Sonnyc Left Doyak bbj0920 Hello- Karia TH06 東方紅魔郷_~_the_Embodiment_of_Scarlet_Devil U.N.Owen_was_Her?_Remix Flandre_Scarlet
BeatmapID:681500
BeatmapSetID:264977

[Difficulty]
HPDrainRate:5
CircleSize:4
OverallDifficulty:6
ApproachRate:7.5
SliderMultiplier:1.28
SliderTickRate:2

[Events]
//Background and Video events
0,0,"BG.jpg",0,0
//Break Periods
2,77126,85701
2,115525,124101
//Storyboard Layer 0 (Background)
//Storyboard Layer 1 (Fail)
//Storyboard Layer 2 (Pass)
//Storyboard Layer 3 (Foreground)
//Storyboard Sound Samples

[TimingPoints]
126,300,4,1,0,40,1,0
2526,-100,4,1,0,50,0,0
4926,-100,4,1,0,60,0,0
7326,-100,4,1,0,70,0,0
8226,-100,4,2,0,33,0,0
8526,-100,4,2,0,70,0,0
38526,-100,4,2,0,70,0,1
48126,-100,4,1,0,70,0,1
57726,-100,4,1,0,59,0,0
76926,-100,4,1,0,77,0,0
96126,-100,4,1,0,70,0,1
115326,-100,4,2,0,70,0,0
124926,-100,4,2,0,69,0,0
125001,-100,4,2,0,20,0,0
126126,-100,4,2,0,30,0,0
127326,-100,4,2,0,45,0,0
128526,-100,4,2,0,60,0,0
129726,-100,4,2,0,69,0,0
134526,-100,4,2,0,70,0,0
144126,-100,4,1,0,70,0,1
152526,-100,4,2,0,70,0,0
153726,-100,4,1,0,70,0,1
171726,-100,4,2,0,70,0,0
171876,-100,4,2,1,100,0,0
172926,-100,4,2,0,100,0,0
192651,-166.666666666667,4,2,1,100,0,0
192726,-166.666666666667,4,2,2,5,0,0

[Colours]
Combo1 : 255,255,0
Combo2 : 255,111,111
Combo3 : 47,151,255
Combo4 : 128,255,128

[HitObjects]
256,192,126,5,4,0:0:0:0:
256,192,201,12,0,2226,0:0:0:0:
256,192,2526,5,4,0:0:0:0:
256,192,2601,12,0,4626,0:0:0:0:
256,192,4926,5,4,0:0:0:0:
256,192,5001,12,0,7026,0:0:0:0:
256,192,7326,5,4,1:0:0:0:
256,192,7401,12,0,8226,0:0:0:0:
400,144,8526,6,0,L|432:136,6,32,4|4|4|4|4|4|4,0:3|0:3|0:3|0:3|0:3|0:3|0:3,0:0:0:0:
332,112,9126,2,0,L|316:72,6,32,4|4|4|4|4|4|4,1:3|1:3|1:3|1:3|1:3|1:3|1:3,0:0:0:0:
336,184,9726,6,0,B|328:232|328:232|308:256|308:256|300:304,1,128,4|2,0:0|0:0,0:0:0:0:
168,336,10326,2,0,P|104:328|80:272,1,128,2|0,0:0|0:0,0:0:0:0:
120,216,10776,2,0,B|88:196|56:208|56:208|72:144,1,128,2|2,0:0|0:0,0:0:0:0:
112,88,11226,2,0,B|80:68|48:80|48:80|16:92|-16:72,2,128,2|0|2,0:0|0:0|0:0,0:0:0:0:
248,48,12126,6,0,L|240:120,3,64,2|2|0|2,0:0|0:1|0:0|0:1,0:0:0:0:
288,165,12726,2,0,B|319:172|352:157,3,64,0|2|0|2,0:0|0:1|0:0|0:1,0:0:0:0:
415,128,13326,1,0,0:0:0:0:
424,200,13476,2,0,L|408:288,1,64,2|0,0:1|0:0,0:0:0:0:
368,318,13776,6,0,B|336:318|312:326|312:326|296:318|296:318|272:326|240:326,1,128,2|2,0:1|0:1,0:0:0:0:
184,286,14226,2,0,P|176:254|184:222,1,64,0|2,0:0|0:1,0:0:0:0:
232,173,14526,5,4,0:1:0:0:
88,149,14826,1,2,0:0:0:0:
176,28,15126,2,0,B|204:50|236:40|236:40|268:30|296:52,1,128,0|2,0:0|0:0,0:0:0:0:
255,111,15576,1,0,0:0:0:0:
324,128,15726,6,0,P|376:72|360:0,2,128,4|2|0,0:1|0:0|0:0,0:0:0:0:
288,192,16476,2,0,L|280:264,1,64,0|2,0:0|0:0,0:0:0:0:
112,292,16926,6,0,B|123:232|123:232|93:212|90:172,1,128,4|2,0:1|0:0,0:0:0:0:
105,107,17376,1,0,0:0:0:0:
174,111,17526,2,0,B|163:171|163:171|193:191|196:231,1,128,4|2,0:1|0:0,0:0:0:0:
184,296,17976,6,0,B|231:301|255:264|255:264|279:270|304:256,1,128,4|4,0:1|0:1,0:0:0:0:
328,194,18426,2,0,B|312:256|312:256|352:305,1,128,4|4,0:1|0:3,0:0:0:0:
432,160,19026,2,0,L|464:160,3,32,4|4|4|4,0:3|0:3|0:3|0:3,0:0:0:0:
424,168,19326,6,0,P|416:112|464:64,2,128,4|0|2,1:2|1:0|0:0,0:0:0:0:
288,208,20226,1,0,1:0:0:0:
288,208,20376,2,0,L|136:168,1,128,2|2,0:0|0:0,0:0:0:0:
96,156,20826,2,0,B|64:140|56:108|56:108|48:76|16:60,2,128,0|0|0,1:0|0:0|1:0,0:0:0:0:
256,192,21726,5,4,0:3:0:0:
304,140,21876,2,0,P|320:116|328:76,2,64,2|0|2,2:1|1:0|2:1,0:0:0:0:
256,192,22326,1,4,0:3:0:0:
186,176,22476,2,0,P|158:174|119:187,2,64,2|0|2,2:1|1:0|2:1,0:0:0:0:
256,192,22926,5,4,0:3:0:0:
277,259,23076,2,0,P|289:285|320:312,2,64,2|0|2,2:1|1:0|2:1,0:0:0:0:
256,192,23526,1,4,0:3:0:0:
256,192,23676,2,0,L|232:56,1,128,2|2,0:1|0:1,0:0:0:0:
168,96,24126,6,0,P|112:104|56:64,1,128,2|0,0:0|1:0,0:0:0:0:
12,192,24726,2,0,P|76:224|156:224,1,128,2|0,0:0|1:0,0:0:0:0:
186,181,25176,2,0,B|215:223|193:262|193:262|200:332,1,128,2|2,0:0|0:0,0:0:0:0:
204,373,25626,1,0,1:0:0:0:
328,304,25926,2,0,B|360:300|382:273|382:273|414:292|444:288,1,128,2|0,0:0|1:0,0:0:0:0:
472,112,26526,5,4,0:3:0:0:
472,112,26676,1,2,0:1:0:0:
408,142,26826,2,0,P|376:142|336:126,1,64,0|2,1:0|0:1,0:0:0:0:
296,80,27126,1,4,0:3:0:0:
296,80,27276,1,2,0:1:0:0:
232,112,27426,2,0,L|168:120,1,64,0|2,1:0|0:1,0:0:0:0:
104,88,27726,5,4,0:3:0:0:
104,88,27876,2,0,P|88:64|80:24,2,64,2|0|2,0:1|1:0|0:1,0:0:0:0:
144,148,28326,1,4,0:3:0:0:
124,216,28476,2,0,L|108:344,1,128,2|2,0:1|0:1,0:0:0:0:
176,364,28926,6,0,B|200:340|200:340|216:282|216:282|240:258,1,128,4|0,2:1|1:0,0:0:0:0:
296,216,29376,1,0,0:0:0:0:
366,226,29526,2,0,P|344:164|274:148,1,128,2|0,0:0|1:0,0:0:0:0:
222,166,29976,6,0,B|174:166|174:166|142:150|142:150|94:150,1,128,2|2,0:0|0:0,0:0:0:0:
46,199,30426,2,0,B|22:175|22:135|38:111|38:111|70:63,1,128,0|2,1:0|0:0,0:0:0:0:
200,24,31026,1,0,1:0:0:0:
160,184,31326,6,0,L|152:264,1,64,4|2,0:3|0:1,0:0:0:0:
88,273,31626,1,0,1:0:0:0:
144,318,31776,2,0,P|200:332|256:294,1,128,2|2,0:1|0:1,0:0:0:0:
264,225,32226,1,0,1:0:0:0:
264,225,32376,1,2,0:1:0:0:
330,250,32526,6,0,P|356:248|394:266,1,64,4|2,0:3|0:1,0:0:0:0:
428,324,32826,1,0,1:0:0:0:
428,324,32976,2,0,B|420:276|420:276|428:244|428:244|420:196,1,128,2|2,0:1|0:1,0:0:0:0:
368,152,33426,2,0,L|288:144,1,64,0|2,1:0|0:1,0:0:0:0:
240,176,33726,6,0,P|235:126|289:76,1,128,4|0,1:2|1:0,0:0:0:0:
160,152,34326,2,0,B|128:144|96:152|96:152|64:160|32:152,1,128,2|0,0:0|1:0,0:0:0:0:
16,84,34776,2,0,B|35:23|35:23|76:72,1,128,2|2,0:0|0:0,0:0:0:0:
144,52,35226,1,0,1:0:0:0:
272,120,35526,2,0,L|256:272,1,128,2|0,0:0|1:0,0:0:0:0:
128,336,36126,5,4,0:3:0:0:
80,284,36276,2,0,P|104:232|143:277,1,128,2|2,0:1|0:1,0:0:0:0:
215,267,36726,1,4,0:3:0:0:
192,200,36876,2,0,P|112:160|56:176,1,128,2|2,0:1|0:1,0:0:0:0:
37,108,37326,1,4,0:3:0:0:
104,88,37476,2,0,B|140:88|168:98|168:98|196:108|232:108,1,128,2|2,0:1|0:1,0:0:0:0:
280,58,37926,6,0,L|284:22,6,32,2|0|6|6|6|0|6,0:1|0:0|0:3|0:3|0:3|0:0|0:3,0:0:0:0:
304,128,38526,6,0,P|368:136|424:96,1,128,4|2,1:0|0:0,0:0:0:0:
464,248,39126,2,0,L|328:264,1,128,0|2,0:0|0:0,0:0:0:0:
320,332,39576,2,0,B|280:340|256:332|256:332|232:324|192:332,1,128
124,344,40026,1,2,0:0:0:0:
140,272,40176,1,0,0:0:0:0:
156,200,40326,1,0,0:0:0:0:
56,80,40626,6,0,P|24:128|72:160,1,128,2|0,0:0|0:0,0:0:0:0:
136,128,41076,1,0,0:0:0:0:
204,148,41226,2,0,P|204:108|176:68,1,64,2|0,0:0|0:0,0:0:0:0:
161,23,41526,1,0,0:0:0:0:
232,16,41676,1,0,0:0:0:0:
232,16,41751,1,0,0:0:0:0:
232,16,41826,2,0,L|304:20,1,64,2|0,0:0|0:0,0:0:0:0:
352,64,42126,6,0,P|356:96|348:128,1,64
280,152,42426,2,0,P|276:120|284:88,1,64,2|0,0:0|0:0,0:0:0:0:
349,127,42726,2,0,P|400:144|424:216,1,128
320,304,43326,6,0,B|256:312|256:312|192:304,1,128,4|2,1:0|0:0,0:0:0:0:
48,328,43926,2,0,P|56:248|104:200,1,128,0|2,0:0|0:0,0:0:0:0:
152,188,44376,1,0,0:0:0:0:
112,128,44526,2,0,P|120:96|144:64,1,64,4|0,1:0|0:0,0:0:0:0:
204,48,44826,2,0,P|236:56|268:88,1,64,2|0,0:0|0:0,0:0:0:0:
281,144,45126,1,0,0:0:0:0:
281,144,45276,1,0,0:0:0:0:
336,96,45426,2,0,L|360:92,4,16,2|2|2|2|2,0:1|0:1|0:1|0:1|0:1,0:0:0:0:
281,144,45726,6,0,P|328:192|392:184,1,128,4|2,1:0|0:0,0:0:0:0:
448,156,46176,1,0,0:0:0:0:
464,226,46326,2,0,L|456:290,1,64,4|0,1:0|0:0,0:0:0:0:
456,289,46551,1,0,0:0:0:0:
456,289,46626,1,2,0:0:0:0:
396,328,46776,1,0,0:0:0:0:
327,312,46926,5,4,1:0:0:0:
256,192,47001,12,0,47826,0:0:0:0:
64,192,48126,6,0,P|128:200|192:160,1,128,4|8,0:0|0:0,0:0:0:0:
292,80,48726,2,0,P|228:72|164:112,1,128,2|8,0:0|0:0,0:0:0:0:
182,171,49176,2,0,L|198:299,1,128,2|2,0:0|0:0,0:0:0:0:
220,364,49626,2,0,P|176:364|144:344,2,64,8|2|0,0:0|0:0|0:0,0:0:0:0:
308,245,50226,1,8,0:0:0:0:
448,312,50526,6,0,B|452:280|452:280|448:248,1,64,2|0,0:0|0:0,0:0:0:0:
388,212,50826,1,8,0:0:0:0:
432,156,50976,1,2,0:0:0:0:
472,96,51126,2,0,P|441:84|408:88,1,64,0|2,0:0|0:0,0:0:0:0:
401,79,51351,1,0,0:0:0:0:
392,71,51426,2,0,L|328:63,1,64,8|2,0:0|0:0,0:0:0:0:
270,103,51726,6,0,L|206:95,1,64,0|2,0:0|0:0,0:0:0:0:
144,129,52026,1,8,0:0:0:0:
144,129,52176,1,2,0:0:0:0:
184,192,52326,2,0,P|248:184|320:216,1,128,2|0,0:0|0:0,0:0:0:0:
448,168,52926,6,0,B|456:208|448:232|448:232|440:256|448:296,1,128,4|8,0:0|0:0,0:0:0:0:
304,336,53526,2,0,L|160:348,1,128,2|8,0:0|0:0,0:0:0:0:
149,279,53976,2,0,L|293:267,1,128,2|2,0:0|0:0,0:0:0:0:
347,261,54426,1,8,0:0:0:0:
347,261,54576,1,2,0:0:0:0:
304,200,54726,2,0,P|296:168|300:132,1,64
344,82,55026,2,0,L|372:86,4,16,2|2|2|2|2,2:1|2:1|2:1|2:1|2:1,0:0:0:0:
278,56,55326,6,0,B|230:64|230:64|194:56|194:56|150:64,1,128,2|8,0:0|0:0,0:0:0:0:
120,128,55776,1,2,0:0:0:0:
128,200,55926,2,0,L|120:272,1,64,2|2,0:0|0:0,0:0:0:0:
112,272,56151,1,0,0:0:0:0:
104,280,56226,2,0,P|68:284|32:272,1,64,8|2,0:0|0:0,0:0:0:0:
12,212,56526,1,4,0:0:0:0:
256,192,56601,12,0,57426,0:0:0:0:
360,88,57726,6,0,P|392:80|424:80,2,64,2|0|8,0:0|0:0|0:0,0:0:0:0:
296,120,58176,2,0,P|264:128|232:128,2,64,2|0|2,0:0|0:0|0:0,0:0:0:0:
356,161,58626,1,8,0:0:0:0:
356,161,58776,1,2,0:0:0:0:
356,161,58926,6,0,L|368:288,1,128,2|8,0:0|0:0,0:0:0:0:
308,328,59376,2,0,P|272:232|296:120,1,192,2|10,0:0|0:0,0:0:0:0:
160,56,60126,5,2,0:0:0:0:
92,76,60276,2,0,L|28:84,1,64,0|8,0:0|0:0,0:0:0:0:
12,152,60576,1,2,0:0:0:0:
46,214,60726,2,0,L|113:205,1,64,0|2,0:0|0:0,0:0:0:0:
160,156,61026,1,8,0:0:0:0:
160,156,61176,1,2,0:0:0:0:
184,224,61326,6,0,P|228:176|220:116,1,128,2|8,0:0|0:0,0:0:0:0:
288,96,61776,2,0,P|300:168|236:276,1,192,2|10,0:0|0:0,0:0:0:0:
408,240,62526,6,0,L|416:168,2,64,2|0|8,0:0|0:0|0:0,0:0:0:0:
353,286,62976,2,0,L|361:358,2,64,2|0|2,0:0|0:0|0:0,0:0:0:0:
296,240,63426,1,8,0:0:0:0:
296,240,63576,1,2,0:0:0:0:
296,240,63726,6,0,P|276:184|280:112,1,128,2|8,0:0|0:0,0:0:0:0:
344,88,64176,2,0,P|288:44|207:112,1,192,2|10,0:0|0:0,0:0:0:0:
72,192,64926,6,0,B|46:174|46:174|12:166,2,64,2|0|8,0:0|0:0|0:0,0:0:0:0:
111,251,65376,2,0,B|109:282|109:282|119:315,2,64,2|0|2,0:0|0:0|0:0,0:0:0:0:
143,186,65826,1,8,0:0:0:0:
143,186,65976,1,2,0:0:0:0:
143,186,66126,6,0,B|207:178|207:178|227:202|263:202,1,128,2|8,0:0|0:0,0:0:0:0:
261,130,66576,2,0,L|245:338,1,192,2|10,0:0|0:0,0:0:0:0:
392,288,67326,6,0,P|380:320|376:352,2,64,6|0|8,0:0|0:0|0:0,0:0:0:0:
445,238,67776,2,0,P|478:232|508:219,2,64,2|0|2,0:0|0:0|0:0,0:0:0:0:
375,218,68226,1,8,0:0:0:0:
375,218,68376,1,2,0:0:0:0:
375,218,68526,6,0,P|311:194|239:202,1,128,2|8,0:0|0:0,0:0:0:0:
249,268,68976,2,0,B|216:265|188:246|183:209|183:209|164:241|130:246|100:236,1,192,2|10,0:0|0:0,0:0:0:0:
136,105,69726,6,0,L|120:193,2,64,2|0|8,0:0|0:0|0:0,0:0:0:0:
168,40,70176,2,0,P|137:33|99:43,2,64,2|0|2,0:0|0:0|0:0,0:0:0:0:
232,72,70626,1,8,0:0:0:0:
232,72,70776,1,2,0:0:0:0:
232,72,70926,6,0,P|224:128|288:180,1,128,2|8,0:0|0:0,0:0:0:0:
294,108,71376,2,0,P|336:147|278:248,1,192,2|10,0:0|0:0,0:0:0:0:
144,304,72126,6,0,P|112:296|64:296,2,64,2|0|8,0:0|0:0|0:0,0:0:0:0:
208,336,72576,2,0,P|240:344|288:344,2,64,2|0|2,0:0|0:0|0:0,0:0:0:0:
204,264,73026,1,8,0:0:0:0:
204,264,73176,1,2,0:0:0:0:
204,264,73326,6,0,B|208:226|192:202|192:202|176:178|180:140,1,128,2|8,0:0|0:0,0:0:0:0:
120,103,73776,2,0,B|184:111|184:111|240:84|240:84|304:92,1,192,2|10,0:0|0:0,0:0:0:0:
432,176,74526,5,2,0:0:0:0:
432,176,74676,2,0,L|424:240,1,64,0|8,0:0|0:0,0:0:0:0:
360,272,74976,1,2,0:0:0:0:
360,272,75126,2,0,P|328:274|296:264,1,64,0|2,0:0|0:0,0:0:0:0:
243,218,75426,1,8,0:0:0:0:
243,218,75576,1,2,0:0:0:0:
243,218,75726,6,0,B|200:244|144:228|120:184|120:184|136:212|132:248,2,192,4|4|4,0:0|0:0|0:0,0:0:0:0:
197,144,76926,5,4,0:0:0:0:
96,200,86526,6,0,B|84:152|84:152|92:64,2,128,4|8|0,0:2|0:0|0:0,0:0:0:0:
136,344,87426,1,8,0:0:0:0:
72,312,87576,2,0,P|128:272|196:308,1,128
235,331,88026,2,0,P|295:346|344:308,2,128,8|0|8,0:0|0:0|0:0,0:0:0:0:
336,224,88926,5,2,0:3:0:0:
400,256,89076,2,0,P|416:284|416:328,2,64,2|8|2,0:0|0:0|0:0,0:0:0:0:
336,224,89526,1,0,0:0:0:0:
331,152,89676,2,0,P|347:124|385:102,2,64,2|8|2,0:0|0:0|0:0,0:0:0:0:
336,224,90126,1,0,0:0:0:0:
276,264,90276,2,0,P|243:263|205:241,2,64,2|8|2,0:0|0:0|0:0,0:0:0:0:
336,224,90726,2,0,L|384:232,4,32,8|0|8|4|8,0:0|2:0|0:0|0:3|0:0,0:0:0:0:
280,176,91176,1,2,0:0:0:0:
336,128,91326,6,0,P|400:136|440:88,2,128,4|8|0,0:2|0:0|0:0,0:0:0:0:
208,48,92226,1,8,0:0:0:0:
225,116,92376,2,0,B|193:124|165:104|165:104|137:84|101:92,1,128
40,60,92826,2,0,P|36:112|88:160,1,128,8|8,0:0|0:0,0:0:0:0:
152,192,93276,1,8,0:0:0:0:
152,192,93426,1,8,0:0:0:0:
128,352,93726,5,4,0:2:0:0:
128,352,93876,1,2,0:0:0:0:
128,352,94026,1,8,0:0:0:0:
256,264,94326,1,4,0:2:0:0:
256,264,94476,1,2,0:0:0:0:
256,264,94626,1,8,0:0:0:0:
384,352,94926,5,4,0:0:0:0:
384,352,95076,1,2,0:0:0:0:
372,281,95226,2,0,L|360:197,1,64,4|2,0:0|0:0,0:0:0:0:
352,148,95526,2,0,L|320:140,4,32,8|4|8|4|8,0:0|0:3|0:0|0:3|0:0,0:0:0:0:
422,161,95976,1,2,0:0:0:0:
408,92,96126,6,0,P|352:52|288:68,1,128,0|8,0:0|0:0,0:0:0:0:
104,92,96726,2,0,P|160:52|224:68,1,128,0|8,0:0|0:0,0:0:0:0:
256,120,97176,2,0,P|262:188|216:235,1,128,2|2,0:0|0:0,0:0:0:0:
160,208,97626,1,8,0:0:0:0:
160,208,97776,1,2,0:0:0:0:
96,240,97926,2,0,B|86:223|89:199|89:199|60:204|40:232|48:268,1,128,2|8,0:0|0:0,0:0:0:0:
184,336,98526,6,0,L|248:328,1,64,2|2,0:0|0:0,0:0:0:0:
304,286,98826,2,0,L|368:278,1,64,8|2,0:0|0:0,0:0:0:0:
432,308,99126,2,0,P|448:284|456:244,1,64,2|2,0:0|0:0,0:0:0:0:
452,243,99351,1,0,0:0:0:0:
448,236,99426,2,0,L|440:168,1,64,8|2,0:0|0:0,0:0:0:0:
408,111,99726,5,0,0:0:0:0:
408,111,99876,1,2,0:0:0:0:
344,142,100026,2,0,P|336:110|344:78,1,64,8|2,0:0|0:0,0:0:0:0:
280,48,100326,2,0,B|264:80|266:112|266:112|233:104|203:127,1,128,2|8,0:0|0:0,0:0:0:0:
64,128,100926,6,0,P|72:200|128:240,1,128,4|8,0:0|0:0,0:0:0:0:
176,360,101526,2,0,P|234:317|240:248,1,128,0|8,0:0|0:0,0:0:0:0:
192,216,101976,2,0,B|247:249|247:249|320:224,1,128,2|2,0:0|0:0,0:0:0:0:
354,175,102426,1,8,0:0:0:0:
354,175,102576,1,2,0:0:0:0:
376,243,102726,2,0,B|384:275|376:307|376:307,1,64
320,349,103026,2,0,L|291:352,4,16,2|2|2|2|2,2:1|2:1|2:1|2:1|2:1,0:0:0:0:
384,312,103326,6,0,P|392:256|392:160,1,128,2|8,0:0|0:0,0:0:0:0:
364,120,103776,1,2,0:0:0:0:
296,144,103926,2,0,P|292:120|304:80,1,64,2|2,0:0|0:0,0:0:0:0:
296,72,104151,1,0,0:0:0:0:
289,63,104226,2,0,L|217:55,1,64,8|2,0:0|0:0,0:0:0:0:
160,84,104526,5,4,0:0:0:0:
256,192,104601,12,0,105426,0:0:0:0:
416,288,105726,6,0,B|380:292|356:272|356:272|348:304|312:320,1,128,4|8,0:0|0:0,0:0:0:0:
216,200,106326,2,0,P|280:200|288:256,1,128,2|8,0:0|0:0,0:0:0:0:
225,280,106776,2,0,B|192:296|164:280|164:280|136:264|103:280,1,128,2|2,0:0|0:0,0:0:0:0:
51,328,107226,1,8,0:0:0:0:
51,328,107376,1,2,0:0:0:0:
51,328,107526,2,0,L|72:176,1,128,0|8,0:0|0:0,0:0:0:0:
128,64,108126,5,2,0:0:0:0:
128,64,108276,1,0,0:0:0:0:
168,124,108426,2,0,P|200:132|232:128,1,64,8|2,0:0|0:0,0:0:0:0:
272,72,108726,1,0,0:0:0:0:
304,136,108876,1,2,0:0:0:0:
304,136,108951,1,0,0:0:0:0:
304,136,109026,2,0,L|296:200,1,64,8|2,0:0|0:0,0:0:0:0:
364,223,109326,6,0,L|371:159,1,64,0|2,0:0|0:0,0:0:0:0:
400,96,109626,1,8,0:0:0:0:
400,96,109776,1,2,0:0:0:0:
400,96,109926,2,0,B|436:113|441:153|441:153|436:209,1,128
352,336,110526,6,0,P|304:288|240:304,1,128,4|8,0:0|0:0,0:0:0:0:
136,200,111126,2,0,B|168:184|176:152|176:152|184:120|216:104,1,128,2|8,0:0|0:0,0:0:0:0:
245,170,111576,1,2,0:0:0:0:
276,234,111726,6,0,P|304:209|316:176,1,64,4|0,0:0|0:0,0:0:0:0:
308,115,112026,2,0,L|300:43,1,64,8|2,0:0|0:0,0:0:0:0:
369,33,112326,1,0,0:0:0:0:
369,33,112476,1,0,0:0:0:0:
436,58,112626,2,0,L|456:54,4,16,2|2|2|2|2,2:1|2:1|2:1|2:1|2:1,0:0:0:0:
400,120,112926,6,0,P|392:176|440:224,1,128,4|8,0:0|0:0,0:0:0:0:
468,288,113376,1,2,0:0:0:0:
416,336,113526,2,0,L|352:328,1,64,4|2,0:0|0:0,0:0:0:0:
348,320,113751,1,0,0:0:0:0:
344,312,113826,2,0,L|280:304,1,64,8|2,0:0|0:0,0:0:0:0:
211,293,114126,6,0,P|96:159|263:251,1,512,4|4,0:0|0:0,0:0:0:0:
256,192,124926,5,4,0:3:0:0:
256,192,125001,12,4,129726,0:1:0:0:
256,192,130926,5,4,1:0:0:0:
104,64,132126,5,4,1:0:0:0:
392,64,132726,1,4,1:0:0:0:
128,256,133326,5,4,1:0:0:0:
256,320,133626,1,4,1:0:0:0:
384,256,133926,1,4,1:0:0:0:
320,288,134076,1,4,1:0:0:0:
256,320,134226,2,0,B|244:290|256:258|256:258|268:226|256:194,1,128,4|4,1:0|0:3,0:0:0:0:
256,56,134826,5,2,0:0:0:0:
256,56,135426,1,2,0:0:0:0:
256,56,136026,1,2,0:0:0:0:
201,236,136476,2,0,B|220:263|256:273|293:262|311:236,1,128,4|4,0:3|0:3,0:0:0:0:
256,192,136926,5,4,0:1:0:0:
136,112,137226,1,2,0:0:0:0:
136,112,137826,1,2,0:0:0:0:
136,112,138426,1,2,0:0:0:0:
80,248,139026,2,0,P|104:304|184:300,1,128,4|4,0:3|0:1,0:0:0:0:
256,192,139626,5,2,0:0:0:0:
256,192,140226,1,2,0:0:0:0:
256,192,140376,1,0,0:0:0:0:
327,170,140526,6,0,P|282:122|211:130,1,128,4|2,0:1|0:0,0:0:0:0:
288,260,141126,2,0,P|226:260|185:214,1,128,4|2,0:3|0:0,0:0:0:0:
72,112,141726,6,0,L|24:104,6,32,4|4|4|4|4|4|4,1:2|0:3|0:3|0:3|0:3|0:3|0:3,0:0:0:0:
136,80,142326,2,0,L|152:40,6,32,4|4|4|4|4|4|4,1:2|0:3|0:3|0:3|0:3|0:3|0:3,0:0:0:0:
131,152,142926,1,4,1:2:0:0:
256,192,143001,12,0,143826,0:0:0:0:
208,128,144126,6,0,P|144:136|88:96,1,128,4|8,1:0|0:0,0:0:0:0:
48,248,144726,2,0,L|184:264,1,128,0|8,0:0|0:0,0:0:0:0:
192,332,145176,2,0,B|232:340|256:332|256:332|280:324|320:332,1,128,2|2,0:0|0:0,0:0:0:0:
388,344,145626,1,8,0:0:0:0:
372,272,145776,1,2,0:0:0:0:
356,200,145926,1,0,0:0:0:0:
456,80,146226,6,0,P|488:128|440:160,1,128,8|4,0:0|0:0,0:0:0:0:
376,128,146676,1,0,0:0:0:0:
308,148,146826,2,0,P|308:108|336:68,1,64,8|2,0:0|0:0,0:0:0:0:
351,23,147126,1,0,0:0:0:0:
280,16,147276,1,2,0:0:0:0:
280,16,147351,1,0,0:0:0:0:
280,16,147426,2,0,L|208:20,1,64,8|2,0:0|0:0,0:0:0:0:
160,64,147726,6,0,P|156:96|164:128,1,64,0|2,0:0|0:0,0:0:0:0:
232,152,148026,2,0,P|236:120|228:88,1,64,8|2,0:0|0:0,0:0:0:0:
163,127,148326,2,0,P|112:144|88:216,1,128
192,304,148926,6,0,B|256:312|256:312|320:304,1,128,4|8,1:0|0:0,0:0:0:0:
464,328,149526,2,0,P|456:248|408:200,1,128,0|8,0:0|0:0,0:0:0:0:
360,188,149976,1,2,0:0:0:0:
400,128,150126,2,0,P|392:96|368:64,1,64,4|0,1:0|0:0,0:0:0:0:
308,48,150426,2,0,P|276:56|244:88,1,64,8|2,0:0|0:0,0:0:0:0:
231,144,150726,1,0,0:0:0:0:
231,144,150876,1,0,0:0:0:0:
176,96,151026,2,0,L|152:92,4,16,2|2|2|2|2,2:1|2:1|2:1|2:1|2:1,0:0:0:0:
231,144,151326,6,0,P|184:192|120:184,1,128,4|8,1:0|0:0,0:0:0:0:
64,156,151776,1,2,0:0:0:0:
48,226,151926,6,0,L|56:290,1,64,4|2,0:0|0:0,0:0:0:0:
56,289,152151,1,0,0:0:0:0:
56,289,152226,1,8,0:0:0:0:
116,328,152376,1,2,0:0:0:0:
185,312,152526,5,4,1:0:0:0:
256,192,152601,12,4,153426,1:2:0:0:
88,80,153726,6,0,P|80:144|136:188,1,128,4|8,0:0|0:0,0:0:0:0:
147,119,154176,1,0,2:0:0:0:
200,167,154326,2,0,P|192:227|112:263,1,128,2|8,0:0|0:0,0:0:0:0:
75,291,154776,2,0,B|91:323|123:331|123:331|155:339|171:371,1,128,2|2,0:0|0:0,0:0:0:0:
232,336,155226,1,8,0:0:0:0:
232,336,155376,1,2,0:0:0:0:
232,336,155526,2,0,B|292:314|292:314|352:336,1,128,0|8,0:0|0:0,0:0:0:0:
432,216,156126,6,0,P|432:184|424:152,1,64,2|0,0:0|0:0,0:0:0:0:
392,90,156426,1,8,0:0:0:0:
392,90,156576,1,2,0:0:0:0:
336,136,156726,2,0,L|272:128,1,64,2|2,0:0|0:0,0:0:0:0:
264,120,156951,1,0,0:0:0:0:
256,112,157026,2,0,P|248:144|224:172,1,64,8|2,0:0|0:0,0:0:0:0:
167,201,157326,6,0,P|135:205|95:193,1,64,2|2,0:0|0:0,0:0:0:0:
55,148,157626,1,8,0:0:0:0:
55,148,157776,1,2,0:0:0:0:
32,216,157926,2,0,P|40:272|104:304,1,128,2|8,0:0|0:0,0:0:0:0:
240,336,158526,6,0,B|260:300|260:276|260:276|260:252|240:216,1,128,4|8,0:0|0:0,0:0:0:0:
112,88,159126,2,0,B|133:123|153:135|153:135|174:147|215:148,1,128,2|8,0:0|0:0,0:0:0:0:
286,161,159576,2,0,B|307:126|328:114|328:114|348:102|390:102,1,128,2|2,0:0|0:0,0:0:0:0:
460,112,160026,1,8,0:0:0:0:
460,112,160176,1,2,0:0:0:0:
416,168,160326,2,0,P|408:224|464:272,1,128,2|10,0:0|0:0,0:0:0:0:
320,328,160926,6,0,B|264:360|264:360|200:344,1,128,2|8,0:0|0:0,0:0:0:0:
216,276,161376,1,2,0:0:0:0:
168,224,161526,2,0,L|160:160,1,64,2|2,0:0|0:0,0:0:0:0:
164,152,161751,1,0,0:0:0:0:
168,144,161826,2,0,P|136:140|104:148,1,64,8|2,0:0|0:0,0:0:0:0:
48,188,162126,5,4,0:0:0:0:
256,192,162201,12,4,163026,0:0:0:0:
424,80,163326,6,0,P|432:144|376:188,1,128,4|8,0:0|0:0,0:0:0:0:
365,119,163776,1,0,2:0:0:0:
312,167,163926,2,0,P|320:227|400:263,1,128,2|8,0:0|0:0,0:0:0:0:
437,291,164376,2,0,B|421:323|389:331|389:331|357:339|341:371,1,128,2|2,0:0|0:0,0:0:0:0:
280,336,164826,1,8,0:0:0:0:
280,336,164976,1,2,0:0:0:0:
280,336,165126,2,0,B|220:314|220:314|160:336,1,128,0|8,0:0|0:0,0:0:0:0:
80,216,165726,6,0,P|80:184|88:152,1,64,2|0,0:0|0:0,0:0:0:0:
120,90,166026,1,8,0:0:0:0:
120,90,166176,1,2,0:0:0:0:
176,136,166326,2,0,L|240:128,1,64,2|2,0:0|0:0,0:0:0:0:
248,120,166551,1,0,0:0:0:0:
256,112,166626,2,0,P|264:144|288:172,1,64,8|2,0:0|0:0,0:0:0:0:
345,201,166926,6,0,P|377:205|417:193,1,64,2|2,0:0|0:0,0:0:0:0:
457,148,167226,1,8,0:0:0:0:
457,148,167376,1,2,0:0:0:0:
480,216,167526,2,0,P|472:272|408:304,1,128,2|8,0:0|0:0,0:0:0:0:
272,336,168126,6,0,B|252:300|252:276|252:276|252:252|272:216,1,128,4|8,0:0|0:0,0:0:0:0:
400,88,168726,2,0,B|378:123|358:135|358:135|337:147|296:148,1,128,2|8,0:0|0:0,0:0:0:0:
225,161,169176,2,0,B|204:126|183:114|183:114|163:102|122:102,1,128,2|2,0:0|0:0,0:0:0:0:
52,112,169626,1,8,0:0:0:0:
52,112,169776,1,2,0:0:0:0:
96,168,169926,2,0,P|104:224|48:272,1,128,2|10,0:0|0:0,0:0:0:0:
192,328,170526,6,0,B|248:360|248:360|312:344,1,128,2|8,0:0|0:0,0:0:0:0:
296,276,170976,1,2,0:0:0:0:
344,224,171126,2,0,L|352:160,1,64,2|2,0:0|0:0,0:0:0:0:
348,152,171351,1,0,0:0:0:0:
344,144,171426,2,0,P|376:140|408:148,1,64,8|2,0:0|0:0,0:0:0:0:
464,188,171726,5,4,1:0:0:0:
256,192,171801,12,0,172626,0:1:0:0:
152,88,172926,6,0,P|120:80|88:80,2,64,2|0|8,0:0|0:0|0:0,0:0:0:0:
216,120,173376,2,0,P|248:128|280:128,2,64,2|0|2,0:0|0:0|0:0,0:0:0:0:
156,161,173826,1,8,0:0:0:0:
156,161,173976,1,0,0:0:0:0:
156,161,174126,6,0,L|144:288,1,128,2|8,0:0|0:0,0:0:0:0:
204,328,174576,2,0,P|240:232|216:120,1,192,2|10,0:0|0:0,0:0:0:0:
352,56,175326,5,2,0:0:0:0:
420,76,175476,2,0,L|484:84,1,64,0|8,0:0|0:0,0:0:0:0:
500,152,175776,1,2,0:0:0:0:
466,214,175926,2,0,L|399:205,1,64,0|2,0:0|0:0,0:0:0:0:
352,156,176226,1,8,0:0:0:0:
352,156,176376,1,0,0:0:0:0:
328,224,176526,6,0,P|284:176|292:116,1,128,2|8,0:0|0:0,0:0:0:0:
224,96,176976,2,0,P|212:168|276:276,1,192,2|10,0:0|0:0,0:0:0:0:
104,240,177726,6,0,L|96:168,2,64,2|0|8,0:0|0:0|0:0,0:0:0:0:
159,286,178176,2,0,L|151:358,2,64,2|0|2,0:0|0:0|0:0,0:0:0:0:
216,240,178626,1,8,0:0:0:0:
216,240,178776,1,0,0:0:0:0:
216,240,178926,6,0,P|236:184|232:112,1,128,2|8,0:0|0:0,0:0:0:0:
168,88,179376,2,0,P|224:44|305:112,1,192,2|10,0:0|0:0,0:0:0:0:
440,192,180126,6,0,B|466:174|466:174|500:166,2,64,2|0|8,0:0|0:0|0:0,0:0:0:0:
401,251,180576,2,0,B|403:282|403:282|393:315,2,64,2|0|2,0:0|0:0|0:0,0:0:0:0:
369,186,181026,1,8,0:0:0:0:
369,186,181176,1,0,0:0:0:0:
369,186,181326,6,0,B|305:178|305:178|285:202|249:202,1,128,2|8,0:0|0:0,0:0:0:0:
251,130,181776,2,0,L|267:338,1,192,2|10,0:0|0:0,0:0:0:0:
120,288,182526,6,0,P|132:320|136:352,2,64,6|0|8,1:2|0:0|0:0,0:0:0:0:
67,238,182976,2,0,P|34:232|4:219,2,64,2|0|2,0:0|0:0|0:0,0:0:0:0:
137,218,183426,1,8,0:0:0:0:
137,218,183576,1,0,0:0:0:0:
137,218,183726,6,0,P|201:194|273:202,1,128,2|8,0:0|0:0,0:0:0:0:
263,268,184176,2,0,B|296:265|324:246|329:209|329:209|348:241|382:246|412:236,1,192,2|10,0:0|0:0,0:0:0:0:
376,105,184926,6,0,L|392:193,2,64,2|0|8,0:0|0:0|0:0,0:0:0:0:
344,40,185376,2,0,P|375:33|413:43,2,64,2|0|2,0:0|0:0|0:0,0:0:0:0:
280,72,185826,1,8,0:0:0:0:
280,72,185976,1,0,0:0:0:0:
280,72,186126,6,0,P|288:128|224:180,1,128,2|8,0:0|0:0,0:0:0:0:
218,108,186576,2,0,P|176:147|234:248,1,192,2|10,0:0|0:0,0:0:0:0:
368,304,187326,6,0,P|400:296|448:296,2,64,4|0|8,1:2|0:0|0:0,0:0:0:0:
304,336,187776,2,0,P|272:344|224:344,2,64,2|0|2,0:0|0:0|0:0,0:0:0:0:
308,264,188226,1,8,0:0:0:0:
308,264,188376,1,0,0:0:0:0:
308,264,188526,2,0,B|304:226|320:202|320:202|336:178|332:140,1,128,4|8,1:2|0:0,0:0:0:0:
392,103,188976,2,0,B|328:111|328:111|272:84|272:84|208:92,1,192,2|10,0:0|0:0,0:0:0:0:
80,176,189726,5,4,1:2:0:0:
80,176,189876,2,0,L|88:240,1,64,0|8,0:0|0:0,0:0:0:0:
152,272,190176,1,2,0:0:0:0:
152,272,190326,2,0,P|184:274|216:264,1,64,4|2,1:2|0:0,0:0:0:0:
269,218,190626,1,8,0:0:0:0:
269,218,190776,1,0,0:0:0:0:
269,218,190926,6,0,B|312:244|368:228|392:184|392:184|372:212|376:252,2,192,4|4|4,0:0|0:0|0:0,0:0:0:0:
24,184,192651,6,0,B|56:168|88:176|88:176|120:184|152:168|152:168|152:256|152:256|208:328|208:328|242:243|242:243|216:160|216:160|248:172|280:152|280:152|286:240|286:240|352:308|352:308|376:218|376:218|344:137|344:137|371:140|392:124|392:124|398:206|398:206|459:275|459:275|485:187|485:187|455:111|455:111|492:114|514:92|514:92,1,1382.3999578125,4|0,1:0|0:0,0:0:0:0:
