osu file format v14

[General]
AudioFilename: -------------.mp3
AudioLeadIn: 1500
PreviewTime: 96126
Countdown: 0
SampleSet: Normal
StackLeniency: 0.3
Mode: 0
LetterboxInBreaks: 0
WidescreenStoryboard: 0

[Editor]
DistanceSpacing: 1.1
BeatDivisor: 4
GridSize: 4
TimelineZoom: 2.4

[Metadata]
Title:Saishoukichiku Imouto Flandre S
TitleUnicode:最終鬼畜妹フランドール・S
Artist:COOL&CREATE
ArtistUnicode:COOL&CREATE
Creator:UnLock-
Version:Lunatic
Source:東方Project
Tags:Sonnyc Left Doyak bbj0920 Hello- Karia TH06 東方紅魔郷_~_the_Embodiment_of_Scarlet_Devil U.N.Owen_was_Her?_Remix Flandre_Scarlet
BeatmapID:650745
BeatmapSetID:264977

[Difficulty]
HPDrainRate:6
CircleSize:4
OverallDifficulty:7
ApproachRate:9
SliderMultiplier:1.6
SliderTickRate:1

[Events]
//Background and Video events
0,0,"BG.jpg",0,0
//Break Periods
2,77126,85926
2,115526,124326
//Storyboard Layer 0 (Background)
//Storyboard Layer 1 (Fail)
//Storyboard Layer 2 (Pass)
//Storyboard Layer 3 (Foreground)
//Storyboard Sound Samples

[TimingPoints]
126,300,4,1,0,30,1,0
2526,-100,4,1,0,40,0,0
4926,-100,4,1,0,50,0,0
7326,-100,4,1,0,70,0,0
38526,-100,4,1,0,70,0,1
57726,-100,4,1,0,70,0,0
96126,-100,4,1,0,70,0,1
115326,-100,4,1,0,70,0,0
124926,-100,4,1,0,40,0,0
127326,-100,4,1,0,50,0,0
128526,-100,4,1,0,60,0,0
132126,-100,4,1,0,60,0,0
144126,-100,4,1,0,70,0,1
152526,-100,4,1,0,70,0,0
153726,-100,4,1,0,70,0,1
171726,-100,4,1,0,70,0,0
192726,-100,4,1,0,30,0,0
193326,-100,4,1,0,20,0,0
194526,-100,4,1,0,10,0,0
195726,-100,4,1,0,5,0,0

[Colours]
Combo1 : 255,255,0
Combo2 : 255,111,111
Combo3 : 47,151,255
Combo4 : 128,255,128

[HitObjects]
148,96,126,5,0,0:0:0:0:
256,192,201,12,0,2226,0:0:0:0:
364,96,2526,5,0,0:0:0:0:
256,192,2601,12,0,4626,0:0:0:0:
364,288,4926,5,0,0:0:0:0:
256,192,5001,12,0,7026,0:0:0:0:
148,288,7326,5,0,0:0:0:0:
256,192,7401,12,0,8226,0:0:0:0:
148,288,8526,6,0,L|200:276,7,40
252,332,9126,6,0,L|304:344,3,40,0|0|0|0,0:0|0:0|0:0|0:0,0:0:0:0:
352,288,9426,2,0,L|404:276,3,40
472,284,9726,6,0,L|464:196,1,80,4|0,0:0|0:0,0:0:0:0:
360,56,10026,2,0,L|352:135,1,80,0|0,0:0|0:0,0:0:0:0:
208,236,10326,2,0,P|232:176|208:84,1,160,0|0,0:0|0:0,0:0:0:0:
152,20,10776,1,0,0:0:0:0:
152,20,10926,2,0,P|129:52|122:91,1,80,0|0,0:0|0:0,0:0:0:0:
233,163,11226,2,0,B|196:152|156:164|156:164|116:176|76:164,2,160,0|0|2,0:0|0:0|0:2,0:0:0:0:
404,344,12126,6,0,P|328:300|256:320,1,160,4|0,0:0|0:0,0:0:0:0:
184,356,12576,1,0,0:0:0:0:
144,280,12726,2,0,P|136:241|143:201,1,80,0|0,0:0|0:0,0:0:0:0:
292,76,13026,2,0,P|299:114|292:154,1,80,0|0,0:0|0:0,0:0:0:0:
434,350,13326,6,0,P|401:278|416:201,1,160,0|0,0:0|0:0,0:0:0:0:
468,128,13776,1,0,0:0:0:0:
400,76,13926,2,0,L|312:96,1,80,0|0,0:0|0:0,0:0:0:0:
134,150,14226,2,0,L|212:167,1,80,2|0,0:2|0:0,0:0:0:0:
436,312,14526,6,0,L|352:304,1,80,4|0,0:0|0:0,0:0:0:0:
262,174,14826,2,0,P|283:208|288:248,1,80,0|0,0:0|0:0,0:0:0:0:
126,351,15126,2,0,P|198:320|276:336,1,160,0|0,0:0|0:0,0:0:0:0:
356,372,15576,1,0,0:0:0:0:
436,340,15726,6,0,L|436:180,1,160,4|0,0:0|0:0,0:0:0:0:
412,96,16176,1,0,0:0:0:0:
332,55,16326,2,0,P|324:93|331:133,1,80,0|0,0:0|0:0,0:0:0:0:
208,352,16626,2,0,P|215:313|208:273,1,80,2|0,0:2|0:0,0:0:0:0:
68,72,16926,5,4,0:0:0:0:
68,72,17226,1,0,0:0:0:0:
156,68,17376,1,0,0:0:0:0:
244,64,17526,1,4,0:0:0:0:
100,240,17826,5,0,0:0:0:0:
24,284,17976,2,0,P|99:263|172:292,1,160,4|0,0:0|0:0,0:0:0:0:
326,336,18426,2,0,P|287:343|248:336,1,80,0|0,0:0|0:0,0:0:0:0:
416,212,18726,1,0,0:0:0:0:
408,300,18876,1,0,0:0:0:0:
336,248,19026,2,0,P|327:209|338:170,1,80,2|0,0:2|0:0,0:0:0:0:
200,88,19326,5,4,0:0:0:0:
224,172,19476,1,0,0:0:0:0:
244,256,19626,2,0,L|244:352,1,80,8|0,0:0|0:0,0:0:0:0:
128,368,19926,2,0,P|159:296|142:219,1,160,0|8,0:0|0:0,0:0:0:0:
96,144,20376,1,0,0:0:0:0:
40,76,20526,2,0,P|74:57|114:57,1,80,0|0,0:0|0:0,0:0:0:0:
348,70,20826,2,0,P|276:102|199:87,2,160,8|0|8,0:0|0:0|0:0,0:0:0:0:
424,24,21576,1,0,0:0:0:0:
484,88,21726,6,0,B|476:128|476:128|479:167,1,80,4|0,0:0|0:0,0:0:0:0:
495,255,22026,2,0,P|419:235|341:252,1,160,8|0,0:0|0:0,0:0:0:0:
256,288,22476,1,0,0:0:0:0:
171,256,22626,2,0,P|137:275|117:309,1,80,8|8,0:0|0:0,0:0:0:0:
52,136,22926,6,0,L|136:136,1,80,0|0,0:0|0:0,0:0:0:0:
188,68,23226,2,0,B|252:68|252:68|308:68|335:107,1,160,8|0,0:0|0:0,0:0:0:0:
396,168,23676,1,0,0:0:0:0:
464,107,23826,2,0,P|471:69|463:30,1,80,8|8,0:0|0:0,0:0:0:0:
328,224,24126,6,0,B|344:264|328:304|328:304|312:344|326:380,1,160,4|8,0:0|0:0,0:0:0:0:
408,344,24576,1,0,0:0:0:0:
251,267,24726,2,0,P|212:262|174:274,1,80,0|0,0:0|0:0,0:0:0:0:
44,368,25026,2,0,P|83:373|121:361,1,80,8|0,0:0|0:0,0:0:0:0:
120,172,25326,6,0,P|81:162|41:168,2,80,0|0|8,0:0|0:0|0:0,0:0:0:0:
204,148,25776,1,0,0:0:0:0:
288,120,25926,2,0,P|326:129|366:123,1,80,0|0,0:0|0:0,0:0:0:0:
508,216,26226,2,0,P|469:206|429:212,1,80,8|0,0:0|0:0,0:0:0:0:
353,343,26526,6,0,P|370:266|344:192,1,160,4|8,0:0|0:0,0:0:0:0:
288,120,26976,1,0,0:0:0:0:
212,71,27126,2,0,P|198:108|203:147,1,80,0|0,0:0|0:0,0:0:0:0:
260,344,27426,2,0,P|274:307|268:267,1,80,8|8,0:0|0:0,0:0:0:0:
120,73,27726,6,0,P|102:150|129:224,1,160,0|8,0:0|0:0,0:0:0:0:
185,296,28176,1,0,0:0:0:0:
260,344,28326,2,0,P|274:307|268:267,1,80,0|0,0:0|0:0,0:0:0:0:
368,88,28626,2,0,P|353:124|359:164,1,80,8|8,0:0|0:0,0:0:0:0:
419,304,28926,6,0,P|347:270|268:267,1,160,4|8,0:0|0:0,0:0:0:0:
185,296,29376,1,0,0:0:0:0:
112,348,29526,2,0,B|112:304|112:304|100:269,1,80,0|0,0:0|0:0,0:0:0:0:
40,100,29826,2,0,B|40:140|40:140|28:184,1,80,8|0,0:0|0:0,0:0:0:0:
216,132,30126,1,0,0:0:0:0:
128,116,30276,1,0,0:0:0:0:
40,100,30426,2,0,B|40:140|40:140|28:180|28:180|20:232|48:252,1,160,8|0,0:0|0:0,0:0:0:0:
136,240,30876,1,0,0:0:0:0:
208,288,31026,2,0,P|236:263|246:220,1,80,8|0,0:0|0:0,0:0:0:0:
384,48,31326,6,0,P|348:132|376:200,1,160,4|8,0:0|0:0,0:0:0:0:
420,264,31776,1,0,0:0:0:0:
472,336,31926,2,0,P|435:352|396:349,1,80,0|0,0:0|0:0,0:0:0:0:
260,240,32226,1,8,0:0:0:0:
260,240,32376,1,8,0:0:0:0:
124,344,32526,6,0,P|160:260|132:192,1,160,0|8,0:0|0:0,0:0:0:0:
88,128,32976,1,0,0:0:0:0:
36,56,33126,2,0,P|72:39|111:42,1,80,0|0,0:0|0:0,0:0:0:0:
260,132,33426,1,8,0:0:0:0:
260,132,33576,1,8,0:0:0:0:
488,192,33726,6,0,P|416:224|340:205,1,160,4|8,0:0|0:0,0:0:0:0:
260,240,34176,1,0,0:0:0:0:
188,292,34326,2,0,P|172:240|184:192,1,80,0|0,0:0|0:0,0:0:0:0:
101,51,34626,2,0,P|102:90|87:127,1,80,8|0,0:0|0:0,0:0:0:0:
28,363,34926,6,0,B|0:332|12:304|12:304|48:212,1,160,0|8,0:0|0:0,0:0:0:0:
128,176,35376,1,0,0:0:0:0:
196,119,35526,2,0,P|209:82|199:44,1,80,0|0,0:0|0:0,0:0:0:0:
376,12,35826,2,0,P|362:49|372:87,1,80,8|0,0:0|0:0,0:0:0:0:
448,320,36126,6,0,B|460:276|460:276|448:236|448:236|460:216|460:176|448:160,1,160,4|8,0:0|0:0,0:0:0:0:
368,200,36576,1,0,0:0:0:0:
291,247,36726,2,0,P|280:210|283:170,1,80,0|0,0:0|0:0,0:0:0:0:
376,12,37026,2,0,P|387:49|384:89,1,80,8|8,0:0|0:0,0:0:0:0:
172,208,37326,5,0,0:0:0:0:
156,120,37476,1,0,0:0:0:0:
236,152,37626,1,8,0:0:0:0:
92,180,37776,1,0,0:0:0:0:
140,32,37926,2,0,L|164:0,7,40,0|0|0|0|0|0|0|0,0:0|0:0|3:0|3:0|3:0|3:0|3:0|3:0,0:0:0:0:
140,32,38526,6,0,L|224:44,1,80,4|0,0:0|0:0,0:0:0:0:
408,92,38826,2,0,L|324:104,1,80,8|0,0:0|0:0,0:0:0:0:
176,224,39126,2,0,P|264:204|332:256,1,160,0|8,0:0|0:0,0:0:0:0:
396,364,39576,2,0,B|420:336|420:296|400:264|400:264|408:240|400:212,1,160
452,140,40026,2,0,L|356:124,1,80,8|0,0:0|0:0,0:0:0:0:
192,56,40326,2,0,L|270:42,1,80
63,181,40626,2,0,L|12:152,3,40,2|0|0|0,0:0|0:0|0:0|0:0,0:0:0:0:
63,181,40926,6,0,P|71:220|67:259,1,80,4|0,0:0|0:0,0:0:0:0:
208,360,41226,2,0,P|199:320|203:281,1,80,8|0,0:0|0:0,0:0:0:0:
376,280,41526,1,4,0:0:0:0:
296,316,41676,1,0,0:0:0:0:
296,316,41751,1,0,0:0:0:0:
296,315,41826,2,0,L|296:236,1,80,8|0,0:0|0:0,0:0:0:0:
396,84,42126,6,0,P|392:123|368:155,1,80,4|0,0:0|0:0,0:0:0:0:
228,152,42426,2,0,P|203:120|199:81,1,80,8|0,0:0|0:0,0:0:0:0:
60,52,42726,2,0,B|56:79|67:111|67:111|59:155|59:155|71:183|60:210,1,160,0|8,0:0|0:0,0:0:0:0:
12,280,43176,1,8,0:0:0:0:
140,320,43326,6,0,L|218:304,1,80,4|0,0:0|0:0,0:0:0:0:
408,264,43626,2,0,L|329:248,1,80,8|0,0:0|0:0,0:0:0:0:
156,156,43926,2,0,B|234:153|234:153|288:152|297:106,1,160,0|8,0:0|0:0,0:0:0:0:
432,44,44376,2,0,B|420:88|448:120|448:120|416:144|412:187,1,160,0|0,0:0|0:0,0:0:0:0:
461,260,44826,2,0,P|487:229|500:192,1,80,8|0,0:0|0:0,0:0:0:0:
296,30,45126,2,0,L|296:110,1,80
216,284,45426,2,0,L|242:317,3,40,2|0|0|0,0:0|0:0|0:0|0:0,0:0:0:0:
216,284,45726,6,0,P|177:293|138:285,1,80,4|0,0:0|0:0,0:0:0:0:
12,132,46026,2,0,P|51:125|89:136,1,80,8|0,0:0|0:0,0:0:0:0:
264,180,46326,1,4,0:0:0:0:
176,200,46476,1,0,0:0:0:0:
180,156,46551,1,0,0:0:0:0:
200,115,46626,2,0,P|211:78|206:38,1,80,8|0,0:0|0:0,0:0:0:0:
356,32,46926,6,0,L|352:80,3,40,4|0|0|0,0:0|0:0|0:0|0:0,0:0:0:0:
400,136,47226,2,0,L|404:184,3,40,8|0|0|0,0:0|0:0|0:0|0:0,0:0:0:0:
428,252,47526,6,0,L|376:260,1,40
336,332,47676,2,0,L|284:324,1,40
232,260,47826,2,0,L|180:268,1,40,8|0,0:0|0:0,0:0:0:0:
140,340,47976,2,0,L|88:332,1,40,8|0,0:0|0:0,0:0:0:0:
88,253,48126,6,0,P|100:215|93:176,1,80,4|0,0:0|0:0,0:0:0:0:
276,108,48426,2,0,P|269:147|281:185,1,80,8|0,0:0|0:0,0:0:0:0:
408,336,48726,2,0,B|436:320|436:284|436:284|408:236|433:190,1,160,0|8,0:0|0:0,0:0:0:0:
508,68,49176,2,0,B|470:88|428:68|428:68|386:48|342:68,1,160,0|0,0:0|0:0,0:0:0:0:
276,108,49626,2,0,L|192:124,1,80,8|0,0:0|0:0,0:0:0:0:
8,164,49926,2,0,L|92:180,1,80,0|0,0:0|0:0,0:0:0:0:
162,289,50226,2,0,L|224:272,3,40,2|0|0|0,0:0|0:0|0:0|0:0,0:0:0:0:
162,289,50526,6,0,L|168:200,1,80,4|0,0:0|0:0,0:0:0:0:
272,44,50826,2,0,L|276:123,1,80,8|0,0:0|0:0,0:0:0:0:
400,256,51126,1,4,0:0:0:0:
332,200,51276,1,0,0:0:0:0:
332,200,51351,1,0,0:0:0:0:
331,200,51426,2,0,P|311:234|311:275,1,80,8|0,0:0|0:0,0:0:0:0:
489,274,51726,6,0,P|487:234|468:199,1,80,4|0,0:0|0:0,0:0:0:0:
352,40,52026,2,0,P|353:79|372:114,1,80,8|0,0:0|0:0,0:0:0:0:
228,248,52326,2,0,P|240:160|200:96,1,160,0|8,0:0|0:0,0:0:0:0:
124,64,52776,1,8,0:0:0:0:
39,96,52926,6,0,P|21:131|14:170,1,80,4|0,0:0|0:0,0:0:0:0:
100,344,53226,2,0,P|126:314|144:278,1,80,8|0,0:0|0:0,0:0:0:0:
236,104,53526,2,0,P|240:168|304:244,1,160,0|8,0:0|0:0,0:0:0:0:
436,288,53976,2,0,B|446:249|432:208|432:208|448:168|448:168|436:128,1,160
384,64,54426,2,0,L|300:80,1,80,8|0,0:0|0:0,0:0:0:0:
120,16,54726,2,0,L|204:32,1,80,0|0,0:0|0:0,0:0:0:0:
324,184,55026,2,0,L|380:196,3,40,2|0|0|0,0:0|0:0|0:0|0:0,0:0:0:0:
323,184,55326,6,0,P|287:200|248:200,1,80,4|0,0:0|0:0,0:0:0:0:
176,148,55626,1,8,0:0:0:0:
272,296,55776,1,0,0:0:0:0:
100,312,55926,1,4,0:0:0:0:
181,272,56076,1,0,0:0:0:0:
181,272,56151,1,0,0:0:0:0:
181,272,56226,2,0,P|187:311|181:350,1,80,8|0,0:0|0:0,0:0:0:0:
368,360,56526,6,0,L|380:316,3,40,4|0|0|0,0:0|0:0|0:0|0:0,0:0:0:0:
456,284,56826,2,0,L|445:239,3,40,8|0|0|0,0:0|0:0|0:0|0:0,0:0:0:0:
456,164,57126,6,0,L|424:140,1,40,8|0,0:0|0:0,0:0:0:0:
440,48,57276,2,0,L|472:72,1,40,8|0,0:0|0:0,0:0:0:0:
328,168,57426,2,0,L|296:144,1,40,8|0,0:0|0:0,0:0:0:0:
316,56,57576,2,0,L|348:80,1,40,8|0,0:0|0:0,0:0:0:0:
219,106,57726,6,0,L|128:104,1,80,4|0,0:0|0:0,0:0:0:0:
56,72,58026,1,0,0:0:0:0:
56,72,58176,1,0,0:0:0:0:
165,202,58326,2,0,L|256:200,1,80,0|0,0:0|0:0,0:0:0:0:
328,168,58626,1,0,0:0:0:0:
328,168,58776,1,0,0:0:0:0:
410,351,58926,6,2,P|379:280|408:208,1,160,2|0,0:0|0:0,0:0:0:0:
216,132,59376,2,0,P|247:203|218:275,1,160,2|0,0:0|0:0,0:0:0:0:
48,364,59826,2,0,P|28:329|23:290,1,80,2|0,0:0|0:0,0:0:0:0:
120,56,60126,6,0,P|128:94|119:133,1,80,0|0,0:0|0:0,0:0:0:0:
75,211,60426,1,0,0:0:0:0:
75,211,60576,1,0,0:0:0:0:
217,353,60726,2,0,P|208:314|217:275,1,80,0|0,0:0|0:0,0:0:0:0:
262,198,61026,1,0,0:0:0:0:
262,198,61176,1,0,0:0:0:0:
453,88,61326,6,2,B|434:84|416:96|416:96|355:60|302:98,1,160,0|0,0:0|0:0,0:0:0:0:
112,36,61776,2,0,B|131:40|131:40|156:28|156:28|184:40|184:40|216:20|263:26,1,160,2|0,0:0|0:0,0:0:0:0:
100,128,62226,2,0,L|20:121,1,80,2|0,0:0|0:0,0:0:0:0:
156,324,62526,6,0,L|235:317,1,80,0|0,0:0|0:0,0:0:0:0:
304,264,62826,1,0,0:0:0:0:
316,352,62976,1,0,0:0:0:0:
144,236,63126,2,0,L|223:229,1,80,0|0,0:0|0:0,0:0:0:0:
292,176,63426,1,0,0:0:0:0:
304,264,63576,1,0,0:0:0:0:
133,147,63726,6,2,B|165:133|196:144|196:144|212:96|264:80,1,160,0|0,0:0|0:0,0:0:0:0:
443,164,64176,2,0,P|461:99|397:116,1,160,2|0,0:0|0:0,0:0:0:0:
456,311,64626,2,0,P|467:274|455:236,1,80,2|0,0:0|0:0,0:0:0:0:
332,32,64926,6,0,B|320:80|320:80|326:109,1,80,0|0,0:0|0:0,0:0:0:0:
368,188,65226,1,0,0:0:0:0:
368,188,65376,1,0,0:0:0:0:
216,332,65526,2,0,B|227:289|227:289|220:254,1,80,0|0,0:0|0:0,0:0:0:0:
180,172,65826,1,0,0:0:0:0:
180,172,65976,1,0,0:0:0:0:
40,20,66126,6,2,B|68:40|69:74|69:74|48:120|64:176,1,160,0|0,0:0|0:0,0:0:0:0:
28,368,66576,2,0,B|8:352|0:324|0:324|48:292|104:306,1,160,2|0,0:0|0:0,0:0:0:0:
300,348,67026,2,0,P|256:360|216:344,1,80,2|2,0:0|0:0,0:0:0:0:
8,240,67326,6,0,P|52:228|96:228,1,80,4|0,0:0|0:0,0:0:0:0:
172,252,67626,1,0,0:0:0:0:
172,252,67776,1,0,0:0:0:0:
104,64,67926,2,0,P|145:83|179:111,1,80,0|0,0:0|0:0,0:0:0:0:
221,178,68226,1,0,0:0:0:0:
221,178,68376,1,0,0:0:0:0:
303,359,68526,6,2,B|328:352|328:352|339:320|339:320|394:336|427:288,1,160,0|0,0:0|0:0,0:0:0:0:
340,92,68976,2,0,B|303:106|263:90|263:90|223:74|183:90,1,160,2|0,0:0|0:0,0:0:0:0:
40,252,69426,2,0,P|48:290|69:324,1,80,2|0,0:0|0:0,0:0:0:0:
303,359,69726,6,0,B|304:312|304:312|284:280,1,80,0|0,0:0|0:0,0:0:0:0:
220,224,70026,1,0,0:0:0:0:
204,312,70176,1,0,0:0:0:0:
400,356,70326,2,0,B|399:309|399:309|419:277,1,80,0|0,0:0|0:0,0:0:0:0:
484,224,70626,1,0,0:0:0:0:
500,312,70776,1,0,0:0:0:0:
416,139,70926,6,2,P|343:168|270:139,1,160,0|0,0:0|0:0,0:0:0:0:
52,164,71376,2,0,P|124:135|197:164,1,160,2|0,0:0|0:0,0:0:0:0:
416,139,71826,2,0,P|427:102|422:62,1,80,2|0,0:0|0:0,0:0:0:0:
260,244,72126,6,0,P|248:281|253:321,1,80,0|0,0:0|0:0,0:0:0:0:
328,368,72426,1,0,0:0:0:0:
328,368,72576,1,0,0:0:0:0:
490,186,72726,2,0,P|501:148|496:108,1,80,0|0,0:0|0:0,0:0:0:0:
422,62,73026,1,0,0:0:0:0:
422,62,73176,1,0,0:0:0:0:
176,72,73326,6,2,L|176:232,1,160,0|0,0:0|0:0,0:0:0:0:
288,20,73776,2,0,L|288:180,1,160,2|0,0:0|0:0,0:0:0:0:
108,340,74226,2,0,L|108:256,1,80,2|0,0:0|0:0,0:0:0:0:
372,180,74526,6,0,P|401:206|439:219,1,80
447,127,74826,1,0,0:0:0:0:
447,127,74976,1,0,0:0:0:0:
364,276,75126,2,0,P|334:302|296:315,1,80
288,223,75426,1,0,0:0:0:0:
288,223,75576,1,0,0:0:0:0:
448,328,75726,6,0,B|524:304|524:304|448:276,1,160,4|0,0:0|0:0,0:0:0:0:
288,274,76176,2,0,B|212:250|212:250|288:222,1,160,4|0,0:0|0:0,0:0:0:0:
452,212,76626,1,4,0:0:0:0:
400,88,76776,1,0,0:0:0:0:
248,112,76926,5,0,0:0:0:0:
40,312,86526,5,4,0:3:0:0:
40,312,86676,1,0,0:0:0:0:
40,311,86826,2,0,P|77:299|116:306,1,80,8|0,0:0|0:0,0:0:0:0:
192,348,87126,2,0,P|276:320|348:360,1,160,0|8,0:0|0:0,0:0:0:0:
424,368,87576,2,0,P|408:276|424:200,1,160
436,124,88026,1,8,0:0:0:0:
500,184,88176,1,0,0:0:0:0:
352,152,88326,5,0,0:0:0:0:
452,36,88476,1,0,0:0:0:0:
500,184,88626,2,0,P|504:224|488:260,1,80,8|8,0:0|0:0,0:0:0:0:
340,272,88926,5,4,0:3:0:0:
340,272,89076,1,0,0:0:0:0:
340,272,89226,2,0,P|303:258|264:256,1,80,8|0,0:0|0:0,0:0:0:0:
196,308,89526,2,0,P|181:244|100:192,1,160,0|8,0:0|0:0,0:0:0:0:
24,228,89976,2,0,B|8:204|8:204|24:176|24:176|-8:128|12:80,1,160,0|0,0:0|0:0,0:0:0:0:
92,44,90426,1,8,0:0:0:0:
172,80,90576,1,0,0:0:0:0:
252,116,90726,5,2,0:0:0:0:
180,168,90876,1,2,0:0:0:0:
332,152,91026,1,2,0:0:0:0:
248,28,91176,1,2,0:0:0:0:
268,284,91326,5,4,0:0:0:0:
268,284,92526,5,4,0:0:0:0:
268,284,93726,5,4,0:0:0:0:
268,284,93876,1,0,0:0:0:0:
268,284,94026,2,0,L|272:200,1,80,8|0,0:0|0:0,0:0:0:0:
188,64,94326,1,0,0:0:0:0:
188,64,94476,1,0,0:0:0:0:
188,64,94626,2,0,L|192:148,1,80,8|0,0:0|0:0,0:0:0:0:
396,268,94926,5,0,0:0:0:0:
504,196,95076,1,0,0:0:0:0:
416,180,95226,1,8,0:0:0:0:
488,284,95376,1,0,0:0:0:0:
476,104,95526,6,0,L|432:96,1,40,2|0,0:0|0:0,0:0:0:0:
376,40,95676,2,0,L|328:52,1,40,2|0,0:0|0:0,0:0:0:0:
288,128,95826,2,0,L|244:120,1,40,2|0,0:0|0:0,0:0:0:0:
188,64,95976,2,0,L|140:76,1,40,2|0,0:0|0:0,0:0:0:0:
48,64,96126,6,0,L|72:156,1,80,4|0,0:0|0:0,0:0:0:0:
0,328,96426,2,0,L|24:236,1,80,8|0,0:0|0:0,0:0:0:0:
183,144,96726,2,0,P|178:221|230:279,1,160,0|8,0:0|0:0,0:0:0:0:
416,219,97176,2,0,P|364:165|296:196,1,160
456,316,97626,2,0,P|489:295|512:263,1,80,8|0,0:0|0:0,0:0:0:0:
472,108,97926,1,0,0:0:0:0:
472,108,98076,1,0,0:0:0:0:
296,196,98226,2,0,L|252:168,3,40,2|0|0|0,0:0|0:0|0:0|0:0,0:0:0:0:
296,196,98526,6,0,P|305:234|300:274,1,80,4|0,0:0|0:0,0:0:0:0:
112,328,98826,2,0,P|103:290|108:250,1,80,8|0,0:0|0:0,0:0:0:0:
84,56,99126,1,4,0:0:0:0:
160,100,99276,1,0,0:0:0:0:
160,100,99351,1,0,0:0:0:0:
160,100,99426,2,0,L|239:105,1,80,8|0,0:0|0:0,0:0:0:0:
428,52,99726,6,0,L|340:60,1,80,4|0,0:0|0:0,0:0:0:0:
448,152,100026,2,0,L|368:159,1,80,8|0,0:0|0:0,0:0:0:0:
462,256,100326,2,0,B|400:260|400:260|368:268|356:320|370:341,1,160,0|8,0:0|0:0,0:0:0:0:
284,364,100776,1,8,0:0:0:0:
108,347,100926,6,0,P|118:309|112:270,1,80,4|0,0:0|0:0,0:0:0:0:
52,80,101226,2,0,P|41:118|47:157,1,80,8|0,0:0|0:0,0:0:0:0:
240,179,101526,2,0,P|210:114|145:146,1,160,0|8,0:0|0:0,0:0:0:0:
304,252,101976,2,0,B|340:232|340:188|340:188|340:105,1,160,0|0,0:0|0:0,0:0:0:0:
145,146,102426,2,0,L|147:225,1,80,8|0,0:0|0:0,0:0:0:0:
240,340,102726,1,0,0:0:0:0:
240,340,102876,1,0,0:0:0:0:
416,300,103026,2,0,L|448:332,3,40,2|0|0|0,0:0|0:0|0:0|0:0,0:0:0:0:
416,300,103326,6,0,P|405:261|410:221,1,80,4|0,0:0|0:0,0:0:0:0:
280,76,103626,2,0,P|284:115|274:154,1,80,8|0,0:0|0:0,0:0:0:0:
116,272,103926,1,4,0:0:0:0:
56,144,104076,1,0,0:0:0:0:
56,144,104151,1,0,0:0:0:0:
56,144,104226,2,0,L|160:144,1,80,8|0,0:0|0:0,0:0:0:0:
280,76,104526,6,0,L|312:104,3,40,12|0|0|0,0:0|0:0|0:0|0:0,0:0:0:0:
400,96,104826,2,0,L|406:138,3,40,8|0|0|0,0:0|0:0|0:0|0:0,0:0:0:0:
468,200,105126,6,0,L|444:244,1,40,8|0,0:0|0:0,0:0:0:0:
392,320,105276,2,0,L|368:276,1,40,8|0,0:0|0:0,0:0:0:0:
288,228,105426,2,0,L|264:272,1,40,8|0,0:0|0:0,0:0:0:0:
212,348,105576,2,0,L|188:304,1,40,8|0,0:0|0:0,0:0:0:0:
104,267,105726,6,0,P|111:229|104:189,1,80,4|0,0:0|0:0,0:0:0:0:
232,40,106026,2,0,P|224:78|231:118,1,80,8|0,0:0|0:0,0:0:0:0:
417,174,106326,2,0,P|339:170|287:227,1,160,0|8,0:0|0:0,0:0:0:0:
128,344,106776,2,0,B|132:296|104:268|104:268|120:224|104:192,1,160,0|0,0:0|0:0,0:0:0:0:
68,44,107226,1,8,0:0:0:0:
148,80,107376,1,0,0:0:0:0:
231,117,107526,2,0,P|269:107|308:116,1,80,0|0,0:0|0:0,0:0:0:0:
429,48,107826,2,0,L|461:5,3,40,2|0|0|0,0:0|0:0|0:0|0:0,0:0:0:0:
428,48,108126,6,0,P|422:87|429:126,1,80,4|0,0:0|0:0,0:0:0:0:
500,310,108426,2,0,P|468:285|430:271,1,80,8|0,0:0|0:0,0:0:0:0:
244,236,108726,1,4,0:0:0:0:
311,195,108876,1,0,0:0:0:0:
311,195,108951,1,0,0:0:0:0:
311,194,109026,2,0,P|317:154|308:116,1,80,8|0,0:0|0:0,0:0:0:0:
124,48,109326,6,0,L|212:56,1,80,4|0,0:0|0:0,0:0:0:0:
104,148,109626,2,0,L|184:155,1,80,8|0,0:0|0:0,0:0:0:0:
90,252,109926,2,0,B|152:256|152:256|184:264|196:316|182:337,1,160,0|8,0:0|0:0,0:0:0:0:
272,352,110376,1,8,0:0:0:0:
448,335,110526,6,0,P|438:297|444:258,1,80,4|0,0:0|0:0,0:0:0:0:
504,68,110826,2,0,P|515:106|509:145,1,80,8|0,0:0|0:0,0:0:0:0:
316,167,111126,2,0,P|346:102|411:134,1,160,0|8,0:0|0:0,0:0:0:0:
252,240,111576,2,0,B|216:220|216:176|216:176|216:93,1,160,0|0,0:0|0:0,0:0:0:0:
411,134,112026,2,0,L|409:213,1,80,8|0,0:0|0:0,0:0:0:0:
316,328,112326,1,0,0:0:0:0:
316,328,112476,1,0,0:0:0:0:
140,288,112626,2,0,L|108:320,3,40,2|0|0|0,0:0|0:0|0:0|0:0,0:0:0:0:
140,288,112926,6,0,P|151:249|146:209,1,80,4|0,0:0|0:0,0:0:0:0:
276,64,113226,2,0,P|272:103|282:142,1,80,8|0,0:0|0:0,0:0:0:0:
440,260,113526,1,4,0:0:0:0:
500,132,113676,1,0,0:0:0:0:
500,132,113751,1,0,0:0:0:0:
500,132,113826,2,0,L|396:132,1,80,8|0,0:0|0:0,0:0:0:0:
276,64,114126,6,0,L|244:92,3,40,12|0|0|0,0:0|0:0|0:0|0:0,0:0:0:0:
156,84,114426,2,0,L|150:126,3,40,8|0|0|0,0:0|0:0|0:0|0:0,0:0:0:0:
132,224,114726,5,8,0:0:0:0:
172,204,114801,1,0,0:0:0:0:
216,192,114876,2,8,L|268:192,1,40,8|0,0:0|0:0,0:0:0:0:
356,256,115026,1,8,0:0:0:0:
316,276,115101,1,0,0:0:0:0:
272,288,115176,2,8,L|220:288,1,40,8|0,0:0|0:0,0:0:0:0:
132,224,115326,5,12,0:0:0:0:
256,192,124926,5,0,0:0:0:0:
256,192,125001,12,0,127176,0:0:0:0:
256,192,127326,5,0,0:0:0:0:
256,192,127401,12,0,129576,0:0:0:0:
256,192,129726,5,4,0:0:0:0:
256,192,130926,5,4,0:0:0:0:
404,308,132126,5,4,0:0:0:0:
404,308,132276,1,0,0:0:0:0:
404,308,132426,2,0,L|400:224,1,80,8|0,0:0|0:0,0:0:0:0:
256,344,132726,1,4,0:0:0:0:
256,344,132876,1,0,0:0:0:0:
256,344,133026,2,0,L|260:260,1,80,8|0,0:0|0:0,0:0:0:0:
452,140,133326,6,0,P|401:151|356:144,1,80,4|0,0:0|0:0,0:0:0:0:
208,80,133626,2,0,P|258:68|304:76,1,80,8|0,0:0|0:0,0:0:0:0:
136,156,133926,2,0,L|128:112,3,40,8|0|8|0,0:0|0:0|0:0|0:0,0:0:0:0:
192,216,134226,2,0,L|234:231,3,40,8|0|8|0,0:0|0:0|0:0|0:0,0:0:0:0:
112,232,134526,5,4,0:0:0:0:
32,72,134826,1,0,0:0:0:0:
208,80,135126,1,0,0:0:0:0:
112,232,135426,1,0,0:0:0:0:
44,288,135576,2,0,P|114:320|183:285,1,160,0|0,0:0|0:0,0:0:0:0:
256,232,136026,2,0,B|292:244|292:244|332:232,1,80,0|0,0:0|0:0,0:0:0:0:
412,188,136326,1,0,0:0:0:0:
248,124,136626,1,2,0:0:0:0:
112,232,136926,5,4,0:0:0:0:
112,232,137076,1,0,0:0:0:0:
112,232,137226,2,0,L|112:328,1,80,0|0,0:0|0:0,0:0:0:0:
180,368,137526,1,0,0:0:0:0:
260,332,137676,1,0,0:0:0:0:
300,348,137751,1,0,0:0:0:0:
340,364,137826,2,0,L|340:276,1,80,0|0,0:0|0:0,0:0:0:0:
308,184,138126,5,0,0:0:0:0:
416,44,138426,1,0,0:0:0:0:
404,224,138726,1,0,0:0:0:0:
404,224,138876,1,0,0:0:0:0:
404,223,139026,2,0,P|437:202|459:169,1,80,2|0,0:0|0:0,0:0:0:0:
512,28,139326,5,4,0:0:0:0:
368,128,139626,1,0,0:0:0:0:
488,256,139926,1,0,0:0:0:0:
512,28,140226,1,0,0:0:0:0:
427,60,140376,2,0,P|353:88|279:62,1,160
204,20,140826,2,0,L|124:23,1,80
68,92,141126,1,0,0:0:0:0:
68,92,141276,1,0,0:0:0:0:
192,120,141426,2,0,L|236:144,3,40,2|0|0|0,0:0|0:0|0:0|0:0,0:0:0:0:
192,120,141726,6,0,P|192:168|172:208,1,80,4|0,0:0|0:0,0:0:0:0:
332,320,142026,2,0,P|318:282|319:243,1,80,8|0,0:0|0:0,0:0:0:0:
480,76,142326,1,4,0:0:0:0:
440,156,142476,1,0,0:0:0:0:
440,156,142551,1,0,0:0:0:0:
439,156,142626,2,0,P|400:160|360:156,1,80,8|0,0:0|0:0,0:0:0:0:
264,68,142926,6,0,L|268:108,3,40,12|0|0|0,0:0|0:0|0:0|0:0,0:0:0:0:
183,157,143226,2,0,L|179:197,3,40,8|0|0|0,0:0|0:0|0:0|0:0,0:0:0:0:
140,288,143526,5,8,0:0:0:0:
184,276,143601,1,0,0:0:0:0:
228,280,143676,1,8,0:0:0:0:
264,304,143751,1,0,0:0:0:0:
294,332,143826,2,0,L|354:312,1,40,8|0,0:0|0:0,0:0:0:0:
372,228,143976,2,0,L|334:240,1,40,8|0,0:0|0:0,0:0:0:0:
472,288,144126,6,0,P|452:236|464:192,1,80,4|0,0:0|0:0,0:0:0:0:
508,24,144426,2,0,P|508:63|490:98,1,80,8|0,0:0|0:0,0:0:0:0:
291,95,144726,2,0,P|342:45|391:97,1,160,0|8,0:0|0:0,0:0:0:0:
192,192,145176,2,0,B|176:152|192:112|192:112|208:72|193:35,1,160,0|0,0:0|0:0,0:0:0:0:
112,72,145626,1,8,0:0:0:0:
272,152,145776,1,0,0:0:0:0:
111,264,145926,2,0,P|103:302|110:341,1,80,0|0,0:0|0:0,0:0:0:0:
308,340,146226,2,0,L|344:360,3,40,2|0|0|0,0:0|0:0|0:0|0:0,0:0:0:0:
308,340,146526,6,0,P|315:300|307:261,1,80,4|0,0:0|0:0,0:0:0:0:
111,264,146826,2,0,P|103:302|110:341,1,80,8|0,0:0|0:0,0:0:0:0:
216,176,147126,1,4,0:0:0:0:
152,116,147276,1,0,0:0:0:0:
152,116,147351,1,0,0:0:0:0:
152,116,147426,2,0,L|72:116,1,80,8|0,0:0|0:0,0:0:0:0:
268,40,147726,6,0,L|347:40,1,80,4|0,0:0|0:0,0:0:0:0:
292,136,148026,2,0,L|371:136,1,80,8|0,0:0|0:0,0:0:0:0:
317,232,148326,2,0,B|380:232|380:232|424:232|444:268|428:295,1,160,0|8,0:0|0:0,0:0:0:0:
360,352,148776,1,8,0:0:0:0:
127,351,148926,6,0,P|115:314|127:276,1,80,4|0,0:0|0:0,0:0:0:0:
240,96,149226,2,0,P|252:133|240:171,1,80,8|0,0:0|0:0,0:0:0:0:
30,151,149526,2,0,P|94:91|166:147,1,160,0|8,0:0|0:0,0:0:0:0:
168,204,149976,1,0,0:0:0:0:
240,352,150126,2,0,L|240:260,1,80,4|0,0:0|0:0,0:0:0:0:
324,136,150426,2,0,L|324:228,1,80,8|0,0:0|0:0,0:0:0:0:
408,352,150726,1,0,0:0:0:0:
324,320,150876,1,0,0:0:0:0:
496,316,151026,2,0,P|504:333|505:353,3,40,2|0|0|0,0:0|0:0|0:0|0:0,0:0:0:0:
496,316,151326,6,0,P|484:277|488:238,1,80,4|0,0:0|0:0,0:0:0:0:
356,72,151626,2,0,P|367:110|363:149,1,80,8|0,0:0|0:0,0:0:0:0:
164,236,151926,1,4,0:0:0:0:
236,188,152076,1,0,0:0:0:0:
236,188,152151,1,0,0:0:0:0:
236,188,152227,2,0,P|251:227|247:263,1,80,8|0,0:0|0:0,0:0:0:0:
64,104,152526,6,0,L|116:104,3,40,6|0|0|0,0:0|0:0|0:0|0:0,0:0:0:0:
184,68,152826,2,0,L|226:103,3,40,2|0|0|0,0:0|0:0|0:0|0:0,0:0:0:0:
304,76,153126,6,0,L|313:131,1,40,2|0,0:0|0:0,0:0:0:0:
416,116,153276,2,0,L|409:155,1,40,2|0,0:0|0:0,0:0:0:0:
342,255,153426,2,0,L|336:216,1,40,2|0,0:0|0:0,0:0:0:0:
448,256,153576,2,0,L|438:311,1,40,2|0,0:0|0:0,0:0:0:0:
360,360,153726,6,0,P|312:344|272:356,1,80,4|0,0:0|0:0,0:0:0:0:
96,324,154026,2,0,P|144:308|184:320,1,80,8|0,0:0|0:0,0:0:0:0:
300,156,154326,2,0,P|212:148|168:204,1,160,0|8,0:0|0:0,0:0:0:0:
384,152,154776,2,0,P|340:80|240:68,1,160
444,200,155226,2,0,P|460:163|455:124,1,80,8|0,0:0|0:0,0:0:0:0:
248,220,155526,2,0,P|231:256|236:295,1,80,0|0,0:0|0:0,0:0:0:0:
68,160,155826,2,0,P|55:141|36:128,3,40,2|0|0|0,0:0|0:0|0:0|0:0,0:0:0:0:
68,159,156126,6,0,P|97:133|108:95,1,80,4|0,0:0|0:0,0:0:0:0:
292,52,156426,2,0,P|303:89|332:116,1,80,8|0,0:0|0:0,0:0:0:0:
480,296,156726,1,4,0:0:0:0:
396,268,156876,1,0,0:0:0:0:
396,268,156951,1,0,0:0:0:0:
396,268,157026,2,0,P|344:288|292:284,1,80,8|0,0:0|0:0,0:0:0:0:
92,328,157326,6,0,L|180:344,1,80,4|0,0:0|0:0,0:0:0:0:
72,228,157626,2,0,L|160:244,1,80,8|0,0:0|0:0,0:0:0:0:
60,124,157926,2,0,B|134:138|134:138|177:147|199:97,1,160,0|8,0:0|0:0,0:0:0:0:
272,24,158376,1,8,0:0:0:0:
460,48,158526,6,0,B|460:88|460:88|441:123,1,80,4|0,0:0|0:0,0:0:0:0:
272,244,158826,2,0,B|272:204|272:204|290:168,1,80,8|0,0:0|0:0,0:0:0:0:
476,288,159126,2,0,P|412:344|328:340,1,160,0|8,0:0|0:0,0:0:0:0:
28,332,159576,2,0,P|92:276|176:280,1,160,0|0,0:0|0:0,0:0:0:0:
391,172,160026,2,0,L|388:252,1,80,8|0,0:0|0:0,0:0:0:0:
180,160,160326,2,0,L|183:80,1,80,0|0,0:0|0:0,0:0:0:0:
391,171,160626,2,0,P|396:153|411:140,3,40,2|0|0|0,0:0|0:0|0:0|0:0,0:0:0:0:
390,172,160926,6,0,P|357:193|318:200,1,80,4|0,0:0|0:0,0:0:0:0:
107,188,161226,2,0,P|140:166|179:159,1,80,8|0,0:0|0:0,0:0:0:0:
400,320,161526,1,4,0:0:0:0:
324,368,161676,1,0,0:0:0:0:
324,368,161751,1,0,0:0:0:0:
324,367,161826,2,0,P|312:324|319:287,1,80,8|0,0:0|0:0,0:0:0:0:
484,96,162126,6,0,L|480:144,3,40,12|0|0|0,0:0|0:0|0:0|0:0,0:0:0:0:
390,172,162426,2,0,L|386:132,3,40,8|0|0|0,0:0|0:0|0:0|0:0,0:0:0:0:
300,60,162726,6,0,L|296:108,1,40,8|0,0:0|0:0,0:0:0:0:
206,136,162876,2,0,L|202:96,1,40,8|0,0:0|0:0,0:0:0:0:
112,56,163026,2,0,L|108:104,1,40,8|0,0:0|0:0,0:0:0:0:
18,132,163176,2,0,L|14:92,1,40,8|0,0:0|0:0,0:0:0:0:
92,196,163326,6,0,L|84:284,1,80,4|0,0:0|0:0,0:0:0:0:
276,336,163626,2,0,L|268:248,1,80,8|0,0:0|0:0,0:0:0:0:
468,228,163926,2,0,P|420:280|376:216,1,160,0|8,0:0|0:0,0:0:0:0:
208,112,164376,2,0,P|256:60|300:124,1,160,0|0,0:0|0:0,0:0:0:0:
104,135,164826,2,0,L|111:55,1,80,8|0,0:0|0:0,0:0:0:0:
176,216,165126,2,0,L|168:295,1,80,0|0,0:0|0:0,0:0:0:0:
324,175,165426,2,0,P|340:165|360:160,3,40,2|0|0|0,0:0|0:0|0:0|0:0,0:0:0:0:
324,176,165726,6,0,L|320:272,1,80,4|0,0:0|0:0,0:0:0:0:
496,328,166026,2,0,L|492:248,1,80,8|0,0:0|0:0,0:0:0:0:
416,48,166326,1,4,0:0:0:0:
340,88,166476,1,0,0:0:0:0:
340,88,166551,1,0,0:0:0:0:
339,88,166626,2,0,P|301:96|261:94,1,80,8|0,0:0|0:0,0:0:0:0:
48,56,166926,6,0,P|86:47|126:49,1,80,4|0,0:0|0:0,0:0:0:0:
40,172,167226,2,0,P|78:163|118:165,1,80,8|0,0:0|0:0,0:0:0:0:
32,288,167526,2,0,B|76:272|112:280|112:280|148:300|164:352,1,160,0|8,0:0|0:0,0:0:0:0:
244,368,167976,1,8,0:0:0:0:
472,268,168126,6,0,L|368:272,1,80,4|0,0:0|0:0,0:0:0:0:
296,36,168426,2,0,L|349:104,1,80,8|0,0:0|0:0,0:0:0:0:
163,271,168726,2,0,B|193:240|193:240|184:174|248:148,1,160,0|8,0:0|0:0,0:0:0:0:
392,271,169176,2,0,B|360:333|295:319|295:319|263:348,1,160,0|0,0:0|0:0,0:0:0:0:
88,184,169626,2,0,L|168:184,1,80,8|0,0:0|0:0,0:0:0:0:
392,88,169926,2,0,L|312:88,1,80,0|0,0:0|0:0,0:0:0:0:
476,215,170226,2,0,P|492:204|502:187,3,40,2|0|0|0,0:0|0:0|0:0|0:0,0:0:0:0:
476,215,170526,6,0,P|437:205|397:210,1,80,4|0,0:0|0:0,0:0:0:0:
192,320,170826,2,0,P|230:330|270:325,1,80,8|0,0:0|0:0,0:0:0:0:
88,184,171126,1,4,0:0:0:0:
164,232,171276,1,0,0:0:0:0:
164,232,171351,1,0,0:0:0:0:
164,232,171426,2,0,P|176:188|172:148,1,80,8|8,0:0|0:0,0:0:0:0:
20,28,171726,5,12,0:0:0:0:
256,192,171801,12,0,172776,0:0:0:0:
375,144,172926,6,0,P|366:182|380:219,2,80
428,72,173376,2,0,P|465:60|491:30,2,80
340,60,173826,2,0,P|311:32|272:26,1,80,0|0,0:0|0:0,0:0:0:0:
76,71,174126,6,2,P|140:115|216:96,1,160
444,272,174576,2,0,P|379:228|304:247,1,160,2|0,0:0|0:0,0:0:0:0:
36,340,175026,1,2,0:0:0:0:
416,135,175326,6,0,P|436:102|441:62,2,80,0|0|0,0:0|0:0|0:0,0:0:0:0:
380,240,175776,2,0,P|399:274|430:298,2,80,0|0|0,0:0|0:0|0:0,0:0:0:0:
311,155,176226,2,0,P|272:155|235:171,1,80,0|0,0:0|0:0,0:0:0:0:
480,364,176526,6,2,P|512:296|464:224,1,160
192,104,176976,2,0,P|160:172|208:244,1,160,2|0,0:0|0:0,0:0:0:0:
444,52,177426,1,2,0:0:0:0:
80,88,177726,6,0,B|56:56|56:56|48:16,2,80,0|0|0,0:0|0:0|0:0,0:0:0:0:
124,196,178176,2,0,B|108:232|108:232|77:259,2,80,0|0|0,0:0|0:0|0:0,0:0:0:0:
192,104,178626,2,0,B|231:99|231:99|270:112,1,80,0|0,0:0|0:0,0:0:0:0:
456,328,178926,6,2,P|446:236|371:185,1,160
140,312,179376,2,0,P|224:349|305:309,1,160,2|0,0:0|0:0,0:0:0:0:
336,48,179826,1,2,0:0:0:0:
64,324,180126,6,0,P|82:359|114:382,2,80,0|0|0,0:0|0:0|0:0,0:0:0:0:
91,139,180576,2,0,P|51:137|15:153,2,80,0|0|0,0:0|0:0|0:0,0:0:0:0:
241,251,181026,2,0,P|262:217|266:178,1,80,0|0,0:0|0:0,0:0:0:0:
488,36,181326,6,2,B|480:80|480:80|492:144|492:144|480:192,1,160
242,345,181776,2,0,B|200:328|178:297|178:297|200:264|241:251,1,160,2|0,0:0|0:0,0:0:0:0:
500,368,182226,1,2,0:0:0:0:
58,253,182526,6,0,P|74:205|106:177,1,80,0|0,0:0|0:0,0:0:0:0:
178,153,182826,1,0,0:0:0:0:
152,0,182976,2,0,P|185:37|193:79,1,80,0|0,0:0|0:0,0:0:0:0:
178,153,183276,1,0,0:0:0:0:
324,207,183426,2,0,P|274:217|234:203,1,80,0|0,0:0|0:0,0:0:0:0:
39,62,183726,6,2,P|116:44|193:65,1,160
360,300,184176,2,0,P|283:318|206:297,1,160,2|0,0:0|0:0,0:0:0:0:
424,108,184626,1,2,0:0:0:0:
128,304,184926,6,0,P|90:273|76:226,1,80,0|0,0:0|0:0,0:0:0:0:
72,140,185226,1,0,0:0:0:0:
264,104,185376,2,0,P|255:151|222:186,1,80,0|0,0:0|0:0,0:0:0:0:
163,225,185676,1,0,0:0:0:0:
24,88,185826,2,0,P|69:71|116:82,1,80
399,18,186126,6,2,B|411:50|399:82|399:82|387:114|399:146|399:146|424:124,1,160
158,132,186576,2,0,P|152:209|209:261,1,160,2|0,0:0|0:0,0:0:0:0:
468,188,187026,1,2,0:0:0:0:
408,340,187326,6,0,L|420:252,1,80
468,188,187626,1,0,0:0:0:0:
232,124,187776,2,0,L|302:178,1,80
333,251,188076,1,0,0:0:0:0:
512,72,188226,2,0,L|429:105,1,80
304,332,188526,6,2,B|288:325|275:316|266:304|266:304|245:310|226:301|226:301|201:310|169:308|151:296,1,160
76,48,188976,2,0,B|92:51|106:58|117:69|117:69|136:59|157:66|157:66|180:52|212:50|232:59,1,160,2|0,0:0|0:0,0:0:0:0:
375,277,189426,1,2,0:0:0:0:
475,111,189726,6,0,P|481:150|468:188,1,80,0|0,0:0|0:0,0:0:0:0:
375,277,190026,1,0,0:0:0:0:
275,185,190176,2,0,P|306:159|344:152,1,80,0|0,0:0|0:0,0:0:0:0:
469,187,190476,1,0,0:0:0:0:
439,320,190626,2,0,P|402:306|375:277,1,80,0|0,0:0|0:0,0:0:0:0:
256,76,190926,6,0,L|256:124,2,40,2|0|0,0:0|0:0|0:0,0:0:0:0:
136,277,191376,2,0,L|178:253,2,40,2|0|0,0:0|0:0|0:0,0:0:0:0:
376,277,191826,2,2,L|335:253,2,40,2|0|0,0:0|0:0|0:0,0:0:0:0:
256,204,192651,5,4,0:0:0:0:
256,192,192726,12,0,196926,0:0:0:0:
