osu file format v6

[General]
AudioFilename: locked_girl.mp3
AudioLeadIn: 3000
PreviewTime: 20687
Countdown: 1
SampleSet: Soft
StackLeniency: 0.7
Mode: 0
LetterboxInBreaks: 0

[Editor]
DistanceSpacing: 1
BeatDivisor: 4
GridSize: 8

[Metadata]
Title:Locked Girl
Artist:COOL&CREATE
Creator:varq
Version:Normal
Source:Touhou
Tags:patchuoli marisa laugh maker bump of chicken embodiment of scarlet devil

[Difficulty]
HPDrainRate:5
CircleSize:4
OverallDifficulty:5
SliderMultiplier:1.8
SliderTickRate:2

[Events]
//Background and Video events
0,0,"locked_girl.png"
//Break Periods
2,33741,43357
2,87997,97816
2,109754,114133
2,174735,184259
//Storyboard Layer 0 (Background)
//Storyboard Layer 1 (Fail)
//Storyboard Layer 2 (Pass)
//Storyboard Layer 3 (Foreground)
//Storyboard Sound Samples
//Background Colour Transformations
3,100,0,0,0

[TimingPoints]
912,676.056338028169,4,2,0,60,1,0
9024,689.655172413793,4,2,0,60,1,0
11610,-100,4,2,0,70,0,0
11798,681.818181818182,4,2,0,70,1,0
19987,689.655172413793,4,2,0,70,1,0
21538,-100,4,2,0,73,0,0
21883,-100,4,2,0,75,0,0
22228,-100,4,2,0,78,0,0
22588,-100,4,2,0,80,0,0
22760,684.540787221905,4,2,0,80,1,0
30803,-100,4,2,0,100,0,0
33706,677.966101694915,4,2,0,100,1,0
44383,-100,4,2,0,60,0,0
44557,670.391061452514,4,2,0,60,1,0
52621,685.714285714286,4,2,0,60,1,0
55192,-100,4,2,0,70,0,0
55363,681.818181818182,4,2,0,70,1,0
63459,-100,4,2,0,80,0,0
63548,685.714285714286,4,2,0,80,1,0
65776,-100,4,2,0,100,0,0
77260,679.886685552408,4,2,0,90,1,0
79809,-100,4,2,0,100,0,0
82869,-100,4,2,0,90,0,0
84993,-100,4,2,0,100,0,0
115248,-100,4,2,0,20,0,0
118138,-100,4,2,0,34,0,0
121112,-100,4,2,0,60,0,0
131480,-100,4,2,0,70,0,0
131644,662.983425414365,4,2,0,70,1,0
136782,-100,4,2,0,50,0,0
136947,685.714285714286,4,2,0,50,1,0
142261,-100,4,2,0,80,0,0
142415,677.966101694915,4,2,0,80,1,0
147671,-100,4,2,0,100,0,0
147838,666.666666666667,4,2,0,100,1,0
148004,-100,4,1,0,60,0,0
149004,-100,4,1,0,80,0,0
150338,-100,4,1,1,100,0,0
153173,676.056338028169,4,1,1,100,1,0
153511,-100,4,1,1,90,0,1
163991,668.523676880223,4,1,1,90,1,1
172014,672.268907563025,4,1,1,90,1,1
175375,-100,4,1,1,90,0,0
185463,677.966101694915,4,1,1,90,1,0
185632,-100,4,2,0,60,0,0
193512,-100,4,2,0,50,0,0
193598,685.714285714286,4,2,0,50,1,0
194540,-200,4,2,0,40,0,0
194798,-200,4,2,0,30,0,0
195483,-200,4,2,0,24,0,0
195760,-200,4,2,0,20,0,0
195998,-200,4,2,0,15,0,0
196238,-200,4,2,0,10,0,0

[Colours]
Combo1 : 86,148,250
Combo2 : 255,94,255
Combo3 : 254,214,52

[HitObjects]
96,128,912,1,2
209,83,1419,1,0
209,83,1588,1,2
321,128,2095,1,0
321,128,2264,1,2
374,236,2771,1,0
374,236,2940,1,2
256,192,3616,12,4,4968
371,303,5306,6,0,B|341:331|276:325,2,90,0|2|0
413,234,6320,1,2
400,113,6827,1,0
400,113,6996,1,2
295,175,7503,1,0
295,175,7672,1,2
181,217,8179,2,0,B|142:228|97:187,1,90,2|0
45,128,8855,2,0,B|30:93|45:56,1,45,2|4
232,87,10403,5,4
346,198,11092,1,2
292,258,11437,1,0
214,293,11798,5,2
179,176,12309,1,0
179,176,12479,1,2
297,203,12991,1,0
297,203,13161,1,2
264,85,13673,1,0
264,85,13843,1,2
256,192,14525,12,4,15888
307,161,16229,6,0,B|359:183|321:237,2,90,0|2|0
228,146,17252,1,2
205,263,17763,1,0
205,263,17934,1,2
289,348,18445,1,0
289,348,18616,1,2
365,256,19127,2,0,B|390:216|368:165,1,90,2|0
349,102,19809,2,0,B|338:79|302:59,1,45,2|4
166,100,21021,6,0,L|230:68,2,45,2|0|6
113,160,21711,1,6
191,173,22055,1,4
141,235,22400,5,6
141,235,22760,1,4
255,269,23273,2,0,L|319:269,1,45,2|0
295,189,23786,2,0,L|231:189,1,45,2|0
174,191,24300,1,2
171,270,24642,2,4,L|235:270,1,45,2|4
290,270,25155,5,6
290,270,25498,1,4
402,195,26011,2,0,B|440:158,1,45,2|0
409,95,26524,2,0,B|361:46,1,45,2|0
301,59,27038,2,0,B|239:57,3,45,2|0|2|4
188,92,27894,5,6
188,92,28236,1,4
114,187,28749,2,0,B|96:233,1,45,2|0
171,258,29263,2,0,B|194:209,1,45,2|0
219,148,29776,2,0,B|242:102,3,45,2|0|2|4
273,41,30632,1,6
341,81,30974,5,4
447,135,31487,2,0,B|478:144|485:179,1,45,2|0
474,253,32001,2,0,B|462:273|434:275,1,45,2|0
359,227,32514,2,0,B|344:198|366:176,3,45,0|2|0|6
410,110,33370,2,0,B|428:85|421:62,1,45,2|4
96,219,44557,5,2
201,279,45059,1,0
201,279,45227,1,2
202,157,45730,1,0
202,157,45897,1,2
306,219,46400,1,0
306,219,46568,1,2
359,66,47238,2,0,B|294:137|332:184|433:157|487:189|505:291|386:327,1,360,2|4
317,322,48914,6,0,B|260:323|216:270,2,90,2|0|2
398,322,49920,1,2
413,206,50422,1,0
413,206,50590,1,2
321,126,51093,1,0
321,126,51260,1,2
211,82,51763,1,2
139,120,52098,1,0
149,200,52434,1,2
149,200,52621,1,4
269,101,53992,5,4
403,191,54678,2,0,B|389:244|318:261,1,90,2|0
261,259,55363,5,2
186,163,55874,1,0
186,163,56044,1,2
125,57,56556,1,0
125,57,56726,1,2
247,57,57238,1,0
247,57,57408,1,2
408,71,58090,2,0,B|323:96|291:148|327:191|434:208|460:256|432:312|348:315,1,360,2|4
272,314,59794,6,0,B|228:314|192:267,2,90
272,233,60817,1,2
299,115,61328,1,0
299,115,61499,1,2
373,207,62010,1,0
373,207,62181,1,2
272,233,62692,1,2
195,207,63033,1,0
138,150,63374,1,2
138,150,63548,1,4
388,108,64576,6,0,B|434:80,2,45,2|0|2
317,148,65262,1,2
382,195,65605,1,4
376,275,65948,5,6
376,275,66290,1,4
254,287,66805,2,0,B|223:290|208:257,1,45,2|0
154,215,67319,2,0,B|135:193|141:153,1,45,2|0
170,98,67833,1,2
247,72,68176,2,0,B|279:70|292:35,1,45,2|4
352,94,68690,5,6
352,94,69033,1,4
428,188,69548,2,0,B|433:213|402:228,1,45,2|0
337,264,70062,1,2
337,264,70233,2,0,B|286:267|264:212,1,90
258,178,70748,2,0,B|266:146|235:131,2,45
164,107,71433,5,6
164,107,71776,1,4
113,170,72119,2,0,B|98:196|116:223,2,45,2|0|2
164,106,72805,1,2
164,105,72976,2,0,B|214:74|251:114,1,90,0|0
278,135,73491,2,0,B|297:164|339:151,2,45,0|0|0
405,117,74176,1,6
407,197,74519,5,6
326,208,74862,2,0,B|301:203|268:233,2,45,2|0|2
396,166,75548,2,0,B|378:149|351:142,1,45,2|0
284,107,76062,2,0,B|259:92|223:103,3,45,2|0|2|4
159,104,76919,2,0,B|135:106|117:133,1,45,2|4
156,256,77599,5,0
241,226,77939,1,4
281,145,78279,1,0
281,145,78449,2,0,B|297:101|360:94,2,90
363,182,79469,1,0
363,183,79639,1,6
434,128,79979,6,0,L|420:154|451:179|441:214,1,90,6|0
359,232,80659,1,6
359,232,80829,1,0
359,232,80999,1,2
359,232,81169,2,0,B|246:266|171:248|111:186,1,225,4|2
90,140,82359,1,0
157,79,82699,1,4
247,80,83039,5,2
332,107,83378,2,0,B|359:117|362:144,3,45,6|0|2|4
400,219,84228,1,0
413,308,84568,1,6
325,330,84908,1,0
325,330,85078,5,6
289,247,85418,1,2
289,247,85588,1,0
289,247,85758,1,6
299,157,86098,1,2
299,157,86268,1,0
299,157,86438,1,2
299,157,86608,2,0,B|308:82|262:47|228:76|203:172|172:176|133:167|121:35,1,315,4|4
355,98,99016,6,0,B|416:85,2,45,6|0|2
268,123,99696,2,0,B|199:143,3,45,4|0|0|4
140,168,100546,1,2
140,168,100716,1,4
203,289,101226,5,2
247,285,101395,1,0
283,258,101565,1,2
314,226,101735,2,0,B|334:198|329:158,2,45,4|2|0
327,315,102415,6,0,B|406:328|448:249,1,135,6|6
445,125,103435,1,4
386,56,103775,1,0
326,123,104115,1,4
375,197,104455,6,0,B|311:213|249:262,2,135,6|0|6
463,179,105815,1,4
256,64,106495,6,0,B|192:64,2,45,4|2|0
256,109,107005,2,0,B|320:109,2,45,4|2|0
256,154,107514,2,0,B|192:154,2,45,4|2|0
255,199,108024,2,0,B|319:199,2,45,4|2|0
257,244,108534,2,0,B|193:244,2,45,4|2|0
302,243,109044,1,2
346,238,109214,1,4
385,217,109384,1,2
415,183,109554,1,4
180,204,115333,6,2,B|244:130|291:289|365:177,4,180
256,192,118223,12,0,119412
256,192,119582,12,0,120772
367,276,121452,5,4
379,114,122132,1,2
454,142,122472,1,0
445,61,122812,1,4
283,65,123492,5,0
149,156,124172,1,4
297,221,124852,1,2
352,161,125192,1,0
381,236,125531,1,4
236,309,126211,5,0
88,241,126891,1,4
207,131,127571,1,2
286,116,127911,1,0
264,194,128251,1,4
419,149,128931,5,0
298,40,129611,1,4
147,100,130291,1,2
208,152,130631,1,0
131,178,130971,1,4
260,279,131644,6,0,B|346:246,2,90,2|0|2
103,236,132969,1,0
176,201,133301,1,2
249,167,133632,1,2
122,66,134295,6,0,B|15:35,2,90,2|0|2
282,91,135621,1,0
360,111,135953,1,2
437,133,136284,1,2
343,258,136947,6,0,B|448:254,2,90,2|0|2
180,258,138318,1,0
165,178,138661,1,2
149,99,139004,1,2
324,101,139689,5,2
379,160,140032,1,0
300,180,140375,1,2
142,218,141061,1,2
62,233,141404,1,0
119,291,141747,1,6
115,105,142415,6,0,B|154:76|201:105,3,90,4|0|4|0
287,121,143770,1,4
218,179,144109,1,2
305,199,144448,1,6
237,258,144787,1,0
324,278,145126,6,0,B|367:305|357:375,3,90,4|0|4|0
268,346,146482,1,4
244,259,146821,1,2
173,315,147160,1,6
96,267,147499,2,2,L|80:269|48:180,1,90,2|6
160,160,148171,5,0
160,64,148504,1,0
256,64,148838,1,0
256,160,149171,5,4
256,256,149504,5,0
352,256,149838,1,0
352,160,150171,1,0
256,160,150504,5,4
256,160,151171,1,4
256,192,151838,12,4,153171
379,298,153680,5,0
379,298,153849,1,4
442,189,154187,1,0
442,189,154356,1,4
320,156,154694,1,4
359,36,155032,1,0
359,36,155201,1,4
246,91,155539,6,0,B|242:149|167:144,1,90,4|4
38,270,156384,1,0
38,270,156553,1,4
159,234,156891,1,0
159,234,157060,1,4
277,192,157398,2,0,B|301:191|320:172,3,45,0|0|0|4
424,107,158243,6,0,B|400:64|344:51,1,90,4|4
165,64,159088,1,0
165,64,159257,1,4
277,119,159595,1,0
277,119,159764,1,4
178,197,160102,2,0,B|156:220|130:228,3,45,4|0|4|4
37,294,160947,1,4
159,324,161285,5,4
346,303,161792,1,0
346,303,161961,1,4
419,200,162299,1,0
419,200,162468,1,4
410,74,162806,2,0,B|386:58|358:59,3,45,4|0|4|4
242,65,163651,6,0,B|209:108|240:170,1,90,4|4
366,283,164492,1,0
366,283,164659,1,4
241,264,164993,1,0
241,264,165160,1,4
342,189,165495,1,0
342,189,165662,1,4
424,93,165996,1,4
302,61,166330,6,0,B|251:55|203:88,1,90,4|4
61,189,167166,1,0
61,189,167333,1,4
186,197,167667,1,0
186,197,167835,1,4
298,139,168169,2,0,B|325:140|341:162,3,45,4|0|4|4
427,246,169004,6,0,B|423:298|367:329,1,90,4|4
200,266,169840,1,0
200,266,170007,1,4
319,226,170341,1,0
319,226,170509,1,4
415,145,170843,2,0,B|435:121|425:89,3,45,4|0|4|4
318,39,171679,1,4
203,91,172013,5,4
79,234,172518,1,0
79,234,172686,1,4
204,241,173022,1,0
437,145,173694,2,4,B|481:108|438:36,2,90,4|4|4
388,185,174535,1,4
72,91,185459,5,0
208,90,185971,1,0
208,90,186140,1,2
121,193,186649,1,0
121,193,186818,1,2
256,189,187327,1,0
256,189,187496,1,2
164,288,188005,1,0
164,288,188174,2,0,B|213:355|245:362|281:341|277:238|313:212|356:222|394:296,1,315,2|2
457,353,189700,5,2
469,263,190039,2,0,B|479:229|468:202,3,45,0|2|0|2
457,129,190886,1,2
351,45,191395,1,0
351,45,191564,1,2
332,178,192073,1,0
332,178,192242,1,2
223,97,192751,1,0
150,43,193090,1,0
142,132,193429,1,2
142,132,193598,1,4
178,226,194626,5,2
243,273,194969,2,0,B|257:282|277:285,2,22.5,2|0|2
235,192,195655,2,0,B|227:176|237:157,1,22.5,2|2
272,99,196169,2,0,B|282:85|313:93,1,22.5,2|2
