osu file format v6

[General]
AudioFilename: locked_girl.mp3
AudioLeadIn: 3000
PreviewTime: 20687
Countdown: 1
SampleSet: Soft
StackLeniency: 0.7
Mode: 0
LetterboxInBreaks: 0

[Editor]
DistanceSpacing: 1.60000002384186
BeatDivisor: 4
GridSize: 8

[Metadata]
Title:Locked Girl
Artist:COOL&CREATE
Creator:varq
Version:Lunatic
Source:Touhou
Tags:patchuoli marisa laugh maker bump of chicken embodiment of scarlet devil

[Difficulty]
HPDrainRate:7
CircleSize:4
OverallDifficulty:7
SliderMultiplier:2.6
SliderTickRate:2

[Events]
//Background and Video events
0,0,"locked_girl.png"
//Break Periods
2,33741,43657
2,87998,98116
2,109754,114433
2,174735,184563
//Storyboard Layer 0 (Background)
//Storyboard Layer 1 (Fail)
//Storyboard Layer 2 (Pass)
//Storyboard Layer 3 (Foreground)
//Storyboard Sound Samples
//Background Colour Transformations
3,100,0,0,0

[TimingPoints]
912,676.056338028169,4,2,0,60,1,0
9024,689.655172413793,4,2,0,60,1,0
11610,-100,4,2,0,70,0,0
11798,681.818181818182,4,2,0,70,1,0
19987,689.655172413793,4,2,0,70,1,0
21538,-100,4,2,0,73,0,0
21883,-100,4,2,0,75,0,0
22228,-100,4,2,0,78,0,0
22588,-100,4,2,0,80,0,0
22760,684.540787221905,4,2,0,80,1,0
30803,-100,4,2,0,100,0,0
33706,677.966101694915,4,2,0,100,1,0
44383,-100,4,2,0,60,0,0
44557,670.391061452514,4,2,0,60,1,0
52621,685.714285714286,4,2,0,60,1,0
55192,-100,4,2,0,70,0,0
55363,681.818181818182,4,2,0,70,1,0
63459,-100,4,2,0,80,0,0
63548,685.714285714286,4,2,0,80,1,0
65776,-100,4,2,0,100,0,0
77260,679.886685552408,4,2,0,90,1,0
79809,-100,4,2,0,100,0,0
82869,-100,4,2,0,90,0,0
84993,-100,4,2,0,100,0,0
115248,-100,4,2,0,20,0,0
118138,-100,4,2,0,34,0,0
121112,-100,4,2,0,60,0,0
131480,-100,4,2,0,70,0,0
131644,662.983425414365,4,2,0,70,1,0
136782,-100,4,2,0,50,0,0
136947,685.714285714286,4,2,0,50,1,0
142261,-100,4,2,0,80,0,0
142415,677.966101694915,4,2,0,80,1,0
147671,-100,4,2,0,100,0,0
147838,666.666666666667,4,2,0,100,1,0
148004,-100,4,1,0,60,0,0
149004,-100,4,1,0,80,0,0
150338,-100,4,1,1,100,0,0
153173,676.056338028169,4,1,1,100,1,0
153511,-100,4,1,1,90,0,1
163991,668.523676880223,4,1,1,90,1,1
172014,672.268907563025,4,1,1,90,1,1
175375,-100,4,1,1,90,0,0
185463,677.966101694915,4,1,1,90,1,0
185632,-100,4,2,0,60,0,0
193512,-100,4,2,0,50,0,0
193598,685.714285714286,4,2,0,50,1,0
194540,-200,4,2,0,40,0,0
194798,-200,4,2,0,30,0,0
195483,-200,4,2,0,24,0,0
195760,-200,4,2,0,20,0,0
195998,-200,4,2,0,15,0,0
196238,-200,4,2,0,10,0,0

[Colours]
Combo1 : 86,148,250
Combo2 : 255,94,255
Combo3 : 254,214,52

[HitObjects]
364,125,912,2,0,B|388:98|392:66,2,65,2|0|0
278,154,1419,1,0
190,130,1588,2,0,B|161:110|164:70,2,65,2|0|0
225,214,2095,5,0
160,279,2264,2,0,B|135:309|77:299,2,65,2|0|0
251,291,2771,1,0
341,301,2940,2,0,B|380:302|409:328,2,65,2|0|0
265,251,3447,1,0
105,178,3616,6,0,B|60:141|130:97|87:54,2,130,2|2|2
309,218,4630,1,2
309,218,4799,1,0
453,53,5137,6,0,B|412:40|374:67,1,65,2|0
312,105,5475,2,0,B|275:138|226:104,1,65,0|0
168,82,5813,2,0,B|128:70|92:95,2,65,0|2|0
245,131,6320,5,2
452,296,6658,1,0
364,316,6827,1,2
274,299,6996,1,0
59,87,7334,5,0
147,67,7503,1,2
237,84,7672,1,0
438,162,8010,5,2
395,242,8179,1,0
223,301,8517,1,0
69,204,8855,2,0,B|39:174|78:132,1,65,2|4
222,51,9368,6,0,B|269:11|326:95|371:39,2,130,2|2|2
158,116,10230,1,0
158,116,10403,5,2
382,233,10748,1,0
204,267,11092,2,0,B|165:270|138:235,2,65,2|0|0
204,267,11610,1,0
345,146,11798,6,0,B|322:121|285:121,1,65,2|0
196,112,12138,1,0
236,194,12309,1,0
279,275,12479,6,0,B|317:290|357:275,1,65,2|0
432,258,12820,1,0
471,175,12991,1,0
426,96,13161,6,0,B|397:66|360:59,1,65,2|0
353,152,13502,1,0
278,100,13673,1,0
233,179,13843,6,0,B|199:173|183:140,1,65,2|0
136,218,14184,1,0
183,296,14354,1,0
327,268,14525,6,0,B|370:296|429:237|475:280,2,130,2|2|2
113,124,15548,1,2
113,124,15718,1,0
280,52,16059,6,0,B|321:44|350:76,1,65,2|0
300,149,16400,1,0
330,234,16570,2,0,B|298:250|268:232,1,65,2|0
177,233,16911,2,0,B|187:261|214:291,1,65,2|0
308,327,17252,5,2
449,88,17593,1,0
364,58,17763,1,2
272,58,17934,1,0
62,295,18275,5,0
147,325,18445,1,2
239,325,18616,1,0
410,265,18957,5,2
451,183,19127,2,0,B|483:126|385:120|419:71,1,130
149,55,19809,1,0
149,55,19987,5,4
92,308,20331,1,0
338,224,20676,1,0
272,40,21021,6,0,B|233:25|201:69,2,65,0|0|4
457,224,21711,1,4
204,281,22055,1,4
395,317,22400,6,0,B|416:289|397:239,1,65,4|0
343,165,22760,2,0,B|321:121|376:76,1,65,4|2
438,64,23102,1,0
345,36,23273,2,0,B|304:31|266:49,1,65,2|0
73,116,23786,1,2
50,211,23957,1,0
272,211,24300,1,0
456,332,24642,2,0,B|481:304|479:258,2,65,2|0|0
456,332,25155,5,4
239,290,25498,2,0,B|196:282|172:229,2,65,4|0|0
335,308,26011,1,2
419,259,26182,1,0
313,65,26524,2,0,B|276:52|253:86,1,65,2|0
164,284,27038,2,0,B|138:325|99:294,3,65,2|0|2|0
35,238,27722,1,2
35,238,27894,5,4
252,282,28236,1,4
198,67,28578,2,0,B|159:74|133:107,2,65,2|0|0
295,54,29092,1,0
387,86,29263,1,0
314,150,29434,2,0,B|235:161,1,65,2|0
153,145,29776,1,0
182,240,29947,1,0
279,251,30118,1,2
375,236,30289,2,0,B|439:202|451:95,1,130,4|4
193,213,30974,6,0,B|188:254|147:275,1,65,4|0
106,341,31316,1,0
203,334,31487,1,0
298,310,31659,1,4
382,262,31830,1,0
437,181,32001,2,0,B|450:143|438:100,1,65,2|0
260,46,32514,5,0
164,63,32685,1,0
82,115,32856,1,0
41,204,33028,1,4
34,301,33199,1,0
115,248,33370,2,0,B|138:216|180:215,1,65,2|0
430,75,44557,6,0,B|514:81|440:182,1,130,4|0
398,246,45059,1,0
327,303,45227,1,0
327,69,45562,5,0
310,159,45730,1,0
246,223,45897,2,0,B|167:259|137:174,1,130,4|0
222,142,46400,1,0
222,142,46568,1,0
446,75,46903,5,0
400,153,47070,1,0
354,232,47238,2,0,B|319:287|277:297|221:234|174:251|135:325,1,260,4|4
190,95,48244,1,2
190,95,48411,1,0
410,129,48746,6,0,B|411:18|290:64,1,130,2|0
244,71,49249,1,2
168,121,49417,1,0
109,190,49584,1,2
64,270,49752,1,0
179,294,49920,6,0,B|249:316|314:248,1,130,2|0
223,211,50422,1,0
309,179,50590,2,0,B|370:204|379:299,1,130,2|0
460,320,51093,5,0
460,229,51260,2,0,B|439:162|375:109,1,130,2|0
316,68,51763,2,0,B|249:25|189:80,2,130,2|2|0
440,137,52621,5,4
257,321,52963,1,2
73,137,53306,1,0
256,320,53649,1,2
256,320,53821,1,0
257,321,53992,6,0,B|216:264|199:187,1,130,4|0
247,116,54506,1,0
331,171,54678,2,0,B|307:203|267:211,2,65,4|2|0
384,67,55192,5,0
295,46,55363,2,0,B|222:34|162:76,1,130,2|0
85,39,55874,1,0
39,117,56044,2,0,B|112:137|110:214,1,130,2|0
185,160,56556,5,0
185,251,56726,2,0,B|234:196|321:212,1,130,2|0
253,132,57237,1,0
189,67,57408,2,0,B|257:68|321:33,1,130,2|0
405,36,57919,5,0
470,101,58090,2,0,B|453:175|380:193,2,130,4|2|4
238,59,59113,5,2
238,59,59283,1,0
404,225,59624,5,2
334,292,59794,1,0
237,308,59965,1,0
288,225,60135,1,2
327,135,60306,1,0
354,42,60476,1,2
416,315,60817,6,0,B|485:283|476:201,1,130,2|0
459,120,61328,1,0
395,185,61499,2,0,B|330:212|260:172,1,130,2|0
191,131,62010,5,0
191,222,62181,2,0,B|126:189|64:242,1,130,2|0
141,293,62692,1,2
376,293,63033,1,0
261,89,63374,1,2
261,89,63548,5,4
389,312,63890,1,2
129,312,64233,1,4
98,53,64576,6,0,B|26:30,2,65,0|0|4
358,53,65262,1,4
238,283,65605,1,4
463,153,65948,5,4
236,207,66290,2,0,B|156:235|114:156,1,130,4|0
87,79,66805,1,2
182,101,66976,1,0
411,53,67319,1,2
368,140,67490,1,0
188,290,67833,1,2
186,56,68176,2,0,B|229:55|249:89,1,65,2|0
243,81,68519,5,2
243,81,68690,2,0,B|313:142|388:109,2,130,4|4|2
150,52,69547,1,2
56,81,69719,1,0
259,198,70062,1,2
354,178,70233,1,0
164,268,70576,2,0,B|127:269|105:226,3,65,0|2|0|2
111,236,71262,1,0
111,236,71433,6,0,B|81:202|87:154,1,65,6|0
92,80,71776,1,6
175,132,71948,1,0
244,201,72119,2,0,B|267:234|327:221,2,65,0|0|2
435,160,72805,1,2
402,252,72976,1,0
172,294,73319,1,2
105,224,73490,1,0
84,128,73662,1,0
172,170,73833,1,2
269,183,74005,1,0
363,159,74176,1,0
459,44,74519,5,4
225,44,74862,2,0,B|192:27|154:52,2,65,4|0|2
412,158,75547,1,2
446,250,75719,1,0
201,282,76062,1,2
112,243,76233,1,0
200,201,76405,1,2
112,159,76576,1,0
198,113,76748,1,0
107,80,76919,2,0,B|174:38,2,65,2|0|0
328,151,77599,5,2
442,292,77939,1,2
355,336,78109,1,0
270,288,78279,1,2
185,335,78449,1,4
75,129,78789,1,0
309,129,79129,1,4
149,240,79469,1,0
209,163,79639,1,4
461,75,79979,5,2
363,75,80149,1,0
277,120,80319,1,4
42,44,80659,1,2
80,134,80829,1,0
158,192,80999,1,2
253,216,81169,1,4
456,337,81509,5,2
408,82,81849,1,4
224,266,82189,1,2
319,242,82359,1,4
66,304,82699,1,6
315,69,83039,5,2
111,182,83378,2,0,B|79:202|42:191,2,65,2|0|2
205,153,83888,1,4
455,83,84228,1,0
394,336,84568,1,4
134,336,84908,1,0
65,267,85078,5,4
146,47,85418,1,2
240,73,85588,1,0
309,142,85758,2,0,B|353:173|304:226|343:264,1,130,4|0
424,314,86268,1,0
403,219,86438,1,2
440,129,86608,1,6
180,129,86948,1,2
330,341,87288,1,4
387,87,87628,1,0
387,87,87798,1,4
88,166,99016,6,0,B|54:149|43:107,2,65,4|0|2
267,273,99696,1,4
370,292,99866,1,0
462,243,100036,1,2
462,139,100206,2,0,B|445:105|408:86,1,65,0|0
316,71,100546,1,2
218,106,100716,2,0,B|177:144|105:172,1,130
53,81,101226,5,0
146,37,101395,1,2
250,37,101565,1,0
351,62,101735,2,0,B|392:78|425:120,2,65,4|0|2
105,215,102415,1,4
178,288,102585,1,0
279,314,102755,1,2
383,305,102925,2,0,B|458:301|471:221,1,130,4|0
447,122,103435,2,0,B|419:95|388:95,1,65,2|0
363,196,103775,2,0,B|332:206|296:184,1,65,0|0
301,82,104115,2,0,B|266:72|219:92,1,65,2|0
280,181,104455,5,4
471,264,104795,1,2
428,170,104965,1,4
237,86,105305,1,2
141,47,105475,1,4
63,295,105815,1,4
319,339,106155,1,2
465,148,106495,5,0
374,111,106665,1,2
312,36,106835,1,4
312,153,107005,5,0
257,234,107175,1,2
240,329,107344,1,4
187,225,107514,5,0
134,143,107684,1,2
110,49,107854,1,4
45,146,108024,5,0
112,217,108194,1,2
149,307,108364,1,4
183,195,108534,5,0
252,126,108704,1,2
290,36,108874,1,4
322,148,109044,5,2
404,201,109214,1,0
337,273,109384,1,0
421,322,109554,1,4
137,207,115333,6,0,B|210:95|311:313|394:126,4,260,0|0|0|0|0
256,192,118223,12,0,119412
256,192,119582,12,4,120772
378,72,121452,5,4
419,139,121622,1,2
383,208,121792,1,0
239,148,122132,1,2
58,167,122472,1,0
239,148,122812,1,4
58,167,123152,1,0
239,264,123492,5,0
409,264,124172,2,0,B|450:269|461:221,4,65,4|0|2|0|2
327,131,125192,1,0
146,131,125531,1,4
52,287,125871,1,0
265,226,126211,5,0
470,294,126891,1,4
415,350,127061,1,2
470,294,127231,1,0
409,123,127571,1,2
239,56,127911,1,0
368,185,128251,1,4
199,118,128591,1,0
98,286,128931,5,2
252,190,129271,1,0
402,86,129611,1,4
453,145,129781,1,2
465,222,129951,1,0
434,294,130121,1,2
373,342,130291,1,0
208,264,130631,1,0
133,245,130801,1,2
59,269,130971,1,4
192,188,131310,1,0
345,88,131644,5,4
193,54,131975,1,2
117,71,132141,1,0
62,126,132306,1,0
191,255,132638,1,0
191,255,132804,1,0
191,255,132969,2,0,B|267:271|312:207|408:262,1,195,2|0
382,249,133632,1,0
382,249,133964,1,0
382,68,134295,5,2
465,230,134627,1,0
441,304,134793,1,0
366,325,134958,1,2
237,196,135290,1,0
281,132,135456,1,0
226,77,135621,2,0,B|172:69|144:81|164:161|87:166|39:90,1,195,2|0
41,41,136284,1,0
41,223,136616,1,0
196,306,136947,5,2
358,223,137289,2,0,B|388:193|434:219,1,65,0|0
473,267,137632,1,2
387,107,137975,1,0
322,63,138147,2,0,B|292:40|242:58,1,65,0|2
157,202,138661,1,0
307,305,139004,1,2
436,176,139347,1,0
261,128,139689,5,2
132,257,140032,2,0,B|136:293|176:306,1,65
249,318,140375,1,2
323,152,140718,1,0
378,97,140889,2,0,B|402:64|449:73,1,65,0|2
475,250,141404,1,0
308,49,141747,2,2,B|352:36,2,32.5,2|2|2
229,105,142089,2,0,B|207:133,2,32.5,2|2|2
126,65,142415,6,0,B|88:59|49:91,2,65,4|0|0
241,88,142923,1,0
351,126,143092,2,0,B|387:165|436:141,2,65,4|0|0
238,159,143601,1,0
121,159,143770,2,0,B|86:161|49:187,2,65,4|0|0
218,226,144279,1,0
301,144,144448,1,4
301,261,144618,1,0
383,344,144787,1,0
466,261,144957,1,0
466,144,145126,6,0,B|492:114|453:66,2,65,4|0|0
383,228,145635,1,0
327,330,145804,2,0,B|297:356|249:317,2,65,4|0|0
383,228,146313,1,0
356,113,146482,2,0,B|382:83|343:35,2,65,4|0|0
383,228,146991,1,0
286,163,147160,1,4
240,55,147330,1,0
182,156,147499,2,0,B|143:229|213:289,1,130
429,317,148171,5,0
346,234,148338,1,0
450,182,148504,1,4
354,115,148671,1,0
251,170,148837,1,4
148,226,149004,1,4
245,293,149171,1,0
49,274,149504,5,4
103,170,149671,1,0
195,241,149837,1,4
284,317,150004,1,0
383,254,150171,1,4
286,188,150338,1,0
203,105,150504,5,4
438,105,150838,1,0
273,271,151171,1,0
39,271,151504,1,0
256,192,151837,12,4,153173
343,79,153511,5,0
241,60,153680,1,0
143,96,153849,2,0,B|178:110|195:140,1,65,4|0
106,194,154187,1,0
209,205,154356,2,0,B|238:227|275:226,1,65,4|0
173,266,154694,2,0,B|138:254|98:267,1,65
187,334,155032,2,0,B|215:353|262:334,1,65,4|0
351,317,155370,1,0
323,216,155539,6,0,B|338:173|388:167,1,65,4|0
276,122,155877,2,0,B|290:86|260:46,1,65,4|0
368,90,156215,2,0,B|383:52|420:32,2,65,0|0|4
217,269,156891,1,0
132,209,157060,1,4
367,61,157398,1,0
268,91,157567,1,4
167,65,157736,1,0
82,125,157905,1,0
181,157,158074,1,0
266,216,158243,6,0,B|255:273|152:288,2,130,4|4|0
315,124,159088,1,0
417,105,159257,2,0,B|411:140|384:182,1,65,4|0
332,249,159595,1,0
431,280,159764,2,0,B|408:305|373:325,1,65,4|0
279,343,160102,1,0
178,317,160271,1,0
93,258,160440,1,0
194,234,160609,2,0,B|235:244|267:206,1,65,4|0
340,159,160947,1,0
432,207,161116,1,0
340,254,161285,5,4
140,314,161623,2,0,B|110:343|59:319,2,65,0|0|4
78,84,162299,1,0
169,135,162468,2,0,B|151:170|114:176,1,65,4|0
214,219,162806,1,0
306,171,162975,1,0
263,77,163144,1,0
363,48,163313,2,0,B|388:24|434:34,1,65,4|0
467,126,163651,5,4
393,200,163820,1,0
469,275,163991,2,0,B|449:350|347:328,1,130,4|0
268,297,164492,1,0
209,212,164659,1,0
142,67,164993,1,0
142,67,165160,2,0,B|196:38|281:57,1,130,4|0
269,54,165662,1,0
366,92,165829,1,0
270,132,165996,1,0
369,165,166163,1,0
273,206,166330,5,4
78,134,166665,2,0,B|40:206|91:271,1,130,4|0
171,310,167166,2,0,B|154:259|206:241,1,65
435,310,167667,1,0
473,212,167835,2,0,B|481:162|456:132,1,65,4|0
362,148,168169,2,0,B|339:107|363:69,3,65,0|0|0|4
259,127,168837,1,0
166,79,169004,5,4
131,295,169339,2,0,B|202:334|268:283,1,130,4|0
318,211,169840,1,0
351,310,170007,2,0,B|403:312|421:264,1,65,4|0
444,188,170341,1,0
411,89,170509,2,0,B|375:60|328:61,1,65,4|0
250,82,170843,2,0,B|206:96|205:146,2,65
340,134,171344,1,4
377,231,171511,1,0
280,271,171679,1,0
245,173,171846,1,0
146,144,172014,6,0,B|180:92|85:34,1,130,4|4
62,139,172518,1,0
106,233,172686,2,0,B|137:259|177:261,1,65,4|0
263,292,173022,2,0,B|240:318|194:326,1,65
447,61,173694,5,4
187,61,174030,1,0
371,245,174366,1,4
371,245,174535,1,0
342,144,185463,5,4
232,254,185801,1,0
177,199,185971,1,0
232,144,186140,1,2
342,254,186479,1,0
397,310,186649,1,0
342,365,186818,1,2
453,254,187157,1,0
397,199,187327,1,0
452,144,187496,1,2
342,34,187835,1,0
287,89,188005,1,0
232,34,188174,2,0,B|137:30|101:64|92:137|166:163|216:202|214:313|18:321,1,455,2|4
279,321,189700,5,2
345,279,189869,1,0
327,203,190039,1,0
397,169,190208,1,2
378,93,190378,1,0
452,67,190547,1,2
452,223,190886,5,2
302,269,191225,1,0
247,214,191395,1,0
192,269,191564,1,2
192,113,191903,1,0
137,168,192073,1,0
82,113,192242,1,2
281,44,192581,1,0
353,75,192751,1,2
463,185,193090,1,2
353,296,193429,1,0
353,296,193598,2,0,B|279:309|233:259|264:199|273:161|189:105,1,260,2|0
206,117,194626,5,2
159,195,194969,2,0,B|148:220|158:249,2,32.5,0|0|2
249,183,195655,1,2
249,183,195826,1,0
335,213,196169,1,2
335,213,196340,2,0,B|324:165|350:155|396:155|429:187|403:268|373:295|276:268,1,260,0|0
