osu file format v6

[General]
AudioFilename: locked_girl.mp3
AudioLeadIn: 3000
PreviewTime: 20687
Countdown: 1
SampleSet: Soft
StackLeniency: 0.7
Mode: 0
LetterboxInBreaks: 0

[Editor]
DistanceSpacing: 1.6
BeatDivisor: 4
GridSize: 8

[Metadata]
Title:Locked Girl
Artist:COOL&CREATE
Creator:varq
Version:Hard
Source:Touhou
Tags:patchuoli marisa laugh maker bump of chicken embodiment of scarlet devil

[Difficulty]
HPDrainRate:7
CircleSize:4
OverallDifficulty:7
SliderMultiplier:2.6
SliderTickRate:2

[Events]
//Background and Video events
0,0,"locked_girl.png"
//Break Periods
2,33741,43657
2,87997,98116
2,109754,114433
2,174735,184563
//Storyboard Layer 0 (Background)
//Storyboard Layer 1 (Fail)
//Storyboard Layer 2 (Pass)
//Storyboard Layer 3 (Foreground)
//Storyboard Sound Samples
//Background Colour Transformations
3,100,0,0,0

[TimingPoints]
912,676.056338028169,4,2,0,60,1,0
9024,689.655172413793,4,2,0,60,1,0
11610,-100,4,2,0,70,0,0
11798,681.818181818182,4,2,0,70,1,0
19987,689.655172413793,4,2,0,70,1,0
21538,-100,4,2,0,73,0,0
21883,-100,4,2,0,75,0,0
22228,-100,4,2,0,78,0,0
22588,-100,4,2,0,80,0,0
22760,684.540787221905,4,2,0,80,1,0
30803,-100,4,2,0,100,0,0
33706,677.966101694915,4,2,0,100,1,0
44383,-100,4,2,0,60,0,0
44557,670.391061452514,4,2,0,60,1,0
52621,685.714285714286,4,2,0,60,1,0
55192,-100,4,2,0,70,0,0
55363,681.818181818182,4,2,0,70,1,0
63459,-100,4,2,0,80,0,0
63548,685.714285714286,4,2,0,80,1,0
65776,-100,4,2,0,100,0,0
77260,679.886685552408,4,2,0,90,1,0
79809,-100,4,2,0,100,0,0
82869,-100,4,2,0,90,0,0
84993,-100,4,2,0,100,0,0
115248,-100,4,2,0,20,0,0
118138,-100,4,2,0,34,0,0
121112,-100,4,2,0,60,0,0
131480,-100,4,2,0,70,0,0
131644,662.983425414365,4,2,0,70,1,0
136782,-100,4,2,0,50,0,0
136947,685.714285714286,4,2,0,50,1,0
142261,-100,4,2,0,80,0,0
142415,677.966101694915,4,2,0,80,1,0
147671,-100,4,2,0,100,0,0
147838,666.666666666667,4,2,0,100,1,0
148004,-100,4,1,0,60,0,0
149004,-100,4,1,0,80,0,0
150338,-100,4,1,1,100,0,0
153173,676.056338028169,4,1,1,100,1,0
153511,-100,4,1,1,90,0,1
163991,668.523676880223,4,1,1,90,1,1
172014,672.268907563025,4,1,1,90,1,1
175375,-100,4,1,1,90,0,0
185463,677.966101694915,4,1,1,90,1,0
185632,-100,4,2,0,60,0,0
193512,-100,4,2,0,50,0,0
193598,685.714285714286,4,2,0,50,1,0
194540,-200,4,2,0,40,0,0
194798,-200,4,2,0,30,0,0
195483,-200,4,2,0,24,0,0
195760,-200,4,2,0,20,0,0
195998,-200,4,2,0,15,0,0
196238,-200,4,2,0,10,0,0

[Colours]
Combo1 : 86,148,250
Combo2 : 255,94,255
Combo3 : 254,214,52

[HitObjects]
73,94,912,2,0,B|105:30|169:126,1,130,2|0
98,160,1419,1,0
166,197,1588,2,0,B|198:261|262:165,1,130,2|0
197,120,2095,1,0
264,81,2264,6,0,B|296:17|360:113,1,130,2|0
293,154,2771,1,0
360,193,2940,2,0,B|392:257|456:161,1,130,2|0
411,97,3447,1,0
256,192,3616,12,6,4968
280,55,5137,6,0,B|152:151,1,130
122,190,5644,1,2
147,264,5813,1,0
195,202,5982,1,0
217,276,6151,1,0
267,216,6320,5,2
224,32,6827,1,2
188,101,6996,1,0
320,256,7503,1,2
274,319,7672,1,0
192,160,8179,5,2
192,160,8517,1,0
347,160,8855,2,0,B|388:162|396:217,1,65,2|4
247,96,10403,5,6
277,220,11092,2,0,B|246:235|214:219,2,65,2|0|2
448,212,11798,6,0,B|377:231|370:307,1,130,2|0
325,240,12309,1,0
376,181,12479,2,0,B|308:144|311:74,1,130,2|0
249,125,12991,1,0
258,202,13161,6,0,B|187:221|180:297,1,130,2|0
134,230,13673,1,0
184,170,13843,2,0,B|116:133|119:63,1,130,2|0
75,131,14354,1,0
256,192,14525,12,4,15888
182,84,16059,6,0,B|137:89|128:141,1,65,2|0
86,243,16570,2,0,B|136:262|157:243,1,65,2|0
193,200,16911,2,2,B|220:166|256:193,1,65,0|2
304,225,17252,5,0
452,302,17763,1,2
422,229,17934,1,0
247,73,18445,1,2
229,149,18616,1,0
248,288,19127,6,0,B|204:237|315:235|273:161,1,130,0|0
197,108,19809,1,2
197,108,19987,1,4
283,147,21021,6,0,B|279:193|323:175,2,65,2|0|6
134,253,21711,1,6
302,321,22055,1,4
340,143,22400,5,4
340,143,22760,1,4
90,79,23273,2,0,B|137:143,1,65
264,207,23786,1,2
264,207,23957,1,0
236,53,24300,1,0
345,164,24642,1,2
345,164,24813,1,4
389,313,25155,5,4
427,161,25498,1,4
276,119,25840,1,0
219,65,26011,1,0
201,141,26182,1,2
78,44,26524,2,0,B|37:49|46:93,1,65
147,207,27038,1,0
211,251,27209,1,2
276,292,27380,1,0
346,327,27551,1,6
256,192,27894,5,4
256,36,28236,1,4
379,131,28578,2,0,B|443:195,2,65
256,35,29263,1,2
256,35,29434,1,0
128,128,29776,1,0
64,192,29947,1,2
128,256,30118,1,0
205,303,30289,1,6
386,309,30632,1,4
299,185,30974,5,4
427,96,31316,1,2
471,159,31487,1,0
438,229,31659,1,0
312,321,32001,2,0,B|276:333|241:306,1,65,2|0
106,248,32514,1,0
67,179,32685,1,0
81,102,32856,1,0
146,61,33028,1,2
300,40,33370,2,0,B|335:35|375:59,1,65,2|4
369,126,44557,6,0,B|453:132|379:233,1,130,2|0
319,181,45059,1,0
319,181,45227,1,0
193,181,45730,5,0
193,181,45897,2,0,B|160:96|96:224,1,130,2|0
170,249,46400,1,0
170,249,46568,1,0
280,93,47070,5,0
346,53,47238,2,0,B|494:57|494:176|276:186|274:339|478:336,1,455,0|6
56,329,48746,6,0,B|167:330|121:209,1,130,2|0
100,179,49249,1,2
69,107,49417,1,0
125,52,49584,1,2
280,40,49920,6,0,B|352:112|272:176,1,130,2|0
215,155,50422,1,0
246,225,50590,2,0,B|174:297|254:361,1,130,2|0
310,343,51093,1,0
388,339,51260,6,0,B|460:267|380:203,1,130,2|0
365,155,51763,2,0,B|309:87|252:156,2,130,2|0|2
309,209,52621,1,4
108,89,53992,5,4
396,207,54678,2,0,B|461:234,2,65,2|0|0
304,85,55363,6,0,B|158:85,1,130,2|0
132,143,55874,1,0
210,142,56044,2,0,B|366:142,1,130,2|0
391,200,56556,1,0
313,199,56726,6,0,B|157:199,1,130,2|0
130,257,57237,1,0
208,256,57408,2,0,B|364:256,1,130,2|0
389,314,57919,1,0
311,313,58090,2,0,B|155:313,3,130
243,51,59624,5,2
167,34,59794,1,0
189,108,59965,1,0
113,91,60135,1,2
132,166,60306,1,0
56,149,60476,1,2
129,286,60817,6,0,B|176:337|254:294,1,130,2|0
192,242,61328,1,0
192,242,61499,2,0,B|239:191|317:234,1,130,2|0
256,286,62010,1,0
256,286,62181,2,0,B|303:337|381:294,1,130,2|0
319,242,62692,5,2
454,163,63033,1,0
335,61,63374,1,2
335,61,63548,1,4
179,99,64576,5,0
125,180,64748,1,2
222,183,64919,1,6
222,183,65262,1,4
399,263,65605,1,4
378,136,65948,5,4
247,49,66290,2,0,B|148:29|96:85,1,130,4|0
56,107,66805,1,2
56,107,66976,1,0
216,312,67319,1,2
216,312,67490,1,0
249,54,67833,1,0
472,187,68176,2,0,B|515:220|453:244,1,65,2|4
217,188,68690,5,4
35,102,69033,2,0,B|73:36|159:30,1,130,6|0
217,35,69547,1,2
217,35,69719,1,0
443,162,70062,1,2
443,162,70233,2,0,B|451:234|374:279,1,130
219,293,70748,2,0,B|182:294|179:250,2,65
350,55,71433,6,0,B|376:20|426:52,1,65,4|0
467,111,71776,2,0,B|498:150|449:184,1,65,6|0
377,189,72119,2,0,B|327:194|320:142,2,65,0|2|0
145,69,72805,1,2
145,69,72976,2,0,B|99:93|126:118|160:146|108:179,1,130
139,264,73490,1,2
215,214,73662,1,0
290,164,73833,1,6
109,137,74176,1,4
363,82,74519,5,6
394,286,74862,2,0,B|361:322|320:309,2,65,0|2|0
363,80,75547,1,0
363,80,75719,1,0
179,177,76062,1,0
87,225,76233,1,2
179,275,76405,1,2
274,234,76576,1,0
427,127,76919,2,0,B|454:102|462:54,1,65,0|6
138,66,77599,5,2
141,222,77939,1,2
73,260,78109,1,0
144,290,78279,1,2
212,251,78449,1,4
292,117,78789,1,2
298,325,79129,1,4
464,200,79469,1,2
464,200,79639,1,4
349,94,79979,5,2
277,64,80149,1,0
282,141,80319,1,4
400,248,80659,1,2
445,311,80829,1,0
366,314,80999,1,0
321,249,81169,2,0,B|371:117|272:74|204:241|90:198|142:44,1,390,6|2
139,53,82359,1,4
295,56,82699,1,4
431,130,83039,5,2
355,267,83378,2,0,B|412:312,2,65,2|0|0
294,217,83888,1,6
199,32,84228,1,0
34,160,84568,1,6
118,349,84908,1,0
97,273,85078,5,6
88,117,85418,1,2
147,67,85588,1,0
222,87,85758,2,0,B|266:118|217:171|256:209,1,130,6|2
305,265,86268,1,0
375,297,86438,1,0
452,288,86608,2,0,B|510:248|488:121|398:124|359:227|286:199|221:137|281:50|382:21|456:77,1,455,6|4
205,152,99016,6,0,B|162:145|155:77,2,65,4|2|4
323,240,99696,1,4
350,312,99866,1,2
391,245,100036,1,0
361,172,100206,1,6
401,55,100546,1,2
326,31,100716,1,4
98,87,101226,5,2
172,63,101395,1,4
249,58,101565,1,0
324,76,101735,2,4,B|365:92|398:134,2,65,4|0|2
202,272,102415,1,4
279,264,102585,1,0
322,198,102755,1,2
261,148,102925,1,4
120,79,103265,2,0,B|61:52,6,65,2|0|2|4|2|0|2
176,133,104455,5,4
292,335,104965,1,4
416,136,105475,1,4
295,234,105815,1,6
304,86,106495,6,0,B|345:70|381:86,2,65,4|2|0
236,124,107005,2,0,B|195:108|159:124,2,65,4|2|0
303,163,107514,2,0,B|344:147|380:163,2,65,4|2|0
236,203,108024,2,0,B|195:187|159:203,2,65,4|2|0
304,240,108534,2,0,B|345:224|381:240,2,65,4|2|0
235,276,109044,1,0
159,294,109214,1,6
86,265,109384,1,0
48,196,109554,1,6
137,207,115333,6,0,B|210:95|311:313|394:126,4,260,2|2|2|2|2
256,192,118223,12,2,119412
256,192,119582,12,0,120772
413,87,121452,5,4
382,239,121792,1,0
268,131,122132,1,0
149,345,122812,1,4
373,58,123492,5,0
112,243,124172,2,0,B|134:318|230:360,2,130,4|0|0
53,98,125192,1,0
201,145,125531,1,4
451,46,126211,5,0
300,286,126891,1,4
152,234,127231,1,0
155,78,127571,1,0
405,122,128251,1,4
78,282,128931,5,0
337,101,129611,2,0,B|299:29|214:41,2,130,4|0|0
348,253,130631,1,0
474,344,130971,1,4
291,160,131644,5,0
147,99,131975,1,2
69,111,132141,1,0
56,187,132306,1,2
238,335,132804,1,2
238,334,132969,2,2,B|315:339|354:281|337:192,1,195
338,203,133632,1,0
330,61,134295,5,2
417,190,134627,1,2
437,265,134793,1,0
376,313,134958,1,2
291,94,135456,1,0
214,80,135621,2,0,B|122:48|123:144|26:145,1,195
40,144,136284,1,0
136,278,136947,5,2
109,124,137289,2,0,B|139:94|185:120,1,65,2|0
238,148,137632,1,2
299,330,138147,2,0,B|346:351|390:306,1,65,0|2
402,177,138661,1,2
272,89,139004,1,0
72,125,139689,5,2
110,276,140032,2,0,B|146:306|191:260,1,65,2|0
219,216,140375,1,2
279,62,140889,2,0,B|303:29|350:38,1,65,0|2
473,110,141404,1,2
414,254,141747,1,0
390,75,142415,6,0,B|426:114|475:90,2,65,4|0|0
98,124,143092,2,0,B|62:163|13:139,2,65,4|0|2
391,181,143770,2,0,B|427:220|476:196,2,65,4|0|2
319,150,144279,1,0
257,102,144448,1,6
203,158,144618,1,0
161,223,144787,1,0
132,295,144957,1,0
206,320,145126,6,0,B|236:294|284:333,2,65,4|0|2
273,179,145804,2,0,B|303:153|351:192,2,65,4|0|2
344,39,146482,2,0,B|374:13|422:52,2,65,4|0|2
266,47,146991,1,0
194,77,147160,1,6
148,140,147330,1,0
111,208,147499,2,0,B|72:281|142:341,1,130,2|0
448,320,148171,5,0
448,64,148504,1,0
192,64,148837,1,0
320,192,149171,5,4
192,320,149504,5,0
448,320,149837,1,0
448,64,150171,1,0
320,192,150504,5,4
64,192,151171,1,4
256,192,151837,12,4,153173
102,128,153680,5,4
102,128,153849,1,0
243,63,154187,1,0
243,63,154356,1,4
384,127,154694,1,0
244,196,155032,2,0,B|244:271,1,65,4|4
378,339,155539,6,0,B|414:333|443:290,1,65,4|0
449,228,155877,2,0,B|463:192|433:152,1,65,4|0
400,99,156215,2,0,B|382:64|335:59,2,65,0|4|0
378,253,156891,1,4
378,253,157060,1,0
252,160,157398,1,0
195,106,157567,1,4
117,94,157736,1,0
48,130,157905,1,0
153,244,158243,6,0,B|188:299|301:288,1,130,4|4
417,243,158919,1,4
459,177,159088,1,0
447,99,159257,1,4
298,49,159595,1,4
220,49,159764,1,0
332,156,160102,1,4
255,168,160271,1,0
305,227,160440,1,0
227,238,160609,2,0,B|158:282,1,65,0|0
104,311,160947,1,4
106,75,161285,5,4
261,79,161623,2,0,B|290:53|343:82,2,65,0|4|0
147,185,162299,1,4
111,254,162468,1,0
257,307,162806,1,4
328,276,162975,1,0
265,229,163144,1,0
336,197,163313,2,0,B|383:147,1,65,4|0
435,94,163651,5,4
283,44,163991,2,0,B|214:42|161:97,1,130,4|0
110,146,164492,1,4
110,146,164659,1,0
256,192,164993,1,0
256,192,165160,2,0,B|331:216|395:182,1,130,4|0
444,139,165662,1,4
312,55,165996,1,4
176,136,166330,5,0
119,311,166665,2,0,B|183:341|261:318,1,130,4|0
313,282,167166,2,0,B|355:246|348:204,1,65,4|0
284,85,167667,1,4
212,116,167835,1,0
99,223,168169,2,0,B|61:253|107:286,3,65,4|0|4|4
298,341,169004,5,4
391,216,169339,2,0,B|404:141|333:89,1,130,4|0
278,63,169840,1,4
278,63,170007,1,0
125,96,170341,1,4
125,96,170509,1,0
266,162,170843,2,0,B|297:174|296:227,2,65,0|4|0
189,148,171344,1,0
53,226,171679,1,4
205,224,172014,6,4,B|276:198|328:152,1,130,4|0
370,109,172518,1,4
425,165,172686,1,0
432,322,173022,2,0,B|409:348|363:356,1,65,4|0
126,292,173694,5,4
159,84,174030,1,0
317,222,174366,1,0
317,222,174535,1,4
435,56,185463,5,4
201,66,185971,1,2
271,99,186140,1,0
74,226,186649,1,2
140,266,186818,1,0
369,312,187327,1,2
438,276,187496,1,0
332,67,188005,1,0
256,85,188174,2,2,B|216:120|77:67|23:151|144:197|203:200|202:356|28:339,1,455
54,184,189700,5,2
208,208,190039,1,0
282,184,190208,1,2
274,261,190378,1,0
345,229,190547,1,2
463,128,190886,5,2
232,73,191395,1,2
154,76,191564,1,0
308,251,192073,1,2
230,252,192242,1,0
419,114,192751,1,0
410,321,193090,1,0
201,322,193429,1,0
201,322,193598,2,2,B|117:346|82:266|177:255|172:199|49:176,1,260,6|2
189,88,194626,5,2
292,83,194969,2,2,B|302:62|335:62,2,32.5,2|2|2
215,153,195655,1,2
215,153,195826,1,0
191,254,196169,1,2
191,254,196340,2,0,B|212:333|307:327|280:208|376:207|397:311,1,260
