osu file format v6

[General]
AudioFilename: locked_girl.mp3
AudioLeadIn: 3000
PreviewTime: 20687
Countdown: 1
SampleSet: Soft
StackLeniency: 0.7
Mode: 0
LetterboxInBreaks: 0

[Editor]
DistanceSpacing: 1
BeatDivisor: 4
GridSize: 8

[Metadata]
Title:Locked Girl
Artist:COOL&CREATE
Creator:varq
Version:Easy
Source:touhou
Tags:patchuoli marisa laugh maker bump of chicken embodiment of scarlet devil

[Difficulty]
HPDrainRate:3
CircleSize:4
OverallDifficulty:2
SliderMultiplier:1.2
SliderTickRate:2

[Events]
//Background and Video events
0,0,"locked_girl.png"
//Break Periods
2,33912,42997
2,87658,97456
2,109754,113773
2,174902,183903
//Storyboard Layer 0 (Background)
//Storyboard Layer 1 (Fail)
//Storyboard Layer 2 (Pass)
//Storyboard Layer 3 (Foreground)
//Storyboard Sound Samples
//Background Colour Transformations
3,100,0,0,0

[TimingPoints]
912,676.056338028169,4,2,0,60,1,0
9024,689.655172413793,4,2,0,60,1,0
11610,-100,4,2,0,70,0,0
11798,681.818181818182,4,2,0,70,1,0
19987,689.655172413793,4,2,0,70,1,0
21538,-100,4,2,0,73,0,0
21883,-100,4,2,0,75,0,0
22228,-100,4,2,0,78,0,0
22588,-100,4,2,0,80,0,0
22760,684.540787221905,4,2,0,80,1,0
30803,-100,4,2,0,100,0,0
33706,677.966101694915,4,2,0,100,1,0
44383,-100,4,2,0,60,0,0
44557,670.391061452514,4,2,0,60,1,0
52621,685.714285714286,4,2,0,60,1,0
55192,-100,4,2,0,70,0,0
55363,681.818181818182,4,2,0,70,1,0
63459,-100,4,2,0,80,0,0
63548,685.714285714286,4,2,0,80,1,0
65776,-100,4,2,0,100,0,0
77260,679.886685552408,4,2,0,90,1,0
79809,-100,4,2,0,100,0,0
82869,-100,4,2,0,90,0,0
84993,-100,4,2,0,100,0,0
115248,-100,4,2,0,20,0,0
118138,-100,4,2,0,34,0,0
121112,-100,4,2,0,60,0,0
131480,-100,4,2,0,70,0,0
131644,662.983425414365,4,2,0,70,1,0
136782,-100,4,2,0,50,0,0
136947,685.714285714286,4,2,0,50,1,0
142261,-100,4,2,0,80,0,0
142415,677.966101694915,4,2,0,80,1,0
147671,-100,4,2,0,100,0,0
147838,666.666666666667,4,2,0,100,1,0
148004,-100,4,1,0,60,0,0
149004,-100,4,1,0,80,0,0
150338,-100,4,1,1,100,0,0
153173,676.056338028169,4,1,1,100,1,0
153511,-100,4,1,1,90,0,1
163991,668.523676880223,4,1,1,90,1,1
172014,672.268907563025,4,1,1,90,1,1
175375,-100,4,1,1,90,0,0
185463,677.966101694915,4,1,1,90,1,0
185632,-100,4,2,0,60,0,0
193512,-100,4,2,0,50,0,0
193598,685.714285714286,4,2,0,50,1,0
194540,-200,4,2,0,40,0,0
194798,-200,4,2,0,30,0,0
195483,-200,4,2,0,24,0,0
195760,-200,4,2,0,20,0,0
195998,-200,4,2,0,15,0,0
196238,-200,4,2,0,10,0,0

[Colours]
Combo1 : 86,148,250
Combo2 : 255,94,255
Combo3 : 254,214,52

[HitObjects]
35,96,912,1,0
160,96,1588,1,0
288,96,2264,1,2
416,96,2940,1,0
416,224,3616,2,2,L|416:256|192:256,1,240,2|6
144,256,5306,5,0
144,192,5644,1,2
144,128,5982,1,0
144,64,6320,5,2
272,64,6996,1,0
400,64,7672,1,2
400,192,8348,1,0
400,320,9024,1,4
163,202,10403,6,0,B|208:161|115:70|227:33,1,180,4|0
288,40,11798,5,2
400,108,12479,1,0
288,178,13161,1,2
404,240,13843,1,0
289,306,14525,2,2,L|49:306,1,240,2|6
48,240,16229,5,0
48,176,16570,1,2
48,112,16911,1,0
48,48,17252,1,2
176,88,17934,5,0
304,128,18616,1,2
432,168,19297,1,0
304,216,19987,1,4
107,220,21021,6,2,L|107:280,1,60,2|6
40,280,21711,2,2,L|40:220,1,60,2|6
40,152,22400,1,4
40,80,22760,5,6
171,80,23444,1,0
303,80,24129,1,2
434,80,24813,1,4
434,80,25155,5,6
434,80,25498,1,6
434,211,26182,1,0
301,211,26867,1,2
169,211,27551,1,4
169,211,27894,5,6
169,211,28236,1,6
169,67,28920,1,0
301,65,29605,1,2
432,65,30289,1,4
432,65,30632,5,6
432,65,30974,1,6
338,159,31659,1,0
221,97,32343,2,0,B|125:145|93:297,1,240,2|4
160,80,44557,5,2
232,192,45227,1,0
296,80,45897,1,2
368,192,46568,1,0
296,304,47238,2,2,L|56:304,1,240,2|6
56,232,48914,5,0
56,232,49249,1,2
56,232,49584,1,0
56,232,49920,5,2
184,168,50590,1,0
312,232,51260,1,2
440,168,51931,1,0
312,104,52601,1,4
40,128,53992,6,2,B|24:224|96:304,1,180,4|0
144,328,55363,5,2
144,200,56044,1,0
272,200,56726,1,2
272,328,57408,1,0
400,328,58090,2,2,L|400:200|264:200,1,240,2|6
224,200,59794,5,0
160,200,60135,1,2
160,136,60476,1,0
96,136,60817,5,2
96,264,61499,1,0
224,264,62181,1,2
352,264,62862,1,0
480,264,63548,1,4
389,56,64576,5,0
320,56,64919,1,4
251,56,65262,1,4
203,104,65605,1,4
155,152,65948,5,4
104,200,66290,1,6
104,320,66976,1,6
224,320,67662,2,6,L|224:200,1,120
224,200,68690,5,4
224,200,69033,1,4
222,80,69719,1,2
282,80,70062,1,4
342,80,70405,1,2
342,140,70748,1,6
342,200,71090,1,4
342,200,71433,5,4
342,200,71776,1,4
221,200,72462,1,0
221,80,73147,1,2
101,80,73833,1,4
101,80,74176,5,4
101,80,74519,1,6
101,200,75205,1,2
221,200,75890,2,0,B|295:200,1,60,6|2
281,139,76576,2,0,B|281:70,1,60,6|6
221,79,77260,1,6
192,240,77939,5,2
304,328,78619,1,0
416,240,79299,1,2
304,152,79979,6,0,L|248:104,4,60,4|2|4|2|4
392,264,82019,1,0
328,264,82359,1,2
264,264,82699,1,4
152,192,83378,5,2
256,112,84058,1,0
360,192,84738,1,2
256,280,85418,2,0,L|256:352,4,60,4|2|4|2|4
256,144,87458,1,4
128,112,99016,5,4
256,112,99696,1,0
384,112,100376,1,4
336,160,100716,1,0
288,208,101056,1,4
240,256,101395,1,2
184,216,101735,5,4
48,216,102415,2,0,B|52:164|93:111,1,90,0|4
184,104,103435,1,0
248,104,103775,1,4
312,104,104115,1,2
376,104,104455,6,2,B|432:104|432:168,2,90,6|2|6
312,104,105815,1,4
256,192,106495,12,4,109554
200,192,115333,6,0,B|240:176|280:208|320:192,4,120,2|2|2|2|2
256,192,118223,12,2,120772
120,88,121452,5,4
232,152,122132,2,0,B|336:216,1,120,0|4
432,296,123492,5,0
304,320,124172,1,4
184,256,124852,2,0,B|80:160,1,120,0|4
168,64,126211,5,0
240,176,126891,1,4
312,64,127571,2,0,B|384:184,1,120,0|4
328,288,128931,5,0
192,288,129611,1,4
256,176,130291,2,0,B|256:40,1,120,0|4
360,136,131644,6,0,B|400:200|360:264,1,120,2|0
232,256,132969,2,0,B|192:192|232:128,1,120,2|0
336,72,134295,6,0,B|400:32|464:72,1,120,2|0
456,192,135621,2,0,B|392:232|328:192,1,120,2|0
256,104,136947,6,0,B|192:64|128:104,1,120,2|0
144,224,138318,2,0,B|208:264|272:224,1,120,2|0
384,216,139689,6,0,B|424:280|384:344,1,120,2|0
256,328,141061,2,0,B|232:296|256:264,2,60,0|2|4
384,328,142415,5,0
440,288,142753,1,4
384,248,143092,1,0
440,208,143431,1,4
384,168,143770,1,0
440,128,144109,1,4
384,88,144448,1,4
248,88,145126,5,0
192,128,145465,1,4
248,168,145804,1,0
192,208,146143,1,4
248,248,146482,1,0
192,288,146821,1,4
248,328,147160,1,4
384,328,147838,5,4
384,264,148171,2,0,B|448:264,2,60,0|0|4
320,264,149171,5,4
256,264,149504,2,0,B|256:336,2,60,0|0|4
256,200,150504,5,4
256,64,151171,1,4
256,192,151837,12,4,153173
136,64,153849,5,4
136,192,154525,2,0,B|88:232,2,60,0|0|4
186,141,155539,5,4
237,90,155877,1,4
339,191,156553,1,0
224,272,157229,2,0,B|296:272,2,60,4|0|4
152,272,158243,5,4
80,272,158581,1,4
185,215,159257,1,0
292,160,159933,2,0,B|363:117,2,60,4|0|4
335,203,160947,1,4
335,263,161285,5,4
200,212,161961,1,0
264,92,162637,2,0,B|264:20,2,60,4|0|4
264,163,163651,5,4
264,234,163991,1,4
376,300,164659,1,0
426,177,165328,1,0
424,111,165662,1,4
364,138,165996,1,0
366,203,166330,5,4
318,248,166665,1,4
187,267,167333,1,0
112,164,168002,1,0
168,132,168336,1,4
224,164,168670,1,0
280,132,169004,5,4
336,164,169339,1,4
336,292,170007,1,0
216,228,170676,1,0
152,228,171010,1,4
152,164,171344,1,0
216,164,171679,1,4
216,100,172014,5,4
344,100,172686,1,0
400,292,173694,2,0,B|456:348,3,60,0|4|0|4
120,104,185463,5,0
376,152,186818,1,0
120,208,188174,1,2
216,304,189869,5,2
256,256,190208,1,0
296,208,190547,1,0
336,160,190886,5,2
88,72,192242,1,0
176,320,193598,1,6
264,280,194626,6,2,B|280:288|296:280,1,30,2|0
336,264,195312,2,0,B|376:248|376:216,1,60,2|0
376,176,196340,1,2
