osu file format v14

[General]
AudioFilename: Last Brutal Sister Flandre S.mp3
AudioLeadIn: 0
PreviewTime: 154193
Countdown: 0
SampleSet: None
StackLeniency: 0.3
Mode: 1
LetterboxInBreaks: 0
WidescreenStoryboard: 1

[Editor]
DistanceSpacing: 0.85
BeatDivisor: 1
GridSize: 32
TimelineZoom: 1.7

[Metadata]
Title:Last Brutal Sister Flandre S
TitleUnicode:最終鬼畜妹フランドール・S
Artist:COOL&CREATE
ArtistUnicode:COOL&CREATE
Creator:Touhou_Greek
Version:Kantan
Source:
Tags:
BeatmapID:1108120
BeatmapSetID:521733

[Difficulty]
HPDrainRate:4
CircleSize:5
OverallDifficulty:5
ApproachRate:9
SliderMultiplier:1.4
SliderTickRate:1

[Events]
//Background and Video events
0,0,"Flandre.Scarlet.full.1902573.jpg",0,0
//Break Periods
//Storyboard Layer 0 (Background)
//Storyboard Layer 1 (Fail)
//Storyboard Layer 2 (Pass)
//Storyboard Layer 3 (Foreground)
//Storyboard Sound Samples

[TimingPoints]
585,300,4,1,0,100,1,0
38985,-100,4,1,0,100,0,1
58185,-100,4,1,0,100,0,0
96585,-100,4,1,0,100,0,1
115785,-100,4,1,0,100,0,0
134985,-100,4,1,0,100,0,1
173385,-100,4,1,0,100,0,0

[Colours]
Combo1 : 255,0,0
Combo2 : 0,0,128
Combo3 : 128,0,128

[HitObjects]
256,192,585,1,0,0:0:0:0:
256,192,1785,1,0,0:0:0:0:
256,192,2985,1,8,0:0:0:0:
256,192,4185,1,8,0:0:0:0:
256,192,5385,5,0,0:0:0:0:
256,192,6585,5,0,0:0:0:0:
256,192,7785,1,8,0:0:0:0:
256,192,8985,1,8,0:0:0:0:
256,192,10185,5,0,0:0:0:0:
256,192,10485,1,0,0:0:0:0:
256,192,11385,1,8,0:0:0:0:
256,192,12585,5,0,0:0:0:0:
256,192,12885,1,0,0:0:0:0:
256,192,13485,1,0,0:0:0:0:
256,192,13785,1,0,0:0:0:0:
256,192,14385,1,8,0:0:0:0:
256,192,14985,5,0,0:0:0:0:
256,192,15285,1,0,0:0:0:0:
256,192,16185,1,8,0:0:0:0:
256,192,17385,5,0,0:0:0:0:
256,192,17685,1,0,0:0:0:0:
256,192,18285,1,0,0:0:0:0:
256,192,18585,1,0,0:0:0:0:
256,192,19185,1,8,0:0:0:0:
256,192,19785,5,0,0:0:0:0:
256,192,20385,5,0,0:0:0:0:
256,192,20985,5,8,0:0:0:0:
256,192,22185,5,0,0:0:0:0:
256,192,22485,5,0,0:0:0:0:
256,192,23085,5,8,0:0:0:0:
256,192,23385,5,8,0:0:0:0:
256,192,23985,5,0,0:0:0:0:
256,192,24585,5,0,0:0:0:0:
256,192,24885,1,0,0:0:0:0:
256,192,25785,1,8,0:0:0:0:
256,192,26985,5,0,0:0:0:0:
256,192,27285,1,0,0:0:0:0:
256,192,27885,1,0,0:0:0:0:
256,192,28185,1,0,0:0:0:0:
256,192,28785,1,8,0:0:0:0:
256,192,29385,5,0,0:0:0:0:
256,192,29685,1,0,0:0:0:0:
256,192,30585,1,8,0:0:0:0:
256,192,31785,5,0,0:0:0:0:
256,192,32085,1,0,0:0:0:0:
256,192,32685,1,0,0:0:0:0:
256,192,32985,1,0,0:0:0:0:
256,192,33585,1,8,0:0:0:0:
256,192,34185,5,0,0:0:0:0:
256,192,34485,1,0,0:0:0:0:
256,192,35385,1,8,0:0:0:0:
256,192,36585,5,0,0:0:0:0:
256,192,36885,1,0,0:0:0:0:
256,192,37485,1,0,0:0:0:0:
256,192,37785,1,0,0:0:0:0:
256,96,38385,2,0,L|352:32,1,113.75
256,192,38985,5,0,0:0:0:0:
256,192,39285,1,8,0:0:0:0:
256,192,39585,1,8,0:0:0:0:
256,192,40185,1,0,0:0:0:0:
256,192,40785,1,8,0:0:0:0:
256,192,41385,5,0,0:0:0:0:
256,192,41685,1,0,0:0:0:0:
256,192,41985,1,8,0:0:0:0:
256,192,42285,1,0,0:0:0:0:
256,192,42585,1,0,0:0:0:0:
32,192,42885,6,0,L|384:192,1,280
256,192,43785,5,0,0:0:0:0:
256,192,44085,1,8,0:0:0:0:
256,192,44385,1,8,0:0:0:0:
256,192,44985,1,0,0:0:0:0:
256,192,45585,1,8,0:0:0:0:
256,192,46185,5,0,0:0:0:0:
256,192,46485,1,0,0:0:0:0:
256,192,46785,1,8,0:0:0:0:
256,192,47085,1,0,0:0:0:0:
256,192,47385,1,0,0:0:0:0:
32,192,47685,6,0,L|384:192,1,280
256,192,48585,5,0,0:0:0:0:
256,192,48885,1,8,0:0:0:0:
256,192,49185,1,8,0:0:0:0:
256,192,49785,1,0,0:0:0:0:
256,192,50385,1,8,0:0:0:0:
256,192,50985,5,0,0:0:0:0:
256,192,51285,1,0,0:0:0:0:
256,192,51585,1,8,0:0:0:0:
256,192,51885,1,0,0:0:0:0:
256,192,52185,1,0,0:0:0:0:
32,192,52485,6,0,L|384:192,1,280
256,192,53385,5,0,0:0:0:0:
256,192,53685,1,8,0:0:0:0:
256,192,53985,1,8,0:0:0:0:
256,192,54585,1,0,0:0:0:0:
256,192,55185,1,8,0:0:0:0:
256,192,55785,5,0,0:0:0:0:
256,192,56085,1,0,0:0:0:0:
256,192,56385,1,8,0:0:0:0:
256,192,56685,1,0,0:0:0:0:
256,192,56985,1,0,0:0:0:0:
32,192,57285,6,0,L|384:192,1,280
256,192,58185,5,0,0:0:0:0:
256,192,59385,1,8,0:0:0:0:
256,192,59685,1,8,0:0:0:0:
256,192,59985,1,8,0:0:0:0:
256,192,60585,5,0,0:0:0:0:
256,192,61785,1,8,0:0:0:0:
256,192,62085,1,8,0:0:0:0:
256,192,62385,1,8,0:0:0:0:
256,192,62985,5,0,0:0:0:0:
256,192,64185,1,8,0:0:0:0:
256,192,64485,1,8,0:0:0:0:
256,192,64785,1,8,0:0:0:0:
256,192,65385,5,0,0:0:0:0:
256,192,66585,1,8,0:0:0:0:
256,192,66885,1,8,0:0:0:0:
256,192,67185,1,8,0:0:0:0:
256,192,67785,5,0,0:0:0:0:
256,192,68985,1,8,0:0:0:0:
256,192,69285,1,8,0:0:0:0:
256,192,69585,1,8,0:0:0:0:
256,192,70185,5,0,0:0:0:0:
256,192,71385,1,8,0:0:0:0:
256,192,71685,1,8,0:0:0:0:
256,192,71985,1,8,0:0:0:0:
256,192,72585,5,0,0:0:0:0:
256,192,73785,1,8,0:0:0:0:
256,192,74085,1,8,0:0:0:0:
256,192,74385,1,8,0:0:0:0:
256,192,74985,5,0,0:0:0:0:
0,96,76185,2,0,L|480:96,1,420
256,192,96585,5,0,0:0:0:0:
256,192,96885,1,8,0:0:0:0:
256,192,97185,1,8,0:0:0:0:
256,192,97785,1,0,0:0:0:0:
256,192,98385,1,8,0:0:0:0:
256,192,98985,5,0,0:0:0:0:
256,192,99285,1,0,0:0:0:0:
256,192,99585,1,8,0:0:0:0:
256,192,99885,1,0,0:0:0:0:
256,192,100185,1,0,0:0:0:0:
32,192,100485,6,0,L|384:192,1,280
256,192,101385,5,0,0:0:0:0:
256,192,101685,1,8,0:0:0:0:
256,192,101985,1,8,0:0:0:0:
256,192,102585,1,0,0:0:0:0:
256,192,103185,1,8,0:0:0:0:
256,192,103785,5,0,0:0:0:0:
256,192,104085,1,0,0:0:0:0:
256,192,104385,1,8,0:0:0:0:
256,192,104685,1,0,0:0:0:0:
256,192,104985,1,0,0:0:0:0:
32,192,105285,6,0,L|384:192,1,280
256,192,106185,5,0,0:0:0:0:
256,192,106485,1,8,0:0:0:0:
256,192,106785,1,8,0:0:0:0:
256,192,107385,1,0,0:0:0:0:
256,192,107985,1,8,0:0:0:0:
256,192,108585,5,0,0:0:0:0:
256,192,108885,1,0,0:0:0:0:
256,192,109185,1,8,0:0:0:0:
256,192,109485,1,0,0:0:0:0:
256,192,109785,1,0,0:0:0:0:
32,192,110085,6,0,L|384:192,1,280
256,192,110985,5,0,0:0:0:0:
256,192,111285,1,8,0:0:0:0:
256,192,111585,1,8,0:0:0:0:
256,192,112185,1,0,0:0:0:0:
256,192,112785,1,8,0:0:0:0:
256,192,113385,5,0,0:0:0:0:
256,192,113685,1,0,0:0:0:0:
256,192,113985,1,8,0:0:0:0:
256,192,114285,1,0,0:0:0:0:
256,192,114585,1,0,0:0:0:0:
32,192,114885,6,0,L|384:192,1,280
256,192,134985,5,0,0:0:0:0:
256,192,135285,1,8,0:0:0:0:
256,192,135585,1,8,0:0:0:0:
256,192,136185,1,0,0:0:0:0:
256,192,136785,1,8,0:0:0:0:
256,192,137385,5,0,0:0:0:0:
256,192,137685,1,0,0:0:0:0:
256,192,137985,1,8,0:0:0:0:
256,192,138285,1,0,0:0:0:0:
256,192,138585,1,0,0:0:0:0:
32,192,138885,6,0,L|384:192,1,280
256,192,139785,5,0,0:0:0:0:
256,192,140085,1,8,0:0:0:0:
256,192,140385,1,8,0:0:0:0:
256,192,140985,1,0,0:0:0:0:
256,192,141585,1,8,0:0:0:0:
256,192,142185,5,0,0:0:0:0:
256,192,142485,1,0,0:0:0:0:
256,192,142785,1,8,0:0:0:0:
256,192,143085,1,0,0:0:0:0:
256,192,143385,1,0,0:0:0:0:
32,192,143685,6,0,L|384:192,1,280
256,192,144585,5,0,0:0:0:0:
256,192,144885,1,8,0:0:0:0:
256,192,145185,1,8,0:0:0:0:
256,192,145785,1,0,0:0:0:0:
256,192,146385,1,8,0:0:0:0:
256,192,146985,5,0,0:0:0:0:
256,192,147285,1,0,0:0:0:0:
256,192,147585,1,8,0:0:0:0:
256,192,147885,1,0,0:0:0:0:
256,192,148185,1,0,0:0:0:0:
32,192,148485,6,0,L|384:192,1,280
256,192,149385,5,0,0:0:0:0:
256,192,149685,1,8,0:0:0:0:
256,192,149985,1,8,0:0:0:0:
256,192,150585,1,0,0:0:0:0:
256,192,151185,1,8,0:0:0:0:
256,192,151785,5,0,0:0:0:0:
256,192,152085,1,0,0:0:0:0:
256,192,152385,1,8,0:0:0:0:
256,192,152685,1,0,0:0:0:0:
256,192,152985,1,0,0:0:0:0:
32,192,153285,6,0,L|384:192,1,280
256,192,154185,5,0,0:0:0:0:
256,192,154485,1,0,0:0:0:0:
256,192,154785,1,0,0:0:0:0:
256,192,155085,1,8,0:0:0:0:
256,192,155385,5,0,0:0:0:0:
256,192,155685,1,0,0:0:0:0:
256,192,155985,1,0,0:0:0:0:
256,192,156285,1,8,0:0:0:0:
256,192,156885,5,0,0:0:0:0:
256,192,157185,5,0,0:0:0:0:
256,192,157485,5,0,0:0:0:0:
32,192,157785,6,0,L|416:192,1,280
256,192,158985,5,0,0:0:0:0:
256,192,159285,1,0,0:0:0:0:
256,192,159585,1,0,0:0:0:0:
256,192,159885,1,8,0:0:0:0:
256,192,160185,5,0,0:0:0:0:
256,192,160485,1,0,0:0:0:0:
256,192,160785,1,0,0:0:0:0:
256,192,161085,1,8,0:0:0:0:
256,192,161685,5,0,0:0:0:0:
256,192,161985,5,0,0:0:0:0:
256,192,162285,5,0,0:0:0:0:
32,192,162585,6,0,L|416:192,1,280
256,192,163785,5,0,0:0:0:0:
256,192,164085,1,0,0:0:0:0:
256,192,164385,1,0,0:0:0:0:
256,192,164685,1,8,0:0:0:0:
256,192,164985,5,0,0:0:0:0:
256,192,165285,1,0,0:0:0:0:
256,192,165585,1,0,0:0:0:0:
256,192,165885,1,8,0:0:0:0:
256,192,166485,5,0,0:0:0:0:
256,192,166785,5,0,0:0:0:0:
256,192,167085,5,0,0:0:0:0:
32,192,167385,6,0,L|416:192,1,280
256,192,168585,5,0,0:0:0:0:
256,192,168885,1,0,0:0:0:0:
256,192,169185,1,0,0:0:0:0:
256,192,169485,1,8,0:0:0:0:
256,192,169785,5,0,0:0:0:0:
256,192,170085,1,0,0:0:0:0:
256,192,170385,1,0,0:0:0:0:
256,192,170685,1,8,0:0:0:0:
256,192,171285,5,0,0:0:0:0:
256,192,171585,5,0,0:0:0:0:
256,192,171885,5,0,0:0:0:0:
32,192,172185,6,0,L|416:192,1,280
256,192,173385,5,0,0:0:0:0:
256,192,174585,1,8,0:0:0:0:
256,192,174885,1,8,0:0:0:0:
256,192,175185,1,8,0:0:0:0:
256,192,175785,5,0,0:0:0:0:
256,192,176985,1,8,0:0:0:0:
256,192,177285,1,8,0:0:0:0:
256,192,177585,1,8,0:0:0:0:
256,192,178185,5,0,0:0:0:0:
256,192,179385,1,8,0:0:0:0:
256,192,179685,1,8,0:0:0:0:
256,192,179985,1,8,0:0:0:0:
256,192,180585,5,0,0:0:0:0:
256,192,181785,1,8,0:0:0:0:
256,192,182085,1,8,0:0:0:0:
256,192,182385,1,8,0:0:0:0:
256,192,182985,5,0,0:0:0:0:
256,192,184185,1,8,0:0:0:0:
256,192,184485,1,8,0:0:0:0:
256,192,184785,1,8,0:0:0:0:
256,192,185385,5,0,0:0:0:0:
256,192,186585,1,8,0:0:0:0:
256,192,186885,1,8,0:0:0:0:
256,192,187185,1,8,0:0:0:0:
256,192,187785,5,0,0:0:0:0:
256,192,188985,1,8,0:0:0:0:
256,192,189285,1,8,0:0:0:0:
256,192,189585,1,8,0:0:0:0:
256,192,190185,5,0,0:0:0:0:
0,96,191385,2,0,L|480:96,1,420
256,192,193185,5,0,0:0:0:0:
