osu file format v14

[General]
AudioFilename: 01.mp3
AudioLeadIn: 0
PreviewTime: 79364
Countdown: 1
SampleSet: Normal
StackLeniency: 0.7
Mode: 0
LetterboxInBreaks: 1
WidescreenStoryboard: 0

[Editor]
DistanceSpacing: 0.6
BeatDivisor: 4
GridSize: 4
TimelineZoom: 2.599999

[Metadata]
Title:Kantai otome
TitleUnicode:艦隊乙女
Artist:COOL&CREATE
ArtistUnicode:COOL&CREATE
Creator:Main Black
Version:Insane
Source:Kantai Collection
Tags:艦隊これくしょん -艦これ- kantai collection
BeatmapID:668297
BeatmapSetID:297742

[Difficulty]
HPDrainRate:7
CircleSize:4
OverallDifficulty:7
ApproachRate:9
SliderMultiplier:2
SliderTickRate:2

[Events]
//Background and Video events
0,0,"kongou_.jpg",0,0
//Break Periods
//Storyboard Layer 0 (Background)
//Storyboard Layer 1 (Fail)
//Storyboard Layer 2 (Pass)
//Storyboard Layer 3 (Foreground)
//Storyboard Sound Samples

[TimingPoints]
964,400,4,1,1,100,1,0
964,-125,4,1,1,100,0,0
12164,-80,4,2,1,100,0,0
12964,-200,4,2,1,100,0,0
13364,-66.6666666666667,4,1,1,100,0,0
13664,-100,4,1,1,100,0,0
52164,-100,4,1,3,100,0,0
64564,-100,4,1,2,100,0,0
77764,-100,4,1,1,100,0,0
79364,-90.9090909090909,4,1,1,100,0,0
79764,-66.6666666666667,4,1,1,100,0,0
80164,-90.9090909090909,4,1,1,100,0,0
90564,-76.9230769230769,4,1,1,100,0,0
91364,-90.9090909090909,4,1,1,100,0,0
92164,-133.333333333333,4,1,1,100,0,0
92564,-66.6666666666667,4,1,1,100,0,0
93164,-90.9090909090909,4,1,1,100,0,0
95764,-80,4,1,1,100,0,0
96164,-90.9090909090909,4,1,1,100,0,0
98564,-133.333333333333,4,1,1,100,0,0
98964,-76.9230769230769,4,1,1,100,0,0
99364,-133.333333333333,4,1,1,100,0,0
99764,-76.9230769230769,4,1,1,100,0,0
100164,-90.9090909090909,4,1,1,100,0,0
102164,-83.3333333333333,4,1,1,100,0,0
102764,-90.9090909090909,4,1,1,100,0,0
102964,-83.3333333333333,4,1,1,100,0,0
103364,-80,4,2,1,100,0,0
103464,-80,4,2,1,5,0,0
103564,-80,4,2,1,100,0,0
103664,-80,4,2,1,5,0,0
103764,-80,4,2,1,100,0,0
103864,-80,4,2,1,5,0,0
103964,-80,4,2,1,100,0,0
104064,-80,4,2,1,5,0,0
104164,-200,4,2,1,100,0,0
104564,-66.6666666666667,4,1,1,100,0,0
104964,-90.9090909090909,4,1,1,100,0,0
108964,-86.9565217391304,4,1,1,100,0,0
109764,-90.9090909090909,4,1,1,100,0,0

[Colours]
Combo1 : 215,28,28
Combo2 : 81,125,244
Combo3 : 255,255,255
Combo4 : 249,239,66

[HitObjects]
84,88,964,5,0,0:0:0:0:
323,174,1364,2,0,L|244:168,1,80
76,352,1764,1,0,0:0:0:0:
180,288,1964,2,0,B|224:308|224:308|272:280|333:288,1,160
488,324,2564,1,0,0:0:0:0:
368,164,2764,2,0,L|375:125,1,40
384,68,2964,1,0,0:0:0:0:
244,192,3164,1,0,0:0:0:0:
192,32,3364,1,0,0:0:0:0:
12,112,3564,5,0,0:0:0:0:
116,224,3764,1,0,0:0:0:0:
400,133,3964,1,0,0:0:0:0:
448,116,4064,1,0,0:0:0:0:
480,164,4164,6,0,L|300:152,1,160
188,144,4764,1,0,0:0:0:0:
108,240,4964,1,0,0:0:0:0:
288,96,5164,2,0,B|316:143|316:143|316:207|275:236,1,160
108,208,5764,6,0,L|68:204,1,40
184,36,6064,2,0,L|223:31,1,40
360,92,6364,1,0,0:0:0:0:
432,296,6564,2,0,L|451:218,1,80
451,218,6864,1,0,0:0:0:0:
451,218,6964,1,0,0:0:0:0:
76,216,7364,6,0,L|228:232,1,120
244,236,7764,1,0,0:0:0:0:
104,356,7964,1,0,0:0:0:0:
156,112,8164,6,0,L|308:128,1,120
324,132,8564,1,0,0:0:0:0:
164,272,8764,1,0,0:0:0:0:
108,92,8964,6,0,L|208:80,1,80
292,92,9264,2,0,L|276:56,1,40
464,160,9564,2,0,L|448:240,1,80
284,348,9964,1,0,0:0:0:0:
344,208,10164,2,0,L|280:200,1,40
384,144,10364,1,0,0:0:0:0:
384,144,10464,1,0,0:0:0:0:
384,144,10564,6,0,B|428:168|428:168|452:232|410:269,1,160
272,352,11164,1,0,0:0:0:0:
336,216,11364,2,0,L|240:208,1,80
176,132,11664,1,0,0:0:0:0:
204,100,11764,2,0,L|300:108,1,80
136,280,12164,6,0,L|48:268,1,62.5,2|0,0:0|0:0,0:0:0:0:
120,224,12364,2,0,L|32:212,1,62.5,2|0,0:0|0:0,0:0:0:0:
104,168,12564,2,0,L|16:156,1,62.5,2|0,0:0|0:0,0:0:0:0:
88,112,12764,2,0,L|0:100,1,62.5,2|0,0:0|0:0,0:0:0:0:
136,40,12964,6,0,L|224:32,1,75,2|0,0:0|0:0,0:0:0:0:
209,32,13364,2,0,P|244:96|204:184,1,150.000005722046,12|0,2:0|0:0,0:0:0:0:
216,344,13664,5,2,0:0:0:0:
236,304,13764,2,0,P|284:292|360:300,1,100,8|0,0:0|0:0,0:0:0:0:
164,264,14064,1,0,0:0:0:0:
160,219,14164,2,0,P|194:183|264:151,1,100,2|0,0:0|0:0,0:0:0:0:
72,200,14464,1,0,0:0:0:0:
32,176,14564,2,0,L|23:52,1,100,10|0,0:0|0:0,0:0:0:0:
48,48,14864,1,0,0:0:0:0:
93,30,14964,5,2,0:0:0:0:
140,46,15064,1,2,0:0:0:0:
166,87,15164,1,2,0:0:0:0:
160,136,15264,1,2,0:0:0:0:
120,168,15364,2,0,L|192:156,1,50,12|0,0:0|0:0,0:0:0:0:
264,80,15564,2,0,L|336:92,1,50,2|0,0:0|0:0,0:0:0:0:
400,192,15764,2,0,L|351:201,1,50,2|0,0:0|0:0,0:0:0:0:
288,52,15964,2,0,L|337:60,1,50,2|0,0:0|0:0,0:0:0:0:
420,152,16164,5,10,0:0:0:0:
464,44,16364,1,0,0:0:0:0:
504,256,16564,1,4,0:0:0:0:
220,236,16764,2,0,L|284:220,1,50,2|0,0:0|0:0,0:0:0:0:
352,200,16964,1,10,0:0:0:0:
64,280,17164,6,0,P|84:224|64:168,1,100,2|0,0:0|0:0,0:0:0:0:
36,64,17564,1,2,0:0:0:0:
292,120,17764,1,10,0:0:0:0:
283,136,17864,1,2,0:0:0:0:
273,151,17964,1,2,0:0:0:0:
266,206,18064,1,0,0:0:0:0:
290,256,18164,1,2,0:0:0:0:
496,224,18364,1,2,0:0:0:0:
440,328,18564,6,0,L|332:320,1,100,12|0,0:0|0:0,0:0:0:0:
164,236,18864,1,0,0:0:0:0:
200,268,18964,2,0,L|316:252,1,100,2|0,0:0|0:0,0:0:0:0:
432,252,19264,1,0,0:0:0:0:
452,272,19364,2,0,L|468:200,1,50,12|0,0:0|0:0,0:0:0:0:
408,140,19564,2,0,L|424:68,1,50,2|0,0:0|0:0,0:0:0:0:
476,8,19764,1,4,0:0:0:0:
232,164,19964,1,0,0:0:0:0:
336,312,20164,5,10,0:0:0:0:
301,317,20264,1,2,0:0:0:0:
266,322,20364,1,2,0:0:0:0:
232,328,20464,1,0,0:0:0:0:
228,252,20564,1,2,0:0:0:0:
193,257,20664,1,2,0:0:0:0:
158,262,20764,1,2,0:0:0:0:
124,268,20864,1,0,0:0:0:0:
76,196,20964,6,0,B|65:147,1,50,12|0,0:0|0:0,0:0:0:0:
44,284,21164,2,0,B|33:235,1,50,2|0,0:0|0:0,0:0:0:0:
16,368,21364,2,0,B|5:319,1,50,2|0,0:0|0:0,0:0:0:0:
172,216,21564,2,0,B|162:265,1,50,2|0,0:0|0:0,0:0:0:0:
210,137,21764,5,12,0:0:0:0:
252,160,21864,1,2,0:0:0:0:
273,205,21964,1,6,0:0:0:0:
263,253,22064,1,0,0:0:0:0:
222,285,22164,2,0,L|348:275,1,100,2|0,0:0|0:0,0:0:0:0:
128,168,22564,2,0,L|28:177,1,100,10|0,0:0|0:0,0:0:0:0:
244,24,22964,2,0,L|264:136,1,100,2|0,0:0|0:0,0:0:0:0:
240,156,23264,1,0,0:0:0:0:
340,156,23364,6,0,L|324:204,1,50,12|0,0:0|0:0,0:0:0:0:
392,204,23564,2,0,L|364:246,1,50,2|0,0:0|0:0,0:0:0:0:
260,288,23764,2,0,L|239:231,1,50,2|0,0:0|0:0,0:0:0:0:
220,328,23964,2,0,L|191:286,1,50,2|0,0:0|0:0,0:0:0:0:
80,304,24164,1,10,0:0:0:0:
156,56,24364,1,2,0:0:0:0:
156,56,24464,1,0,0:0:0:0:
156,56,24564,1,4,0:0:0:0:
4,204,24764,1,2,0:0:0:0:
192,224,24964,5,8,0:0:0:0:
216,220,25064,1,2,0:0:0:0:
236,228,25164,2,0,P|252:264|252:296,1,50,4|0,0:0|0:0,0:0:0:0:
396,300,25364,1,0,0:0:0:0:
372,296,25464,1,2,0:0:0:0:
352,304,25564,2,0,P|336:340|336:372,1,50,4|0,0:0|0:0,0:0:0:0:
456,204,25764,5,10,0:0:0:0:
464,180,25864,1,2,0:0:0:0:
472,152,25964,2,0,L|464:88,1,50,4|0,0:0|0:0,0:0:0:0:
308,128,26164,1,0,0:0:0:0:
264,124,26264,1,2,0:0:0:0:
220,120,26364,1,2,0:0:0:0:
176,116,26464,1,2,0:0:0:0:
132,112,26564,6,0,L|0:140,1,100,8|0,0:0|0:0,0:0:0:0:
280,240,26964,2,0,L|148:212,1,100
380,92,27364,2,0,L|248:64,1,100,8|0,0:0|0:0,0:0:0:0:
208,92,27664,1,0,0:0:0:0:
168,84,27764,1,0,0:0:0:0:
408,64,27964,1,0,0:0:0:0:
260,172,28164,5,8,0:0:0:0:
460,224,28364,1,0,0:0:0:0:
296,280,28564,1,0,0:0:0:0:
496,332,28764,1,0,0:0:0:0:
219,351,28964,1,8,0:0:0:0:
210,335,29064,1,0,0:0:0:0:
200,320,29164,1,0,0:0:0:0:
193,265,29264,1,0,0:0:0:0:
217,215,29364,1,0,0:0:0:0:
368,168,29564,1,0,0:0:0:0:
232,40,29764,6,0,B|204:28|204:28|132:56,1,100,8|0,0:0|0:0,0:0:0:0:
28,224,30164,2,0,B|56:236|56:236|128:208,1,100
340,132,30564,2,0,L|325:179,1,50,8|0,0:0|0:0,0:0:0:0:
312,224,30764,1,0,0:0:0:0:
496,328,30964,2,0,L|481:280,1,50
460,208,31164,1,0,0:0:0:0:
248,288,31364,6,0,B|208:316|208:316|160:320|110:293,1,150,8|0,0:0|0:0,0:0:0:0:
332,244,31764,2,0,B|348:276|348:276|328:356,1,100
184,376,32164,1,8,0:0:0:0:
43,168,32364,1,0,0:0:0:0:
88,176,32464,1,0,0:0:0:0:
132,183,32564,1,0,0:0:0:0:
176,190,32664,1,0,0:0:0:0:
221,197,32764,2,0,L|284:176,1,50
292,76,32964,6,0,L|416:108,1,100,8|0,0:0|0:0,0:0:0:0:
168,252,33364,2,0,L|292:220,1,100
92,80,33764,1,8,0:0:0:0:
292,40,33964,1,0,0:0:0:0:
264,252,34164,1,0,0:0:0:0:
116,216,34364,1,0,0:0:0:0:
232,360,34564,5,8,0:0:0:0:
356,204,34764,1,0,0:0:0:0:
392,344,34964,1,0,0:0:0:0:
432,124,35164,1,0,0:0:0:0:
144,152,35364,2,0,B|128:72|128:72|112:88,1,100,8|0,0:0|0:0,0:0:0:0:
320,180,35764,2,0,B|304:260|304:260|288:244,1,100
76,256,36164,5,8,0:0:0:0:
78,279,36264,1,0,0:0:0:0:
81,303,36364,1,0,0:0:0:0:
280,304,36564,1,0,0:0:0:0:
278,327,36664,1,0,0:0:0:0:
275,351,36764,1,0,0:0:0:0:
156,192,36964,1,8,0:0:0:0:
384,264,37164,1,0,0:0:0:0:
188,328,37364,1,0,0:0:0:0:
248,84,37564,1,0,0:0:0:0:
52,148,37764,5,8,0:0:0:0:
84,172,37864,2,0,L|216:168,1,100
268,224,38164,2,0,L|348:196,1,50
420,260,38364,2,0,L|468:188,1,50
256,260,38564,2,0,B|244:292|244:292|248:328|269:351,1,100,8|0,0:0|0:0,0:0:0:0:
70,319,38964,1,0,0:0:0:0:
64,280,39064,1,0,0:0:0:0:
57,240,39164,1,0,0:0:0:0:
51,200,39264,1,0,0:0:0:0:
45,161,39364,1,4,2:0:0:0:
212,16,39564,5,0,0:0:0:0:
128,176,39764,1,0,0:0:0:0:
296,296,39964,1,0,0:0:0:0:
212,136,40164,2,0,L|348:128,1,100,8|0,0:0|0:0,0:0:0:0:
380,332,40564,2,0,L|244:324,1,100
248,292,40864,1,0,0:0:0:0:
172,232,40964,6,0,B|122:220|122:220|76:236,1,100,8|0,0:0|0:0,0:0:0:0:
380,332,41364,2,0,B|396:280|396:280|376:232,1,100
184,72,41764,1,8,0:0:0:0:
328,104,41964,1,0,0:0:0:0:
68,144,42164,1,0,0:0:0:0:
59,160,42264,1,0,0:0:0:0:
49,175,42364,1,0,0:0:0:0:
42,230,42464,1,0,0:0:0:0:
66,280,42564,6,0,L|176:320,1,100,8|0,0:0|0:0,0:0:0:0:
16,132,42964,2,0,L|126:92,1,100
280,156,43364,1,8,0:0:0:0:
84,196,43564,1,0,0:0:0:0:
384,80,43764,2,0,L|368:188,1,100
408,276,44064,1,0,0:0:0:0:
436,296,44164,6,0,P|368:296|381:362,1,150,8|0,0:0|0:0,0:0:0:0:
252,304,44564,2,0,L|148:296,1,100
32,140,44964,2,0,L|131:132,1,100,8|0,0:0|0:0,0:0:0:0:
360,120,45364,1,0,0:0:0:0:
428,188,45464,2,0,L|484:176,2,50
392,232,45764,6,0,L|252:220,1,100,10|0,0:0|0:0,0:0:0:0:
252,248,46064,1,0,0:0:0:0:
160,144,46164,2,0,P|111:136|62:145,1,100
224,44,46564,2,0,B|295:17|295:17|365:39,1,150,8|0,0:0|0:0,0:0:0:0:
440,104,46964,1,0,0:0:0:0:
360,296,47164,6,0,L|423:266,1,50
264,256,47364,2,0,P|257:309|285:369,1,100,10|0,0:0|0:0,0:0:0:0:
176,224,47664,1,0,0:0:0:0:
124,212,47764,2,0,P|81:244|58:307,1,100
124,96,48164,5,8,0:0:0:0:
301,27,48364,1,0,0:0:0:0:
369,205,48564,1,0,0:0:0:0:
192,273,48764,1,0,0:0:0:0:
272,128,48964,6,0,L|384:116,1,100,10|0,0:0|0:0,0:0:0:0:
476,60,49364,1,0,0:0:0:0:
428,284,49564,1,0,0:0:0:0:
352,92,49764,1,8,0:0:0:0:
512,224,49964,1,0,0:0:0:0:
256,176,50164,1,0,0:0:0:0:
448,140,50364,1,0,0:0:0:0:
332,280,50564,5,8,0:0:0:0:
304,300,50664,1,0,0:0:0:0:
276,320,50764,2,0,L|188:324,1,50
136,304,50964,1,0,0:0:0:0:
108,324,51064,1,0,0:0:0:0:
80,344,51164,2,0,L|-8:348,1,50
160,192,51364,2,0,L|148:64,1,100,8|0,0:0|0:0,0:0:0:0:
304,192,51664,1,0,0:0:0:0:
348,184,51764,2,0,L|430:85,1,100
440,264,52164,6,0,L|504:276,3,50,8|0|0|0,0:0|0:0|0:0|0:0,0:0:0:0:
308,328,52564,2,0,L|372:316,3,50
216,284,52964,1,8,0:0:0:0:
171,274,53064,1,0,0:0:0:0:
127,282,53164,1,0,0:0:0:0:
89,306,53264,1,0,0:0:0:0:
63,342,53364,5,0,0:0:0:0:
29,312,53464,1,0,0:0:0:0:
12,271,53564,1,0,0:0:0:0:
17,227,53664,1,0,0:0:0:0:
42,190,53764,5,8,0:0:0:0:
72,184,53864,1,0,0:0:0:0:
104,180,53964,2,0,L|152:156,1,50
218,45,54164,1,0,0:0:0:0:
248,52,54264,1,0,0:0:0:0:
276,60,54364,2,0,L|320:92,1,50
96,76,54564,1,8,0:0:0:0:
96,76,54664,1,0,0:0:0:0:
96,76,54764,2,0,L|64:8,1,50
218,45,54964,2,0,L|288:28,1,50
364,72,55164,2,0,L|434:55,1,50
504,124,55364,5,8,0:0:0:0:
511,167,55464,1,0,0:0:0:0:
503,212,55564,1,0,0:0:0:0:
480,249,55664,1,0,0:0:0:0:
445,278,55764,1,0,0:0:0:0:
403,293,55864,1,0,0:0:0:0:
358,292,55964,1,0,0:0:0:0:
316,276,56064,1,0,0:0:0:0:
288,240,56164,5,8,0:0:0:0:
259,251,56264,1,0,0:0:0:0:
231,263,56364,1,0,0:0:0:0:
204,274,56464,1,0,0:0:0:0:
160,204,56564,1,0,0:0:0:0:
125,184,56664,1,0,0:0:0:0:
86,179,56764,1,0,0:0:0:0:
48,191,56864,1,0,0:0:0:0:
17,216,56964,6,0,L|-8:308,3,50,8|0|0|0,0:0|0:0|0:0|0:0,0:0:0:0:
116,112,57364,2,0,L|141:204,3,50
272,224,57764,2,0,L|285:175,3,50,8|0|0|0,0:0|0:0|0:0|0:0,0:0:0:0:
436,96,58164,2,0,L|449:144,3,50
384,88,58564,5,8,0:0:0:0:
341,113,58664,1,0,0:0:0:0:
319,157,58764,1,0,0:0:0:0:
324,206,58864,1,0,0:0:0:0:
355,244,58964,1,0,0:0:0:0:
402,260,59064,1,0,0:0:0:0:
449,248,59164,5,0,0:0:0:0:
409,218,59264,1,0,0:0:0:0:
360,208,59364,1,8,0:0:0:0:
312,220,59464,1,0,0:0:0:0:
274,252,59564,1,0,0:0:0:0:
252,297,59664,1,0,0:0:0:0:
252,346,59764,2,0,L|308:360,1,50
160,276,59964,2,0,L|215:262,1,50
296,208,60164,5,8,0:0:0:0:
303,189,60264,1,0,0:0:0:0:
308,170,60364,1,0,0:0:0:0:
311,150,60464,1,0,0:0:0:0:
310,130,60564,1,0,0:0:0:0:
307,110,60664,1,0,0:0:0:0:
302,91,60764,5,0,0:0:0:0:
294,73,60864,1,0,0:0:0:0:
284,55,60964,1,8,0:0:0:0:
271,40,61064,1,0,0:0:0:0:
256,26,61164,1,0,0:0:0:0:
240,15,61264,1,0,0:0:0:0:
223,5,61364,2,0,L|116:24,1,100
36,152,61764,5,8,0:0:0:0:
28,180,61864,1,0,0:0:0:0:
28,210,61964,1,0,0:0:0:0:
36,239,62064,1,0,0:0:0:0:
120,288,62164,1,0,0:0:0:0:
128,259,62264,1,0,0:0:0:0:
128,229,62364,1,0,0:0:0:0:
120,201,62464,1,0,0:0:0:0:
226,213,62564,5,8,0:0:0:0:
268,196,62664,1,0,0:0:0:0:
312,196,62764,1,0,0:0:0:0:
350,221,62864,1,0,0:0:0:0:
412,296,62964,1,0,0:0:0:0:
370,313,63064,1,0,0:0:0:0:
326,313,63164,1,0,0:0:0:0:
288,288,63264,1,0,0:0:0:0:
350,221,63364,6,0,L|432:244,1,50,10|0,0:0|0:0,0:0:0:0:
232,340,63564,2,0,L|314:317,1,50,2|0,0:0|0:0,0:0:0:0:
128,220,63764,2,0,L|210:243,1,50,2|0,0:0|0:0,0:0:0:0:
10,339,63964,2,0,L|92:316,1,50,2|0,0:0|0:0,0:0:0:0:
32,180,64164,2,0,L|17:159,7,25,10|0|0|0|0|0|0|0,0:0|0:0|0:0|0:0|0:0|0:0|0:0|0:0,0:0:0:0:
92,124,64564,2,0,L|212:132,1,100,2|0,0:0|0:0,0:0:0:0:
280,96,64864,1,0,0:0:0:0:
296,92,64964,1,12,0:0:0:0:
496,184,65164,6,0,L|436:176,1,50,2|0,0:0|0:0,0:0:0:0:
440,280,65364,2,0,L|328:296,1,100,2|0,0:0|0:0,0:0:0:0:
296,272,65664,1,0,0:0:0:0:
176,252,65764,2,0,B|156:284|156:284|160:312|172:356,1,100,8|0,0:0|0:0,0:0:0:0:
116,160,66064,1,0,0:0:0:0:
144,120,66164,2,0,L|132:64,1,50,2|0,0:0|0:0,0:0:0:0:
304,36,66364,2,0,L|277:78,1,50
164,144,66564,6,0,L|24:128,1,100,8|0,0:0|0:0,0:0:0:0:
268,228,66864,1,0,0:0:0:0:
308,256,66964,2,0,L|448:240,1,100,2|0,0:0|0:0,0:0:0:0:
180,308,67264,1,0,0:0:0:0:
136,340,67364,2,0,L|-4:324,1,100,8|0,0:0|0:0,0:0:0:0:
236,200,67664,1,0,0:0:0:0:
304,160,67764,2,0,L|444:176,1,100,2|0,0:0|0:0,0:0:0:0:
220,52,68064,6,2,L|144:44,1,50,0|8,0:0|0:0,0:0:0:0:
60,80,68264,2,0,L|9:137,1,50
12,224,68464,2,2,L|30:298,1,50,2|0,0:0|0:0,0:0:0:0:
180,372,68764,5,2,0:0:0:0:
296,132,68964,2,0,L|356:112,1,50,10|0,0:0|0:0,0:0:0:0:
292,252,69164,1,0,0:0:0:0:
256,272,69264,2,0,L|164:256,1,50,2|0,0:0|0:0,0:0:0:0:
88,152,69564,1,0,0:0:0:0:
384,48,69764,5,10,0:0:0:0:
424,56,69864,1,0,0:0:0:0:
460,64,69964,2,0,L|520:104,1,50,2|0,0:0|0:0,0:0:0:0:
308,160,70164,1,0,0:0:0:0:
348,168,70264,1,0,0:0:0:0:
384,176,70364,2,0,L|444:216,1,50,2|0,0:0|0:0,0:0:0:0:
280,284,70564,5,10,0:0:0:0:
240,276,70664,1,0,0:0:0:0:
204,268,70764,2,0,L|144:228,1,50,2|0,0:0|0:0,0:0:0:0:
124,92,70964,1,0,0:0:0:0:
84,100,71064,1,0,0:0:0:0:
48,108,71164,2,0,L|-12:148,1,50,2|0,0:0|0:0,0:0:0:0:
88,204,71364,6,0,P|88:264|60:316,1,100,10|0,0:0|0:0,0:0:0:0:
204,356,71664,2,0,L|172:296,1,50
208,108,71964,1,2,0:0:0:0:
428,168,72164,6,0,L|328:177,1,100,10|0,0:0|0:0,0:0:0:0:
484,256,72464,2,0,L|511:214,1,50,2|0,0:0|0:0,0:0:0:0:
512,100,72664,2,0,L|484:58,1,50
292,264,72964,6,0,L|312:376,1,100,10|0,0:0|0:0,0:0:0:0:
168,248,73264,2,0,L|200:188,1,50
152,60,73564,1,0,0:0:0:0:
356,264,73764,6,0,L|428:264,1,50,8|0,0:0|0:0,0:0:0:0:
284,200,73964,1,0,0:0:0:0:
248,248,74064,1,0,0:0:0:0:
256,300,74164,2,0,L|324:384,1,100,2|0,0:0|0:0,0:0:0:0:
92,336,74564,6,0,L|108:232,1,100,10|0,0:0|0:0,0:0:0:0:
40,136,74864,2,0,L|164:120,1,100,2|0,0:0|0:0,0:0:0:0:
256,172,75164,1,2,0:0:0:0:
420,336,75364,6,0,L|404:232,1,100,10|0,0:0|0:0,0:0:0:0:
472,136,75664,2,0,L|348:120,1,100,2|0,0:0|0:0,0:0:0:0:
256,172,75964,1,2,0:0:0:0:
152,52,76164,6,0,L|164:176,1,100,10|0,0:0|0:0,0:0:0:0:
350,151,76464,2,0,L|360:52,1,100,2|0,0:0|0:0,0:0:0:0:
256,172,76764,2,0,L|256:256,1,50,2|0,0:0|0:0,0:0:0:0:
348,264,76964,2,0,P|207:321|183:171,1,350,10|0,0:0|0:0,0:0:0:0:
312,104,77764,6,0,L|436:96,1,100,8|0,0:0|0:0,0:0:0:0:
196,68,78064,1,0,0:0:0:0:
180,100,78164,2,0,L|212:204,1,100
124,312,78464,1,0,0:0:0:0:
148,344,78564,2,0,B|200:360|200:360|260:348,1,100,8|0,0:0|0:0,0:0:0:0:
352,172,78964,2,0,B|300:156|300:156|240:168,1,100
463,120,79364,6,0,P|511:173|446:203,1,165.000005035401,12|0,0:0|0:0,0:0:0:0:
452,108,79764,2,0,L|468:268,1,150.000005722046,8|0,0:2|0:0,0:0:0:0:
216,120,80164,1,12,0:0:0:0:
416,356,80364,1,2,0:0:0:0:
416,356,80464,1,2,0:0:0:0:
416,356,80564,1,2,0:0:0:0:
416,356,80664,1,2,0:0:0:0:
416,356,80764,1,2,0:0:0:0:
223,299,80964,6,2,P|167:312|120:380,1,110.000003356934,12|0,0:0|0:0,0:0:0:0:
135,375,81264,1,0,0:0:0:0:
171,271,81364,2,0,L|175:215,1,55.0000016784668,2|0,0:0|0:0,0:0:0:0:
71,231,81564,2,0,L|75:175,1,55.0000016784668,2|0,0:0|0:0,0:0:0:0:
19,331,81764,2,0,P|79:331|139:315,1,110.000003356934,10|0,0:0|0:0,0:0:0:0:
207,255,82064,1,0,0:0:0:0:
210,222,82164,1,2,0:0:0:0:
213,189,82264,1,0,0:0:0:0:
216,156,82364,1,2,0:0:0:0:
218,123,82464,1,2,0:0:0:0:
221,90,82564,1,6,0:0:0:0:
508,236,82864,5,0,0:0:0:0:
492,256,82964,2,0,L|340:248,1,110.000003356934,8|0,2:0|0:0,0:0:0:0:
382,250,83264,1,0,0:0:0:0:
382,250,83364,1,12,0:0:0:0:
92,112,83564,1,0,0:0:0:0:
172,268,83764,2,0,L|140:396,1,110.000003356934,2|0,0:0|0:0,0:0:0:0:
320,296,84164,5,14,0:0:0:0:
348,324,84264,2,0,L|476:324,1,100,2|0,0:0|0:0,0:0:0:0:
396,208,84564,2,0,L|524:208,1,100,2|0,0:0|0:0,0:0:0:0:
448,104,84864,1,2,0:0:0:0:
420,80,84964,2,0,L|336:92,1,55.0000016784668,12|0,0:0|0:0,0:0:0:0:
276,44,85164,2,0,L|192:56,1,55.0000016784668,2|0,0:0|0:0,0:0:0:0:
196,172,85364,2,0,L|112:184,1,55.0000016784668,2|0,0:0|0:0,0:0:0:0:
60,88,85564,2,0,L|5:95,1,55.0000016784668,2|0,0:0|0:0,0:0:0:0:
40,236,85764,5,10,0:0:0:0:
304,324,85964,1,0,0:0:0:0:
304,324,86064,1,0,0:0:0:0:
304,324,86164,2,0,L|444:312,1,110.000003356934,4|0,0:0|0:0,0:0:0:0:
484,192,86564,1,10,0:0:0:0:
180,88,86764,1,0,0:0:0:0:
180,88,86864,1,0,0:0:0:0:
180,88,86964,2,0,L|192:200,1,110.000003356934,4|0,0:0|0:0,0:0:0:0:
172,324,87364,5,8,0:0:0:0:
420,240,87564,1,0,0:0:0:0:
376,244,87664,1,2,0:0:0:0:
332,248,87764,1,4,0:0:0:0:
460,376,87964,1,0,0:0:0:0:
512,168,88164,1,8,0:0:0:0:
512,168,88264,1,0,0:0:0:0:
512,168,88364,1,2,0:0:0:0:
488,132,88464,1,0,0:0:0:0:
448,112,88564,2,0,L|352:124,1,55.0000016784668,4|0,0:0|0:0,0:0:0:0:
220,148,88764,1,2,0:0:0:0:
176,155,88864,1,0,0:0:0:0:
133,166,88964,6,0,B|40:188|40:188|100:184|188:216,1,220.000006713867,10|4,0:0|0:0,0:0:0:0:
328,280,89564,1,2,0:0:0:0:
168,116,89764,2,0,L|48:104,1,110.000003356934,10|0,0:0|0:0,0:0:0:0:
164,24,90064,1,0,0:0:0:0:
200,44,90164,2,0,L|320:32,1,110.000003356934,4|0,0:0|0:0,0:0:0:0:
416,176,90564,6,0,P|490:150|465:225,1,194.999991073609,10|0,0:0|0:0,0:0:0:0:
356,284,90964,2,0,P|281:258|306:333,1,194.999991073609,4|0,0:0|0:0,0:0:0:0:
352,200,91364,1,8,0:0:0:0:
317,157,91464,1,0,0:0:0:0:
267,136,91564,1,2,0:0:0:0:
213,141,91664,1,0,0:0:0:0:
168,171,91764,1,2,0:0:0:0:
142,219,91864,1,2,0:0:0:0:
142,274,91964,1,0,0:0:0:0:
168,322,92064,1,2,0:0:0:0:
215,351,92164,6,0,P|256:356|292:344,1,75.0000028610231,12|0,0:0|0:0,0:0:0:0:
287,346,92564,2,0,P|184:313|103:385,1,225.000008583069,8|0,2:0|0:0,0:0:0:0:
132,280,92964,1,12,0:0:0:0:
336,108,93164,1,2,0:0:0:0:
388,103,93264,1,2,0:0:0:0:
413,149,93364,1,2,0:0:0:0:
384,191,93464,1,0,0:0:0:0:
332,182,93564,1,2,0:0:0:0:
188,112,93764,6,0,L|48:104,1,110.000003356934,12|0,0:0|0:0,0:0:0:0:
44,136,94064,1,0,0:0:0:0:
156,184,94164,2,0,L|244:168,1,55.0000016784668,2|0,0:0|0:0,0:0:0:0:
248,56,94364,2,0,L|160:40,1,55.0000016784668,2|0,0:0|0:0,0:0:0:0:
28,124,94564,2,0,B|8:180|8:180|32:232,1,110.000003356934,10|0,0:0|0:0,0:0:0:0:
145,296,94864,1,0,0:0:0:0:
196,276,94964,1,2,0:0:0:0:
251,275,95064,1,2,0:0:0:0:
304,289,95164,1,2,0:0:0:0:
320,304,95264,1,2,0:0:0:0:
336,316,95364,1,14,0:0:0:0:
368,116,95664,5,0,0:0:0:0:
457,135,95764,2,0,B|484:128|496:108|496:108|512:192|440:220,1,187.5,8|0,2:0|0:0,0:0:0:0:
252,152,96164,1,12,0:0:0:0:
68,344,96364,1,2,0:0:0:0:
68,344,96464,1,0,0:0:0:0:
140,376,96564,2,0,P|160:325|155:271,1,110.000003356934,2|0,0:0|0:0,0:0:0:0:
56,96,96964,6,0,B|88:104|88:104|172:84,1,110.000003356934,12|0,0:0|0:0,0:0:0:0:
192,52,97264,1,0,0:0:0:0:
280,172,97364,2,0,B|248:164|248:164|164:184,1,110.000003356934,2|0,0:0|0:0,0:0:0:0:
144,224,97664,1,0,0:0:0:0:
244,316,97764,6,0,L|259:263,1,55.0000016784668,12|0,0:0|0:0,0:0:0:0:
332,304,97964,2,0,L|347:251,1,55.0000016784668,2|0,0:0|0:0,0:0:0:0:
484,352,98164,2,0,L|464:284,1,55.0000016784668,2|0,0:0|0:0,0:0:0:0:
396,340,98364,2,0,L|376:272,1,55.0000016784668,2|0,0:0|0:0,0:0:0:0:
388,72,98564,6,0,P|372:132|416:176,1,112.500004291535,10|0,0:0|0:0,0:0:0:0:
428,52,98964,2,0,L|296:60,1,129.999994049073,4|0,0:0|0:0,0:0:0:0:
128,148,99364,6,0,P|130:210|80:252,1,112.500004291535,10|0,0:0|0:0,0:0:0:0:
24,40,99764,2,0,L|48:192,1,129.999994049073,4|0,0:0|0:0,0:0:0:0:
284,288,100164,2,0,L|308:140,1,110.000003356934,10|0,0:0|0:0,0:0:0:0:
380,80,100464,2,0,L|416:164,1,55.0000016784668,0|4,0:0|0:0,0:0:0:0:
220,184,100764,2,0,P|164:184|108:176,1,110.000003356934,2|8,0:0|0:0,0:0:0:0:
68,148,101064,1,0,0:0:0:0:
36,105,101164,1,2,0:0:0:0:
54,55,101264,1,0,0:0:0:0:
104,36,101364,2,0,L|182:29,1,55.0000016784668,6|0,0:0|0:0,0:0:0:0:
326,132,101564,2,0,L|272:128,1,55.0000016784668,2|0,0:0|0:0,0:0:0:0:
184,224,101764,1,0,0:0:0:0:
448,200,101964,6,0,L|503:206,1,55.0000016784668,2|0,0:0|0:0,0:0:0:0:
415,162,102164,2,0,L|424:274,1,110.000003356934,6|0,0:0|0:0,0:0:0:0:
435,378,102464,1,0,0:0:0:0:
435,378,102564,1,8,0:0:0:0:
216,320,102764,2,0,L|156:332,1,55.0000016784668,2|0,0:0|0:0,0:0:0:0:
40,232,102964,2,0,L|164:244,1,119.999996337891,6|0,0:0|0:0,0:0:0:0:
264,216,103264,1,0,0:0:0:0:
250,108,103364,6,0,L|295:31,1,62.5,2|0,0:0|0:0,0:0:0:0:
312,104,103564,2,0,L|357:27,1,62.5,2|0,0:0|0:0,0:0:0:0:
374,100,103764,2,0,L|419:23,1,62.5,2|0,0:0|0:0,0:0:0:0:
437,96,103964,2,0,L|482:19,1,62.5,2|0,0:0|0:0,0:0:0:0:
508,168,104164,2,0,P|512:205|506:242,1,75,2|0,0:0|0:0,0:0:0:0:
432,300,104564,2,0,L|280:289,1,150.000005722046,12|0,2:0|0:0,0:0:0:0:
172,280,104864,1,0,0:0:0:0:
56,296,104964,6,0,P|95:332|149:335,1,110.000003356934
256,264,105264,1,0,0:0:0:0:
240,208,105364,2,0,P|200:171|146:168,1,110.000003356934
28,244,105664,1,0,0:0:0:0:
11,143,105764,2,0,L|64:128,1,55.0000016784668
168,144,105964,2,0,L|204:68,3,55.0000016784668
292,124,106364,2,0,L|328:48,1,55.0000016784668
433,32,106564,5,0,0:0:0:0:
479,67,106664,1,0,0:0:0:0:
472,124,106764,1,0,0:0:0:0:
420,148,106864,1,0,0:0:0:0:
372,114,106964,2,0,P|404:172|368:252,1,110.000003356934
292,304,107264,1,0,0:0:0:0:
292,304,107364,2,0,L|176:298,1,110.000003356934
52,292,107664,1,0,0:0:0:0:
228,216,107764,2,0,L|215:162,1,55.0000016784668
336,296,107964,2,0,L|323:349,1,55.0000016784668
436,228,108164,5,0,0:0:0:0:
440,220,108264,1,0,0:0:0:0:
444,212,108364,2,0,L|512:196,1,55.0000016784668
324,132,108564,2,0,L|256:116,1,55.0000016784668
392,64,108764,1,0,0:0:0:0:
416,56,108864,1,0,0:0:0:0:
440,48,108964,2,0,B|384:24|384:24|300:40,1,115.000002193451
404,208,109264,1,0,0:0:0:0:
380,216,109364,2,0,B|436:240|436:240|520:224,1,115.000002193451
512,184,109664,1,0,0:0:0:0:
432,276,109764,6,0,L|320:264,1,110.000003356934
236,152,110064,1,0,0:0:0:0:
264,120,110164,2,0,L|152:132,1,110.000003356934
68,200,110464,1,0,0:0:0:0:
279,264,110564,2,0,L|349:228,1,55.0000016784668
214,159,110764,2,0,L|143:194,1,55.0000016784668
133,305,110964,2,0,L|203:269,1,55.0000016784668
68,200,111164,2,0,L|-2:235,1,55.0000016784668
176,244,111364,5,0,0:0:0:0:
220,240,111464,1,0,0:0:0:0:
264,235,111564,2,0,L|318:228,1,55.0000016784668
468,136,111764,1,0,0:0:0:0:
424,132,111864,1,0,0:0:0:0:
380,127,111964,2,0,L|325:120,1,55.0000016784668
136,72,112164,2,0,B|156:74|156:74|188:62,1,55.0000016784668
236,160,112364,2,0,B|233:180|233:180|245:212,1,55.0000016784668
279,321,112564,1,0,0:0:0:0:
227,291,112664,1,0,0:0:0:0:
168,280,112764,1,0,0:0:0:0:
108,287,112864,1,0,0:0:0:0:
64,306,112964,5,0,0:0:0:0:
122,316,113064,1,0,0:0:0:0:
167,278,113164,1,0,0:0:0:0:
168,220,113264,1,0,0:0:0:0:
120,184,113364,2,0,L|245:195,1,110.000003356934
408,212,113664,1,0,0:0:0:0:
376,356,113764,2,0,B|360:324|360:324|373:251,1,110.000003356934
408,212,114064,1,0,0:0:0:0:
324,100,114164,2,0,L|336:44,1,55.0000016784668
212,160,114364,2,0,L|200:104,1,55.0000016784668
128,40,114564,5,0,0:0:0:0:
95,33,114664,1,0,0:0:0:0:
63,27,114764,1,0,0:0:0:0:
30,21,114864,1,0,0:0:0:0:
67,110,114964,5,0,0:0:0:0:
100,104,115064,1,0,0:0:0:0:
132,98,115164,1,0,0:0:0:0:
165,91,115264,1,0,0:0:0:0:
255,127,115364,6,0,P|272:180|258:235,1,110.000003356934
124,280,115664,1,0,0:0:0:0:
124,280,115764,2,0,P|107:332|121:387,1,110.000003356934
240,332,116064,1,0,0:0:0:0:
303,216,116164,6,0,P|331:212|358:214,1,55.0000016784668
508,284,116364,2,0,L|480:236,1,55.0000016784668
352,120,116564,2,0,L|384:56,1,55.0000016784668
408,296,116764,2,0,P|412:324|408:352,1,55.0000016784668
292,372,116964,5,0,0:0:0:0:
244,364,117064,1,0,0:0:0:0:
244,364,117164,1,0,0:0:0:0:
244,364,117264,1,0,0:0:0:0:
196,356,117364,5,0,0:0:0:0:
161,314,117464,1,0,0:0:0:0:
153,260,117564,1,0,0:0:0:0:
175,210,117664,1,0,0:0:0:0:
219,179,117764,5,0,0:0:0:0:
