osu file format v9

[General]
AudioFilename: 03. Autumn Feelings.mp3
AudioLeadIn: 0
PreviewTime: 60490
Countdown: 0
SampleSet: Soft
StackLeniency: 0.7
Mode: 0
LetterboxInBreaks: 1

[Editor]
DistanceSpacing: 0.8
BeatDivisor: 4
GridSize: 8

[Metadata]
Title:Autumn Feelings
Artist:COOL&CREATE
Creator:Reiji-RJ
Version:Normal
Source:Touhou
Tags:amane beatmario momiji inubashiri mountain of faith mof fall of autumnal waterfall theme arrange zun

[Difficulty]
HPDrainRate:4
CircleSize:3
OverallDifficulty:5
ApproachRate:5
SliderMultiplier:1.3
SliderTickRate:2

[Events]
//Background and Video events
0,0,"BG.jpg"
//Break Periods
//Storyboard Layer 0 (Background)
//Storyboard Layer 1 (Fail)
//Storyboard Layer 2 (Pass)
//Storyboard Layer 3 (Foreground)
//Storyboard Sound Samples
//Background Colour Transformations
3,100,194,103,35

[TimingPoints]
12493,375,4,2,0,60,1,0
27399,-100,4,2,0,40,0,0
27586,-100,4,2,0,60,0,0
45493,-100,4,2,0,40,0,0
47743,-100,4,2,0,50,0,0
60493,-100,4,2,0,70,0,1
81493,-100,4,2,0,69,0,0
103055,-100,4,2,0,70,0,0
103243,-100,4,2,0,60,0,0
103430,-100,4,2,0,50,0,0
103618,-100,4,2,0,40,0,0
103805,-100,4,2,0,30,0,0
103993,-100,4,2,0,20,0,0
104180,-100,4,2,0,10,0,0
104368,-100,4,2,0,0,0,0

[Colours]
Combo1 : 255,150,0
Combo2 : 244,214,0
Combo3 : 193,104,51
Combo4 : 240,5,5

[HitObjects]
176,176,12493,1,2
256,104,12868,1,0
336,176,13243,1,0
144,264,13993,1,0
360,264,14743,1,2
408,64,15493,6,0,B|320:152|176:8|96:88,1,325,2|0
152,232,16993,1,0
360,232,17743,1,2
208,88,18493,5,2
304,88,18868,1,0
256,176,19243,1,0
360,352,19993,1,0
152,352,20743,1,2
120,144,21493,6,0,B|184:64|256:56|336:64|408:160,1,325,2|0
360,296,22993,1,0
152,296,23743,1,2
40,120,24493,6,0,B|80:232|176:232|256:152|336:72|424:72|488:200,1,520,0|2
392,248,26368,2,0,B|448:304,2,65
296,296,27118,1,0
200,248,27493,1,4
256,104,28055,5,0
416,104,28618,2,0,B|488:192|416:288,1,195
256,280,29743,1,0
464,176,30493,6,0,B|424:288|328:288|248:208|168:128|80:128|16:256,1,520,0|2
112,288,32368,2,0,B|56:344,2,65
160,288,32930,2,0,B|216:344,1,65,0|2
312,336,33493,1,2
424,232,34055,1,0
312,128,34618,1,2
64,208,35930,5,0
64,208,36118,1,2
64,208,36305,1,0
64,208,36493,2,0,B|112:56|264:16|408:56|464:232,1,520,2|2
408,296,38368,6,2,B|320:296,1,65
328,248,38743,2,0,B|328:168,2,65,0|2|0
256,328,39493,1,0
160,208,40055,1,0
256,88,40618,1,2
256,88,40993,5,0
256,296,41743,1,0
56,232,42493,6,0,B|88:128|216:64|320:64|424:136|464:248,1,520
360,272,44368,2,0,B|408:320,2,65
312,272,44930,2,0,B|256:328,1,65
256,192,45493,12,2,47743
80,104,48493,6,0,B|240:104,1,130
312,104,49243,2,0,B|392:104,1,65
392,208,49805,1,0
392,208,49993,1,2
328,288,50368,1,2
264,208,50743,1,0
200,288,51118,6,0,B|200:368,2,65,0|2|2
104,240,51868,1,0
80,136,52243,1,0
160,72,52618,1,2
240,136,52993,1,4
216,240,53368,1,0
320,240,53743,1,2
376,152,54118,6,0,B|376:88,2,65
432,240,54868,1,2
408,344,55243,1,0
304,320,55618,2,0,B|152:320,1,130,2|0
72,344,56368,1,2
48,240,56743,1,4
208,64,57493,5,2
208,64,57868,1,0
304,64,58243,1,2
304,64,58618,1,0
336,168,58993,2,0,B|352:264|312:336|256:360|192:336|152:256|184:144,1,390,2|0
72,200,60493,6,0,B|72:296,1,65,4|0
176,296,61055,1,0
256,232,61430,1,0
336,296,61805,1,4
416,232,62180,1,0
416,232,62368,1,0
448,112,63118,6,0,B|448:32,3,65,0|0|4|4
352,88,64055,1,0
256,136,64430,1,0
168,80,64805,2,0,B|24:112|24:208|24:312|184:336,1,390,4|0
328,328,66493,6,0,B|416:272|416:192|416:120|328:56,1,325,4|0
224,56,67805,2,0,B|136:120|136:192|136:264|224:328,1,325,0|0
328,328,69118,6,0,B|408:328,2,65,0|0|4
272,328,69680,1,0
200,256,70055,1,2
272,184,70430,1,2
376,184,70805,2,0,B|376:256,2,65,0|4|0
344,88,71555,1,4
240,88,71930,1,6
88,112,72493,6,2,B|0:200|104:304,1,195,6|0
184,328,73430,1,0
288,328,73805,1,4
384,288,74180,1,0
384,288,74368,1,0
376,80,75118,6,0,B|440:80,2,65,0|0|4
328,80,75680,1,0
240,136,76055,1,2
152,80,76430,1,2
64,136,76805,1,6
152,192,77180,2,0,B|112:256|152:320,2,130
256,312,78493,6,0,B|320:344|384:304,1,130,6|0
424,280,79055,2,0,B|480:224|408:136,1,130,2|0
368,80,79805,2,0,B|304:160|216:96|136:24|64:104,1,325,4|0
68,203,81118,2,0,B|68:291,2,65,0|0|4
264,280,82243,5,0
368,280,82618,1,0
368,280,82805,1,2
368,280,82993,1,0
424,192,83368,1,0
368,104,83743,1,0
264,104,84118,1,0
264,104,84305,1,2
264,104,84493,1,0
208,192,84868,5,2
208,296,85243,2,0,B|296:296,1,65,0|2
376,296,85805,1,2
352,144,86368,1,0
256,192,86743,1,2
160,144,87118,1,0
64,192,87493,5,4
256,104,88243,1,0
360,104,88618,2,0,B|440:104,2,65,2|0|2
416,192,89368,1,0
360,280,89743,1,2
256,304,90118,2,0,B|256:208,2,65,0|0|4
104,280,91055,1,2
104,120,91618,1,2
392,112,93118,6,0,B|392:16,2,65,0|0|4
344,312,94243,1,0
256,248,94618,2,0,B|256:336,2,65,0|2|2
168,312,95368,1,0
72,264,95743,1,0
64,160,96118,2,0,B|72:88|168:64,1,130,0|2
352,64,97243,6,2,B|408:80|432:136,1,97.5
384,192,97805,2,2,B|384:272,1,65
288,296,98368,1,0
184,296,98743,1,0
80,296,99118,1,2
80,192,99493,5,4
256,80,100243,1,0
360,88,100618,2,2,B|424:152,1,65
440,176,100993,1,2
400,272,101368,1,0
312,320,101743,1,2
208,320,102118,1,0
208,320,102305,1,2
208,320,102493,1,0
256,192,102680,12,0,104743
