osu file format v9

[General]
AudioFilename: 03. Autumn Feelings.mp3
AudioLeadIn: 0
PreviewTime: 60490
Countdown: 0
SampleSet: Soft
StackLeniency: 0.7
Mode: 0
LetterboxInBreaks: 1

[Editor]
DistanceSpacing: 0.8
BeatDivisor: 4
GridSize: 8

[Metadata]
Title:Autumn Feelings
Artist:COOL&CREATE
Creator:Reiji-RJ
Version:Easy
Source:Touhou
Tags:amane beatmario momiji inubashiri mountain of faith mof fall of autumnal waterfall theme arrange zun

[Difficulty]
HPDrainRate:3
CircleSize:3
OverallDifficulty:3
ApproachRate:3
SliderMultiplier:1
SliderTickRate:2

[Events]
//Background and Video events
0,0,"BG.jpg"
//Break Periods
//Storyboard Layer 0 (Background)
//Storyboard Layer 1 (Fail)
//Storyboard Layer 2 (Pass)
//Storyboard Layer 3 (Foreground)
//Storyboard Sound Samples
//Background Colour Transformations
3,100,194,103,35

[TimingPoints]
12493,375,4,2,0,60,1,0
27399,-100,4,2,0,40,0,0
27586,-100,4,2,0,60,0,0
39399,-100,4,2,0,40,0,0
39586,-100,4,2,0,60,0,0
45493,-100,4,2,0,40,0,0
47743,-100,4,2,0,50,0,0
47930,-100,4,2,0,69,0,0
60493,-100,4,2,0,70,0,1
81493,-100,4,2,0,70,0,0
103055,-100,4,2,0,70,0,0
103243,-100,4,2,0,60,0,0
103430,-100,4,2,0,50,0,0
103618,-100,4,2,0,40,0,0
103805,-100,4,2,0,30,0,0
103993,-100,4,2,0,20,0,0
104180,-100,4,2,0,10,0,0
104368,-100,4,2,0,0,0,0

[Colours]
Combo1 : 255,150,0
Combo2 : 244,214,0
Combo3 : 193,104,51
Combo4 : 240,5,5

[HitObjects]
200,256,12493,1,2
256,312,12868,1,0
312,256,13243,1,0
352,104,13993,2,0,B|256:56|152:104,1,200,2|0
72,232,15493,5,0
192,232,16055,1,0
272,232,16430,1,0
352,320,16993,2,0,B|256:376|160:320,1,200,2|0
184,160,18493,5,2
256,120,18868,1,0
328,160,19243,1,0
352,320,19993,2,0,B|256:376|160:320,1,200,2|0
152,160,21493,5,0
272,160,22055,1,0
352,160,22430,1,0
352,280,22993,2,0,B|256:328|152:280,1,200,2|0
80,136,24493,6,0,B|144:48|256:32|360:48|432:144,1,400,0|2
376,200,26368,1,0
136,200,27493,1,4
136,80,28055,5,0
256,104,28618,2,0,B|256:216,1,100
368,80,29743,1,2
416,232,30493,6,0,B|384:320|256:360|128:320|88:224,1,400,0|2
48,160,32368,1,0
256,48,33493,2,0,B|304:96|216:144|264:192,1,150,2|2
256,304,34618,1,2
48,144,36118,5,0
72,224,36493,2,0,B|104:272|256:336|408:272|440:216,1,400,0|2
408,144,38368,5,0
344,96,38743,1,0
280,144,39118,1,0
200,144,39493,2,0,B|160:184|96:104|48:152,2,150,4|2|2
160,296,41368,1,0
240,296,41743,1,0
400,280,42493,6,0,B|400:72,2,200,0|2|0
328,320,44368,1,0
256,280,44743,1,2
184,320,45118,1,0
120,272,45493,6,0,B|72:192|96:112|160:48|256:32|360:48|416:112|440:200|384:280,1,600,0|2
232,312,48493,6,0,B|200:352|136:312|72:280|32:328,1,200,2|0
96,168,49993,1,0
256,168,50743,1,0
336,168,51118,6,0,B|400:168,2,50,2|0|4
328,328,52243,1,0
184,328,52993,1,2
184,168,53743,5,0
184,88,54118,1,0
256,56,54493,1,2
328,88,54868,1,0
328,168,55243,1,0
256,200,55618,1,2
184,168,55993,2,0,B|80:168,2,100,2|0|2
192,328,57493,5,2
112,312,57868,1,0
112,232,58243,1,2
48,184,58618,1,0
80,112,58993,2,0,B|176:56|272:56|384:120,1,300,2|0
424,168,60493,6,0,B|496:224|440:312,1,150,4|0
368,312,61430,1,0
288,320,61805,2,0,B|264:360|176:296|136:336,1,150,4|0
48,192,63118,6,0,B|56:128|136:168|152:96,1,150,2|2
216,48,64055,1,4
264,112,64430,1,0
312,48,64805,1,4
440,144,65555,5,0
440,224,65930,1,2
384,328,66493,6,0,B|328:296|272:336|216:376|136:312,1,250,4|0
64,320,67805,2,0,B|32:240|32:136|80:80,1,250
240,72,69493,5,4
240,192,70055,1,0
320,192,70430,1,0
320,72,70993,5,4
440,72,71555,1,4
440,152,71930,1,4
400,264,72493,6,2,B|328:264,1,50,4|0
272,264,73055,2,0,B|160:264,1,100,2|2
112,320,73805,1,4
112,200,74368,1,0
192,64,75118,5,2
192,144,75493,1,4
304,104,76055,1,2
368,64,76430,1,2
432,104,76805,1,6
408,224,77368,5,0
328,224,77743,1,2
192,304,78493,6,0,B|160:272|96:344|48:288,2,150,4|2|0
232,304,79805,1,4
88,192,81118,6,4,B|88:128,2,50,0|0|4
216,296,82243,5,0
296,296,82618,2,0,B|344:344,2,50,0|0|2
256,232,83368,1,0
312,176,83743,1,2
256,120,84118,1,0
312,64,84493,1,2
232,40,84868,6,0,B|144:32|104:104,1,150,2|2
104,184,85805,1,0
216,216,86368,1,0
296,200,86743,1,2
376,216,87118,1,0
416,288,87493,5,4
256,288,88243,1,2
176,288,88618,2,2,B|128:336,2,50
112,232,89368,1,2
176,184,89743,1,0
112,136,90118,6,0,B|72:96,2,50,0|0|4
216,80,91055,1,6
336,80,91618,1,6
104,280,93118,6,0,B|104:216,2,50,0|0|4
264,312,94243,1,0
184,176,94993,1,2
104,312,95743,1,0
72,240,96118,2,2,B|72:120,1,100
208,56,97243,6,0,B|256:96|352:24|400:64,1,200,2|2
400,144,98368,1,0
456,200,98743,1,0
400,256,99118,1,2
344,200,99493,5,4
216,296,100243,1,0
136,296,100618,2,0,B|96:336,2,50,0|0|2
80,240,101368,1,0
136,184,101743,1,2
80,128,102118,1,0
136,72,102493,1,2
256,192,102680,12,0,104743
